<?xml version="1.0" standalone="no"?>
<!DOCTYPE svg PUBLIC "-//W3C//DTD SVG 1.1//EN" "http://www.w3.org/Graphics/SVG/1.1/DTD/svg11.dtd" >
<svg xmlns="http://www.w3.org/2000/svg">
<metadata></metadata>
<defs>
<font id="humanist_521bold" horiz-adv-x="1116" >
<font-face units-per-em="2048" ascent="1638" descent="-410" />
<missing-glyph horiz-adv-x="559" />
<glyph horiz-adv-x="0" />
<glyph horiz-adv-x="682" />
<glyph unicode=" "  horiz-adv-x="559" />
<glyph unicode="&#x09;" horiz-adv-x="559" />
<glyph unicode="&#xa0;" horiz-adv-x="559" />
<glyph unicode="!" horiz-adv-x="663" d="M152 160q0 74 52.5 127t127.5 53q76 0 128 -52.5t52 -127.5q0 -74 -52.5 -126t-127.5 -52t-127.5 52t-52.5 126zM166 1210q0 211 166 211t166 -211q0 -241 -62 -528q-36 -170 -49 -203q-20 -47 -55.5 -47t-51.5 40q-10 23 -28 105q-8 32 -12 50q-74 328 -74 583z" />
<glyph unicode="&#x22;" horiz-adv-x="677" d="M80 879v559h192v-559h-192zM406 879v559h192v-559h-192z" />
<glyph unicode="#" horiz-adv-x="1574" d="M45 406l76 200h282l86 242h-299l74 201h297l148 415h221l-146 -415h242l148 415h221l-148 -415h283l-74 -201h-280l-84 -242h290l-71 -200h-291l-148 -416h-221l148 416h-244l-149 -416h-220l146 416h-287zM621 606h251l86 242h-249z" />
<glyph unicode="$" d="M70 1004q0 161 105 264.5t294 126.5v143h158v-139q154 -9 329 -109v-256q-153 123 -329 137v-309q214 -73 314.5 -177.5t100.5 -260.5q0 -178 -110 -290.5t-305 -127.5v-235h-158v231q-194 12 -383 148v260q133 -88 221.5 -130t161.5 -42v362q-399 106 -399 404z M336 1049q0 -50 34.5 -86.5t98.5 -51.5v258q-62 -7 -97.5 -39.5t-35.5 -80.5zM627 250q66 9 101.5 45.5t35.5 93.5q0 55 -33 91t-104 63v-293z" />
<glyph unicode="%" horiz-adv-x="1990" d="M51 1004q0 175 121.5 296t296.5 121q174 0 296 -121.5t122 -295.5q0 -173 -122.5 -294.5t-295.5 -121.5q-175 0 -296.5 121.5t-121.5 294.5zM279 1004q0 -80 55.5 -135.5t134.5 -55.5q78 0 134 56t56 135q0 80 -55.5 135t-134.5 55t-134.5 -55t-55.5 -135zM440 -25 l944 1446h168l-948 -1446h-164zM1104 391q0 175 121.5 296.5t296.5 121.5q114 0 210 -55.5t151.5 -151.5t55.5 -211q0 -173 -122 -294.5t-295 -121.5q-175 0 -296.5 121.5t-121.5 294.5zM1331 391q0 -79 55.5 -134.5t135.5 -55.5q78 0 134 55.5t56 134.5q0 80 -55.5 135.5 t-134.5 55.5q-80 0 -135.5 -56t-55.5 -135z" />
<glyph unicode="&#x26;" horiz-adv-x="1486" d="M45 348q0 124 74.5 223t232.5 193q-69 91 -101 157.5t-32 135.5q0 159 119 262.5t317 103.5q186 0 295 -91.5t109 -235.5q0 -110 -62 -199t-190 -166l190 -217q118 150 148 217h315q-142 -290 -284 -418l272 -313h-422l-100 109q-203 -134 -437 -134q-196 0 -320 106.5 t-124 266.5zM379 381q0 -71 46.5 -117.5t119.5 -46.5q104 0 211 82l-238 274q-73 -49 -106 -93t-33 -99zM528 1092q0 -37 30.5 -81t94.5 -106q135 73 135 172q0 53 -35 86t-94 33q-58 0 -94.5 -29.5t-36.5 -74.5z" />
<glyph unicode="'" horiz-adv-x="352" d="M80 879v559h192v-559h-192z" />
<glyph unicode="(" horiz-adv-x="741" d="M84 477q0 249 120 493t351 451h217q-189 -211 -279 -439.5t-90 -498.5q0 -556 371 -942h-221q-226 183 -347.5 430t-121.5 506z" />
<glyph unicode=")" horiz-adv-x="741" d="M-33 1421h221q226 -184 348.5 -430t122.5 -504q0 -249 -121 -494t-352 -452h-217q189 211 279 440.5t90 499.5q0 280 -91 512t-280 428z" />
<glyph unicode="*" horiz-adv-x="1034" d="M113 930v174l315 -51l-258 190l123 123l186 -260l-49 315h172l-49 -313l188 258l123 -123l-260 -190l316 51v-174l-316 51l260 -190l-123 -123l-188 260l49 -316h-172l49 316l-186 -260l-123 123l258 190z" />
<glyph unicode="+" horiz-adv-x="1705" d="M254 512v199h498v510h202v-510h498v-199h-498v-512h-202v512h-498z" />
<glyph unicode="," horiz-adv-x="557" d="M90 -242q109 118 109 236v14q-46 13 -72.5 54.5t-26.5 97.5q0 74 52 127t127 53q87 0 138.5 -58t51.5 -159q0 -156 -105 -276.5t-274 -147.5v59z" />
<glyph unicode="-" horiz-adv-x="702" d="M80 342v270h541v-270h-541z" />
<glyph unicode="." horiz-adv-x="557" d="M100 160q0 74 52 127t127 53q76 0 128 -52.5t52 -127.5q0 -74 -52.5 -126t-127.5 -52t-127 52t-52 126z" />
<glyph unicode="/" horiz-adv-x="583" d="M-70 -190l519 1611h157l-520 -1611h-156z" />
<glyph unicode="0" d="M57 698q0 338 137.5 530.5t362.5 192.5q226 0 363 -191.5t137 -531.5t-137 -531.5t-363 -191.5q-225 0 -362.5 192.5t-137.5 530.5zM389 698q0 -234 40.5 -346t127.5 -112t128.5 113t41.5 345t-41.5 346.5t-128.5 114.5t-127.5 -113.5t-40.5 -347.5z" />
<glyph unicode="1" d="M399 0v1399h318v-1399h-318z" />
<glyph unicode="2" d="M63 0v45q128 151 201 240.5t156 200t125 184t70 151t28 142.5q0 204 -221 204q-71 0 -150 -39.5t-186 -121.5v276q210 141 438 141q210 0 332.5 -108.5t122.5 -292.5q0 -81 -27 -164t-84.5 -175t-130.5 -183.5t-180 -210.5h475v-289h-969z" />
<glyph unicode="3" d="M94 66v270q171 -111 312 -111q118 0 178.5 47.5t60.5 137.5q0 86 -60 137t-171 55v250q100 3 157.5 52t57.5 128q0 69 -56.5 111.5t-154.5 42.5q-131 0 -275 -78v240q137 73 351 73q208 0 327 -97.5t119 -256.5q0 -204 -207 -317q246 -94 246 -365q0 -187 -134 -298.5 t-366 -111.5q-240 0 -385 91z" />
<glyph unicode="4" d="M29 346v236l669 833h207v-852h133v-217h-133v-346h-301v346h-575zM264 563h340l4 430z" />
<glyph unicode="5" d="M102 49v273q154 -97 299 -97q122 0 187 54.5t65 156.5q0 91 -75 148t-203 57q-72 0 -189 -31v789h756v-279h-475v-246q30 3 59 3q219 0 343 -120.5t124 -330.5q0 -206 -140 -328.5t-386 -122.5q-216 0 -365 74z" />
<glyph unicode="6" d="M76 492q0 279 162 531.5t444 401.5l164 -206q-265 -160 -357 -375q67 30 148 30q184 0 297 -117t113 -304q0 -210 -134.5 -344t-347.5 -134q-223 0 -356 140.5t-133 376.5zM389 465q0 -105 45.5 -164t124.5 -59q84 0 133 55t49 145q0 98 -48.5 154.5t-131.5 56.5 q-85 0 -153 -59q-19 -74 -19 -129z" />
<glyph unicode="7" d="M84 1126v273h979l-539 -1442l-278 106l401 1063h-563z" />
<glyph unicode="8" d="M66 395q0 247 217 350q-172 91 -172 297q0 168 122 273.5t324 105.5t325.5 -106t123.5 -273q0 -204 -175 -297q218 -104 218 -350q0 -189 -133.5 -304.5t-358.5 -115.5t-358 115.5t-133 304.5zM387 410q0 -220 170 -220t170 220q0 102 -45 158.5t-125 56.5t-125 -56.5 t-45 -158.5zM403 1016q0 -89 40 -138t114 -49t115 49t41 138q0 192 -156 192q-154 0 -154 -192z" />
<glyph unicode="9" d="M61 946q0 210 135.5 343.5t348.5 133.5q223 0 355 -139t132 -375q0 -279 -161 -533.5t-443 -402.5l-166 207q268 161 359 375q-65 -29 -148 -29q-184 0 -298 117t-114 303zM369 958q0 -98 48.5 -154t131.5 -56q84 0 153 57q19 74 19 129q0 105 -45.5 164t-124.5 59 q-84 0 -133 -54.5t-49 -144.5z" />
<glyph unicode=":" horiz-adv-x="557" d="M100 160q0 74 52 127t127 53q76 0 128 -52.5t52 -127.5q0 -74 -52.5 -126t-127.5 -52t-127 52t-52 126zM100 788q0 74 52 126.5t127 52.5q76 0 128 -52t52 -127q0 -74 -52.5 -127t-127.5 -53t-127 53t-52 127z" />
<glyph unicode=";" horiz-adv-x="557" d="M90 -242q109 118 109 236v14q-46 13 -72.5 54.5t-26.5 97.5q0 74 52 127t127 53q87 0 138.5 -58t51.5 -159q0 -156 -105 -276.5t-274 -147.5v59zM100 788q0 74 52 126.5t127 52.5q76 0 128 -52t52 -127q0 -74 -52.5 -127t-127.5 -53t-127 53t-52 127z" />
<glyph unicode="&#x3c;" horiz-adv-x="1705" d="M264 512v199l1178 483v-219l-893 -365l893 -364v-219z" />
<glyph unicode="=" horiz-adv-x="1705" d="M254 297v199h1198v-199h-1198zM254 727v199h1198v-199h-1198z" />
<glyph unicode="&#x3e;" horiz-adv-x="1705" d="M264 27v219l895 364l-895 365v219l1178 -483v-199z" />
<glyph unicode="?" horiz-adv-x="815" d="M92 1141l45 239q127 47 225 47q168 0 260.5 -75t92.5 -209q0 -97 -42 -181.5t-130 -195.5q-68 -84 -90 -123q-45 -83 -45 -192l-97 -5q-73 64 -73 199q0 123 51 217q15 28 49 82t48.5 88t14.5 68q0 51 -30.5 81.5t-81.5 30.5q-71 0 -197 -71zM176 160q0 74 52 127t126 53 q76 0 128.5 -52.5t52.5 -127.5q0 -74 -53 -126t-128 -52t-126.5 52t-51.5 126z" />
<glyph unicode="@" horiz-adv-x="2048" d="M90 520q0 339 207 594q148 180 355.5 273.5t463.5 93.5q171 0 320 -45.5t256 -128.5q268 -207 268 -543q0 -165 -65.5 -305t-188.5 -238q-142 -115 -324 -115q-212 0 -215 166q-55 -84 -127.5 -123.5t-169.5 -39.5q-159 0 -241 87t-82 253q0 159 64.5 288.5t175 202 t243.5 72.5q161 0 236 -131l53 98h178l-147 -598q-7 -28 -7 -41q0 -70 95 -70q82 0 161 76q175 161 175 422q0 237 -184 393t-480 156q-284 0 -483 -135q-169 -114 -261 -285.5t-92 -374.5q0 -307 207 -490.5t553 -183.5q331 0 604 191l82 -117q-308 -231 -682 -231 q-387 0 -639 192q-309 239 -309 637zM760 444q0 -92 40.5 -140t117.5 -48q82 0 150.5 62t94.5 165l54 217q-12 81 -57 123.5t-118 42.5q-114 0 -198 -123.5t-84 -298.5z" />
<glyph unicode="A" horiz-adv-x="1476" d="M-41 0l610 1399h404l545 -1399h-371l-100 272h-603l-112 -272h-373zM545 512h413l-196 532z" />
<glyph unicode="B" horiz-adv-x="1384" d="M137 0v1399h516q277 0 417 -90.5t140 -268.5q0 -191 -186 -274q291 -91 291 -365q0 -401 -553 -401h-625zM489 256h203q133 0 192.5 37.5t59.5 126.5q0 91 -62.5 133.5t-191.5 42.5h-201v-340zM489 846h181q188 0 188 145q0 160 -188 160h-181v-305z" />
<glyph unicode="C" horiz-adv-x="1431" d="M68 698q0 212 96 376t276.5 256.5t419.5 92.5q256 0 490 -114v-328q-232 149 -467 149q-212 0 -333.5 -115.5t-121.5 -316.5q0 -195 115.5 -312.5t312.5 -117.5q253 0 506 176v-327q-251 -142 -535 -142q-333 0 -542 197q-105 100 -161 235t-56 291z" />
<glyph unicode="D" horiz-adv-x="1581" d="M137 0v1399h525q195 0 326 -28t251 -118q134 -101 203 -242t69 -311q0 -188 -84 -340.5t-243 -253.5q-108 -68 -224 -87t-298 -19h-525zM487 283h261q179 0 291 116.5t112 300.5t-112 300t-291 116h-261v-833z" />
<glyph unicode="E" horiz-adv-x="1175" d="M137 0v1399h936v-258h-586v-285h560v-260h-560v-334h603v-262h-953z" />
<glyph unicode="F" horiz-adv-x="1118" d="M137 0v1399h905v-258h-555v-303h521v-263h-521v-575h-350z" />
<glyph unicode="G" horiz-adv-x="1519" d="M68 698q0 159 56 293.5t158 229.5t251 148.5t329 53.5q257 0 520 -127v-307q-279 141 -501 141q-212 0 -332.5 -115.5t-120.5 -316.5q0 -197 114.5 -313.5t309.5 -116.5q104 0 205 43v176h-193v263h549v-586q-252 -189 -586 -189q-336 0 -542 197q-105 100 -161 235 t-56 291z" />
<glyph unicode="H" horiz-adv-x="1597" d="M137 0v1399h350v-561h623v561h350v-1399h-350v567h-623v-567h-350z" />
<glyph unicode="I" horiz-adv-x="653" d="M147 0v1399h361v-1399h-361z" />
<glyph unicode="J" horiz-adv-x="659" d="M-55 -131q49 2 83 8t59 21t39 34t22.5 51.5t11 68.5t2.5 91v1256h350v-1268q0 -144 -21 -240t-72 -164t-136 -99.5t-213 -35.5z" />
<glyph unicode="K" horiz-adv-x="1425" d="M147 0v1399h351v-623l475 623h393l-496 -647l619 -752h-455l-536 657v-657h-351z" />
<glyph unicode="L" horiz-adv-x="1110" d="M137 0v1399h350v-1129h603v-270h-953z" />
<glyph unicode="M" horiz-adv-x="1792" d="M137 0v1399h309l449 -563l451 563h309v-1399h-344v866l-416 -512l-412 512v-866h-346z" />
<glyph unicode="N" horiz-adv-x="1677" d="M137 0v1399h307l750 -834v834h346v-1399h-274l-783 879v-879h-346z" />
<glyph unicode="O" horiz-adv-x="1656" d="M68 698q0 315 219 525q210 198 540 198q333 0 543 -198q219 -210 219 -525t-219 -522q-213 -201 -543 -201q-327 0 -540 201q-219 207 -219 522zM428 698q0 -188 112.5 -308t286.5 -120t287 120t113 308t-113 309t-287 121t-286.5 -121t-112.5 -309z" />
<glyph unicode="P" horiz-adv-x="1269" d="M137 0v1399h516q282 0 419.5 -102t137.5 -316q0 -434 -585 -434h-136v-547h-352zM489 819h166q195 0 195 160q0 76 -49.5 118t-143.5 42h-168v-320z" />
<glyph unicode="Q" horiz-adv-x="1656" d="M68 698q0 315 219 525q210 198 540 198q333 0 543 -198q106 -100 162.5 -231.5t56.5 -276.5q0 -255 -124.5 -433t-362.5 -264q175 -100 344 -100q64 0 129 27l27 -37l-252 -232h-19q-173 0 -360 82.5t-357 239.5q-261 73 -403.5 257.5t-142.5 442.5zM428 698 q0 -188 112.5 -308t286.5 -120t287 120t113 308t-113 309t-287 121t-286.5 -121t-112.5 -309z" />
<glyph unicode="R" horiz-adv-x="1337" d="M145 0v1399h517q283 0 420 -98.5t137 -307.5q0 -116 -59.5 -198.5t-184.5 -139.5q104 -40 166 -176l223 -479h-395l-178 403q-41 94 -96.5 131t-157.5 37q-7 0 -20.5 -1t-20.5 -1v-569h-351zM496 825h168q98 0 145 40.5t47 123.5q0 77 -49 119.5t-143 42.5h-168v-326z " />
<glyph unicode="S" horiz-adv-x="1222" d="M90 1018q0 177 144.5 290t383.5 113q242 0 476 -114v-287q-275 139 -457 139q-101 0 -153 -29t-52 -83q0 -86 189 -156q17 -6 60.5 -22.5t63.5 -24t56.5 -22t60 -25.5t53 -26t54.5 -30q184 -114 184 -350q0 -192 -146 -304t-407 -112q-258 0 -485 136v311 q144 -89 254.5 -132.5t222.5 -43.5q209 0 209 125q0 58 -40.5 87t-146.5 66q-140 49 -232 94t-161 103t-100 130.5t-31 166.5z" />
<glyph unicode="T" horiz-adv-x="1323" d="M14 1139v260h1295v-260h-463v-1139h-369v1139h-463z" />
<glyph unicode="U" horiz-adv-x="1579" d="M127 598v801h352v-787q0 -168 80.5 -256t231.5 -88t230 87.5t79 256.5v787h350v-801q0 -295 -175 -459t-487 -164q-311 0 -486 164t-175 459z" />
<glyph unicode="V" horiz-adv-x="1388" d="M-39 1399h375l346 -813l369 813h379l-682 -1411h-152z" />
<glyph unicode="W" horiz-adv-x="2004" d="M-25 1399h365l272 -760l275 760h233l275 -764l270 764h367l-568 -1411h-145l-315 874l-318 -874h-143z" />
<glyph unicode="X" horiz-adv-x="1613" d="M-10 0l590 725l-555 674h440l334 -410l336 410h438l-559 -670l610 -729h-450l-375 457l-373 -457h-436z" />
<glyph unicode="Y" horiz-adv-x="1372" d="M-43 1399h420l307 -453l315 453h416l-557 -764v-635h-350v633z" />
<glyph unicode="Z" horiz-adv-x="1402" d="M6 0l770 1139h-706v260h1302l-764 -1129h760v-270h-1362z" />
<glyph unicode="[" horiz-adv-x="761" d="M119 -440v1839h631v-228h-342v-1388h342v-223h-631z" />
<glyph unicode="\" horiz-adv-x="583" d="M-25 1421h160l518 -1611h-155z" />
<glyph unicode="]" horiz-adv-x="761" d="M12 -217h340v1388h-340v228h631v-1839h-631v223z" />
<glyph unicode="^" horiz-adv-x="2048" d="M416 899l481 561h252l481 -561h-235l-371 371l-373 -371h-235z" />
<glyph unicode="_" horiz-adv-x="1024" d="M0 -279h1024v-204h-1024v204z" />
<glyph unicode="`" horiz-adv-x="1024" d="M233 1425h222l204 -346h-131z" />
<glyph unicode="a" horiz-adv-x="1056" d="M49 246q0 55 23.5 98.5t62.5 76.5t114.5 66t152.5 58.5t204 62.5q2 10 2 27q0 69 -46 101t-140 32q-163 0 -328 -152l4 236q168 115 422 115q206 0 297.5 -79.5t91.5 -252.5v-377q0 -31 8.5 -45t30.5 -14q34 0 94 24v-166q-149 -73 -262 -73q-144 0 -159 104 q-130 -106 -295 -106q-137 0 -207 67t-70 197zM350 268q0 -46 28 -73t77 -27q68 0 151 59v232q-140 -49 -198 -89.5t-58 -101.5z" />
<glyph unicode="b" horiz-adv-x="1175" d="M109 55v1344h297v-520q112 90 268 90q206 0 326 -133.5t120 -362.5t-149 -360t-418 -131q-197 0 -444 73zM406 272q76 -61 163 -61q109 0 172.5 70.5t63.5 191.5q0 122 -63.5 192t-172.5 70q-85 0 -163 -63v-400z" />
<glyph unicode="c" horiz-adv-x="968" d="M51 473q0 222 146.5 359t394.5 137q154 0 299 -62v-233q-147 61 -254 61q-128 0 -200 -70t-72 -192q0 -124 73 -193t211 -69q117 0 258 63v-231q-131 -61 -303 -61q-258 0 -405.5 133.5t-147.5 357.5z" />
<glyph unicode="d" horiz-adv-x="1171" d="M55 473q0 221 124.5 358.5t322.5 137.5q153 0 262 -90v520h299v-1399h-287v78q-115 -98 -274 -98q-199 0 -323 135.5t-124 357.5zM365 473q0 -119 63.5 -190.5t165.5 -71.5q87 0 170 59v406q-77 59 -164 59q-109 0 -172 -70.5t-63 -191.5z" />
<glyph unicode="e" horiz-adv-x="1089" d="M57 485q0 218 136 350t362 132q223 0 352 -142t129 -393v-10h-671v-4q0 -114 77 -179t211 -65q179 0 361 127v-197q-190 -124 -434 -124q-247 0 -385 135t-138 370zM367 567h368q-7 93 -55.5 145t-122.5 52q-76 0 -127 -51.5t-63 -145.5z" />
<glyph unicode="f" horiz-adv-x="587" d="M-2 745v203h135v105q0 183 97.5 272.5t297.5 89.5q63 0 154 -16v-228q-70 13 -109 13q-80 0 -110.5 -45t-30.5 -146v-45h125v-203h-125v-745h-299v745h-135z" />
<glyph unicode="g" horiz-adv-x="1075" d="M18 -186q0 83 64 143t188 92q-110 34 -110 117q0 108 159 145q-249 73 -249 307q0 159 126 244.5t369 85.5h482v-198h-134q45 -68 45 -162q0 -254 -303 -307q-32 -6 -71.5 -9.5t-61 -6t-42.5 -8.5t-29.5 -18.5t-8.5 -33.5q0 -13 4.5 -22.5t16.5 -16.5t25 -11t37.5 -7.5 t46.5 -6t60.5 -6.5t69.5 -8q153 -20 232.5 -91.5t79.5 -187.5q0 -154 -127.5 -233.5t-378.5 -79.5q-234 0 -362 75.5t-128 203.5zM297 -170q0 -117 221 -117q110 0 167.5 29.5t57.5 85.5q0 52 -57 81.5t-162 29.5q-111 0 -169 -28.5t-58 -80.5zM348 604q0 -73 46.5 -117.5 t123.5 -44.5t123.5 44.5t46.5 117.5t-46.5 117.5t-123.5 44.5t-123.5 -44.5t-46.5 -117.5z" />
<glyph unicode="h" horiz-adv-x="1157" d="M111 0v1399h299v-570q72 73 148 105.5t173 32.5q155 0 238.5 -94t83.5 -273v-600h-299v559q0 100 -31.5 147.5t-101.5 47.5q-125 0 -211 -150v-604h-299z" />
<glyph unicode="i" horiz-adv-x="516" d="M98 1255q0 66 46.5 113t113.5 47q68 0 114 -46.5t46 -113.5t-46 -113t-114 -46q-67 0 -113.5 46.5t-46.5 112.5zM109 0v948h299v-948h-299z" />
<glyph unicode="j" horiz-adv-x="526" d="M-27 -207q146 30 146 199v956h299v-948q0 -222 -82.5 -332.5t-269.5 -132.5zM109 1255q0 68 46 114t113 46q68 0 114 -46.5t46 -113.5t-47 -113t-113 -46t-112.5 46t-46.5 113z" />
<glyph unicode="k" horiz-adv-x="1128" d="M109 0v1399h297v-1399h-297zM410 492l364 456h359l-367 -456l371 -492h-357z" />
<glyph unicode="l" horiz-adv-x="516" d="M109 0v1399h299v-1399h-299z" />
<glyph unicode="m" horiz-adv-x="1792" d="M109 0v948h297v-119q135 138 319 138q209 0 281 -174q89 94 170.5 134t189.5 40q155 0 238.5 -94t83.5 -273v-600h-299v559q0 101 -30.5 148t-103.5 47q-125 0 -213 -150v-604h-290v559q0 101 -31 148t-103 47q-124 0 -212 -150v-604h-297z" />
<glyph unicode="n" horiz-adv-x="1155" d="M109 0v948h297v-119q71 73 148 105.5t175 32.5q155 0 238.5 -94t83.5 -273v-600h-299v559q0 99 -32 147t-102 48q-125 0 -212 -150v-604h-297z" />
<glyph unicode="o" horiz-adv-x="1142" d="M51 473q0 218 144 356t376 138q233 0 378 -138.5t145 -355.5q0 -216 -145 -353.5t-378 -137.5q-232 0 -376 136.5t-144 354.5zM358 473q0 -122 58.5 -194t154.5 -72t154.5 72t58.5 194t-59 195t-154 73t-154 -73t-59 -195z" />
<glyph unicode="p" horiz-adv-x="1171" d="M109 -465v1413h286v-78q116 99 273 99q199 0 323.5 -137t124.5 -359q0 -220 -124.5 -356.5t-323.5 -136.5q-153 0 -262 90v-535h-297zM406 274q77 -59 163 -59q109 0 172.5 69.5t63.5 190.5q0 119 -62.5 191.5t-164.5 72.5q-89 0 -172 -59v-406z" />
<glyph unicode="q" horiz-adv-x="1171" d="M55 473q0 222 124 359t323 137q158 0 274 -99v78h287v-1413h-299v535q-109 -90 -262 -90q-199 0 -323 136t-124 357zM365 475q0 -121 63 -190.5t172 -69.5q87 0 164 59v406q-83 59 -170 59q-102 0 -165.5 -72.5t-63.5 -191.5z" />
<glyph unicode="r" horiz-adv-x="876" d="M109 0v948h299v-254q74 139 144 204t155 65q79 0 188 -70l-80 -272q-86 67 -158 67q-84 0 -151.5 -74t-97.5 -206v-408h-299z" />
<glyph unicode="s" horiz-adv-x="843" d="M53 668q0 134 100.5 216.5t266.5 82.5q174 0 323 -76v-209q-184 96 -303 96q-112 0 -112 -73q0 -17 10 -31t37 -29t51 -25.5t77.5 -32.5t90.5 -38q104 -45 151.5 -107.5t47.5 -156.5q0 -146 -101 -225.5t-289 -79.5t-333 71v211q188 -86 295 -86q143 0 143 72 q0 35 -33 58.5t-117 58.5q-142 60 -179 81q-91 53 -115 134q-11 38 -11 88z" />
<glyph unicode="t" horiz-adv-x="813" d="M14 741v64l387 420h45v-277h324v-207h-324v-350q0 -103 28.5 -142.5t115.5 -39.5q80 0 180 47l2 -223q-142 -53 -287 -53q-187 0 -261 96.5t-74 316.5v348h-136z" />
<glyph unicode="u" horiz-adv-x="1155" d="M104 348v600h299v-559q0 -99 32 -146.5t102 -47.5q128 0 213 149v604h299v-948h-299v119q-71 -73 -147.5 -105t-174.5 -32q-155 0 -239.5 94t-84.5 272z" />
<glyph unicode="v" horiz-adv-x="978" d="M-33 948h316l209 -514l196 514h311l-411 -966h-182z" />
<glyph unicode="w" horiz-adv-x="1554" d="M-45 948h315l209 -514l213 514h154l221 -514l203 514h305l-432 -966h-146l-231 528l-231 -528h-148z" />
<glyph unicode="x" horiz-adv-x="1099" d="M-25 0l379 481l-370 467h360l193 -264l196 264h361l-367 -465l391 -483h-366l-207 283l-209 -283h-361z" />
<glyph unicode="y" horiz-adv-x="978" d="M-33 948h320l192 -463l205 463h315l-639 -1413h-313l281 617z" />
<glyph unicode="z" horiz-adv-x="1019" d="M25 0v25l475 710h-437v213h908v-28l-475 -707h475v-213h-946z" />
<glyph unicode="{" horiz-adv-x="1024" d="M158 426v209q7 0 21 -1t20 -1q122 0 172.5 59t50.5 195v250q0 125 19 190t85 103q90 49 281 49q12 0 37 -1t39 -1v-209q-8 0 -24 1t-23 1q-107 0 -139.5 -42t-32.5 -159v-240q0 -141 -42 -206t-165 -93q123 -28 165 -92.5t42 -204.5v-241q0 -117 32.5 -158t139.5 -41 q7 0 23 1t24 1v-209q-14 0 -39 -1t-37 -1q-191 0 -281 49q-66 38 -85 102t-19 189v252q0 136 -50.5 194t-172.5 58q-6 0 -20 -1t-21 -1z" />
<glyph unicode="|" horiz-adv-x="1024" d="M410 -483v2048h206v-2048h-206z" />
<glyph unicode="}" horiz-adv-x="1024" d="M143 -205q8 0 24 -1t23 -1q106 0 139 41.5t33 157.5v239q0 141 41.5 206t165.5 93q-123 28 -165 93t-42 206v242q0 116 -33 157.5t-139 41.5q-7 0 -23 -1t-24 -1v209h68q202 0 289 -50q65 -37 84.5 -102t19.5 -188v-252q0 -136 50.5 -194t172.5 -58q6 0 20 1t21 1v-209 h-37q-125 0 -176 -56.5t-51 -193.5v-252q0 -125 -19 -189.5t-85 -101.5q-90 -49 -281 -49q-12 0 -37 1t-39 1v209z" />
<glyph unicode="~" horiz-adv-x="1705" d="M178 418v221q213 143 387 143q55 0 112.5 -10t91.5 -20t91 -29q17 -6 56.5 -20t61.5 -21t55 -16t62.5 -13t59.5 -4q164 0 375 154v-221q-204 -138 -379 -138q-89 0 -184 31q-20 7 -80 27.5t-87 29t-73.5 21t-85.5 17.5t-78 5q-165 0 -385 -157z" />
<glyph unicode="&#xa1;" horiz-adv-x="663" d="M152 1243q0 74 52.5 126t127.5 52t126.5 -52t51.5 -126t-52 -127t-126 -53q-76 0 -128 52.5t-52 127.5zM164 193q0 234 63 526q36 171 51 206q20 43 54 44q9 0 16.5 -2t13.5 -7t10.5 -10t9 -16t7.5 -20.5t7.5 -27t7.5 -31t8.5 -38t9.5 -43.5q76 -337 76 -581 q0 -213 -166 -213q-168 0 -168 213z" />
<glyph unicode="&#xa2;" d="M109 496q0 221 144.5 357t387.5 136q56 0 131 -10l98 272h146l-111 -307l41 -14v-234q-68 33 -119 41l-180 -499q54 -7 64 -7q102 0 252 66v-231q-144 -66 -304 -66q-47 0 -96 6l-100 -274h-146l109 295q-150 61 -233.5 185t-83.5 284zM420 496q0 -143 104 -215l174 477 q-5 0 -14 1t-14 1q-109 0 -179.5 -74t-70.5 -190z" />
<glyph unicode="&#xa3;" d="M127 -23l127 598h-102v242h159q69 299 206 453.5t329 154.5q47 0 72 -4l124 -266q-63 16 -122 16q-122 0 -192.5 -83.5t-115.5 -270.5h127v-242h-182l-59 -272q16 2 49 2q59 0 172 -19.5t168 -19.5q54 0 155 29v-270q-82 -52 -180 -52q-61 0 -191.5 30t-201.5 30 q-113 0 -342 -56z" />
<glyph unicode="&#xa4;" horiz-adv-x="1241" d="M68 438l202 205q-75 106 -75 242q0 134 75 241l-202 205l104 107l205 -203q108 78 244 78q138 0 247 -78l203 203l105 -107l-203 -205q76 -109 76 -241t-76 -242l203 -205l-105 -104l-203 203q-108 -78 -245 -78q-140 0 -246 78l-205 -203zM346 885q0 -114 81 -194.5 t196 -80.5q114 0 195 80.5t81 194.5q0 113 -81 194.5t-195 81.5t-195.5 -81.5t-81.5 -194.5z" />
<glyph unicode="&#xa5;" horiz-adv-x="1280" d="M-49 1399h360l332 -488l340 488h354l-286 -404h176v-137h-273l-102 -145h375v-138h-432v-575h-308v575h-434v138h379l-100 145h-279v137h183z" />
<glyph unicode="&#xa6;" horiz-adv-x="1024" d="M410 -350v758h206v-758h-206zM410 674v758h206v-758h-206z" />
<glyph unicode="&#xa7;" d="M78 639q0 182 188 268q-88 66 -88 207q0 138 104.5 222.5t274.5 84.5q181 0 350 -78v-221q-196 103 -313 103q-59 0 -94 -27t-35 -70q0 -47 37.5 -75t137.5 -72q7 -3 11.5 -5t11.5 -5t13 -6q99 -44 157.5 -77t109 -79t72 -104t21.5 -136q0 -180 -186 -262q88 -68 88 -201 q0 -148 -103.5 -231.5t-289.5 -83.5q-187 0 -359 94v221q201 -118 336 -118q59 0 93 26.5t34 69.5q0 34 -26.5 62.5t-53.5 43t-108 50.5q-14 7 -21 10q-58 26 -92.5 43t-78 41.5t-68 45t-51.5 48.5t-40.5 58t-22.5 68.5t-9 84.5zM326 662q0 -49 34 -80t117 -70l205 -96 q58 30 83.5 60.5t25.5 72.5q0 47 -30.5 78t-103.5 65l-223 105q-58 -27 -83 -57.5t-25 -77.5z" />
<glyph unicode="&#xa8;" horiz-adv-x="1024" d="M209 1241q0 48 36 84.5t85 36.5t84 -35.5t35 -85.5q0 -54 -33 -87.5t-86 -33.5q-51 0 -86 34.5t-35 86.5zM573 1241q0 48 36 84.5t85 36.5t84 -35.5t35 -85.5q0 -54 -33 -87.5t-86 -33.5q-51 0 -86 34.5t-35 86.5z" />
<glyph unicode="&#xa9;" horiz-adv-x="1705" d="M111 733q0 148 56 284.5t163 244.5q214 217 522 217q311 0 530 -219q104 -104 159.5 -240t55.5 -287q0 -308 -215 -520q-111 -108 -247.5 -165.5t-282.5 -57.5q-147 0 -280.5 56.5t-241.5 164.5q-106 106 -162.5 240.5t-56.5 281.5zM233 735q0 -255 183 -438 q89 -89 201.5 -135.5t236.5 -46.5q255 0 442 184q179 176 179 436q0 258 -181 439q-182 182 -440 182q-261 0 -438 -180q-89 -91 -136 -204.5t-47 -236.5zM453 729q0 208 110 329.5t293 121.5q153 0 250.5 -78t105.5 -205h-188q-7 70 -52.5 108.5t-119.5 38.5 q-90 0 -142.5 -80.5t-52.5 -228.5q0 -147 52 -224t151 -77q72 0 116.5 42t53.5 120h193q-8 -138 -109 -222.5t-260 -84.5q-185 0 -293 117.5t-108 322.5z" />
<glyph unicode="&#xaa;" horiz-adv-x="792" d="M37 907q0 90 92 140.5t326 113.5q2 6 2 19q0 92 -140 92q-125 0 -245 -105l2 164q128 80 317 80q154 0 222.5 -55t68.5 -176v-265q0 -21 6 -31t23 -10q25 0 71 17v-115q-109 -53 -196 -53q-109 0 -121 74q-100 -74 -221 -74q-207 0 -207 184zM262 924q0 -32 21.5 -52 t58.5 -20q52 0 113 43v162q-105 -35 -149 -63t-44 -70z" />
<glyph unicode="&#xab;" horiz-adv-x="1058" d="M76 475l243 324h238l-238 -324l238 -325h-238zM502 475l237 324h242l-242 -324l242 -325h-242z" />
<glyph unicode="&#xac;" horiz-adv-x="1705" d="M254 668v196h1198v-502h-199v306h-999z" />
<glyph unicode="&#xad;" horiz-adv-x="702" d="M80 342v270h541v-270h-541z" />
<glyph unicode="&#xae;" horiz-adv-x="1705" d="M111 733q0 205 108 387q100 169 266.5 264t366.5 95q153 0 289.5 -57.5t244.5 -166.5q103 -104 157 -238.5t54 -283.5q0 -153 -56.5 -288t-162.5 -238q-108 -105 -244.5 -161t-281.5 -56q-149 0 -285 58t-243 167q-104 105 -158.5 239t-54.5 279zM233 735 q0 -255 179 -434q89 -91 203 -139.5t237 -48.5q121 0 234 47t206 135q88 85 135.5 196.5t47.5 231.5q0 266 -177 446q-184 187 -444 187q-256 0 -432 -176q-91 -91 -140 -206.5t-49 -238.5zM545 336v825h323q353 0 353 -237q0 -82 -48 -139.5t-133 -79.5l185 -369h-224 l-157 338h-99v-338h-200zM745 795h99q87 0 128.5 27.5t41.5 88.5q0 64 -44 93.5t-136 29.5h-89v-239z" />
<glyph unicode="&#xaf;" horiz-adv-x="1024" d="M236 1167v148h552v-148h-552z" />
<glyph unicode="&#xb0;" horiz-adv-x="673" d="M35 1159q0 127 88.5 216t214.5 89t214.5 -89.5t88.5 -215.5q0 -125 -89 -214t-216 -89q-126 0 -213.5 88t-87.5 215zM162 1161q0 -73 51 -124.5t125 -51.5q73 0 123.5 52.5t50.5 123.5q0 72 -51 123t-123 51t-124 -51t-52 -123z" />
<glyph unicode="&#xb1;" horiz-adv-x="1705" d="M254 -2v199h1198v-199h-1198zM254 698v199h498v326h202v-326h498v-199h-498v-325h-202v325h-498z" />
<glyph unicode="&#xb2;" horiz-adv-x="737" d="M41 559v27q208 221 295.5 340t87.5 211q0 123 -145 123q-82 0 -222 -97v166q137 84 289 84q138 0 218.5 -65.5t80.5 -176.5q0 -93 -66.5 -193t-209.5 -245h313v-174h-641z" />
<glyph unicode="&#xb3;" horiz-adv-x="737" d="M61 598v162q114 -66 207 -66q158 0 158 111q0 52 -40 83t-114 32v151q67 1 105.5 31t38.5 76q0 42 -37.5 67t-102.5 25q-91 0 -182 -45v143q87 43 232 43q136 0 215.5 -58t79.5 -153q0 -122 -138 -190q162 -58 162 -219q0 -113 -88 -179.5t-242 -66.5q-159 0 -254 53z " />
<glyph unicode="&#xb4;" horiz-adv-x="1024" d="M365 1079l204 348h222l-295 -348h-131z" />
<glyph unicode="&#xb5;" horiz-adv-x="1249" d="M-63 -438l268 1530h289l-76 -435q-31 -167 -31 -268q0 -94 42 -139t128 -45q104 0 158.5 87t89.5 286l90 514h289l-193 -1092h-268l18 117q-42 -77 -93.5 -113.5t-121.5 -36.5q-132 0 -213 121l-90 -526h-286z" />
<glyph unicode="&#xb6;" horiz-adv-x="1024" d="M41 1130q0 156 106 252.5t285 96.5h551v-111h-113v-1368h-151v1368h-160v-1368h-151v784q-168 6 -267.5 101.5t-99.5 244.5z" />
<glyph unicode="&#xb7;" horiz-adv-x="557" d="M100 702q0 74 52.5 127.5t126.5 53.5q76 0 128 -53t52 -128q0 -74 -52.5 -126t-127.5 -52t-127 52t-52 126z" />
<glyph unicode="&#xb8;" horiz-adv-x="1024" d="M242 -315q165 -43 256 -43q108 0 108 75q0 42 -34 61t-107 19q-7 0 -21.5 -1t-21.5 -1v205h90v-94h14q238 0 238 -193q0 -90 -64.5 -140t-185.5 -50q-115 0 -272 43v119z" />
<glyph unicode="&#xb9;" horiz-adv-x="737" d="M262 559v840h211v-840h-211z" />
<glyph unicode="&#xba;" horiz-adv-x="858" d="M39 1067q0 152 107.5 248t281.5 96q176 0 284.5 -96t108.5 -248t-108.5 -248t-284.5 -96q-174 0 -281.5 95.5t-107.5 248.5zM268 1067q0 -85 44.5 -135.5t115.5 -50.5q73 0 116.5 50t43.5 136q0 85 -44.5 135.5t-115.5 50.5q-70 0 -115 -50.5t-45 -135.5z" />
<glyph unicode="&#xbb;" horiz-adv-x="1058" d="M76 150l241 325l-241 324h241l238 -324l-238 -325h-241zM502 150l235 325l-235 324h235l244 -324l-244 -325h-235z" />
<glyph unicode="&#xbc;" horiz-adv-x="1748" d="M250 614v783h201v-783h-201zM360 -25l852 1446h172l-856 -1446h-168zM1063 195v131l422 467h129v-478h84v-120h-84v-195h-189v195h-362zM1210 315h215l2 242z" />
<glyph unicode="&#xbd;" horiz-adv-x="1748" d="M250 614v783h201v-783h-201zM360 -25l852 1446h172l-856 -1446h-168zM1085 0v25q84 90 126.5 136t97.5 111t79.5 104t43 83t18.5 80q0 114 -139 114q-80 0 -213 -90v156q135 78 276 78q133 0 210 -61.5t77 -164.5q0 -86 -64.5 -180.5t-201.5 -228.5h301v-162h-611z" />
<glyph unicode="&#xbe;" horiz-adv-x="1748" d="M59 651v152q106 -62 197 -62q73 0 111.5 26.5t38.5 76.5q0 48 -38 76.5t-108 31.5v140q63 1 99 28.5t36 71.5q0 39 -35 62.5t-96 23.5q-87 0 -174 -43v133q90 43 221 43q130 0 205.5 -55t75.5 -144q0 -114 -129 -178q153 -52 153 -205q0 -104 -84.5 -166.5t-230.5 -62.5 q-151 0 -242 51zM360 -25l852 1446h172l-856 -1446h-168zM1063 195v131l422 467h129v-478h84v-120h-84v-195h-189v195h-362zM1210 315h215l2 242z" />
<glyph unicode="&#xbf;" horiz-adv-x="815" d="M100 260q0 97 42 181.5t130 195.5q1 1 20 24.5t21.5 26.5t18.5 24.5t19 28t15.5 26.5t15.5 31t11 32t10 37.5t4.5 39t2.5 45.5l94 4q74 -65 74 -198q0 -121 -52 -217q-15 -28 -49 -82t-48.5 -88t-14.5 -68q0 -51 31.5 -82t82.5 -31q67 0 195 72l-45 -239 q-130 -48 -225 -48q-168 0 -260.5 75.5t-92.5 209.5zM281 1243q0 74 52.5 126t127.5 52t126.5 -52t51.5 -126t-52 -127t-126 -53q-76 0 -128 52.5t-52 127.5z" />
<glyph unicode="&#xc0;" horiz-adv-x="1476" d="M-41 0l610 1399h404l545 -1399h-371l-100 272h-603l-112 -272h-373zM498 1880h221l205 -346h-131zM545 512h413l-196 532z" />
<glyph unicode="&#xc1;" horiz-adv-x="1476" d="M-41 0l610 1399h404l545 -1399h-371l-100 272h-603l-112 -272h-373zM545 512h413l-196 532zM629 1534l205 348h221l-295 -348h-131z" />
<glyph unicode="&#xc2;" horiz-adv-x="1476" d="M-41 0l610 1399h404l545 -1399h-371l-100 272h-603l-112 -272h-373zM479 1532l189 348h217l188 -348h-131l-166 209l-168 -209h-129zM545 512h413l-196 532z" />
<glyph unicode="&#xc3;" horiz-adv-x="1476" d="M-41 0l610 1399h404l545 -1399h-371l-100 272h-603l-112 -272h-373zM475 1569q40 219 193 219q26 0 84 -14l88 -25q24 -6 51 -6q31 0 54 20t32 56h100q-23 -114 -69.5 -171t-128.5 -57q-28 0 -70 11l-84 24q-42 10 -63 10q-66 0 -87 -67h-100zM545 512h413l-196 532z" />
<glyph unicode="&#xc4;" horiz-adv-x="1476" d="M-41 0l610 1399h404l545 -1399h-371l-100 272h-603l-112 -272h-373zM473 1696q0 48 36 84.5t85 36.5t84 -35.5t35 -85.5q0 -54 -33 -87.5t-86 -33.5q-51 0 -86 34.5t-35 86.5zM545 512h413l-196 532zM838 1696q0 48 35.5 84.5t84.5 36.5t84 -35.5t35 -85.5 q0 -54 -33 -87.5t-86 -33.5q-51 0 -85.5 34.5t-34.5 86.5z" />
<glyph unicode="&#xc5;" horiz-adv-x="1476" d="M-41 0l610 1399h404l545 -1399h-371l-100 272h-603l-112 -272h-373zM518 1718q0 106 74 180t180 74t180 -74t74 -180t-74 -179t-180 -73t-180 74t-74 178zM545 512h413l-196 532zM657 1718q0 -47 34 -81.5t81 -34.5q49 0 84 34.5t35 81.5q0 50 -34.5 84.5t-84.5 34.5 q-47 0 -81 -35t-34 -84z" />
<glyph unicode="&#xc6;" horiz-adv-x="1972" d="M-74 0l781 1397h1165v-256h-586v-285h559v-260h-559v-334h602v-262h-958v451h-400l-251 -451h-353zM682 717h248v452z" />
<glyph unicode="&#xc7;" horiz-adv-x="1431" d="M68 698q0 212 96 376t276.5 256.5t419.5 92.5q256 0 490 -114v-328q-232 149 -467 149q-212 0 -333.5 -115.5t-121.5 -316.5q0 -195 115.5 -312.5t312.5 -117.5q253 0 506 176v-327q-251 -142 -535 -142q-333 0 -542 197q-105 100 -161 235t-56 291zM481 -315 q165 -43 256 -43q109 0 109 75q0 42 -34 61t-107 19q-7 0 -21.5 -1t-21.5 -1v205h90v-94h14q238 0 238 -193q0 -90 -64.5 -140t-185.5 -50q-116 0 -273 43v119z" />
<glyph unicode="&#xc8;" horiz-adv-x="1175" d="M137 0v1399h936v-258h-586v-285h560v-260h-560v-334h603v-262h-953zM332 1880h221l205 -346h-131z" />
<glyph unicode="&#xc9;" horiz-adv-x="1175" d="M137 0v1399h936v-258h-586v-285h560v-260h-560v-334h603v-262h-953zM463 1534l205 348h221l-295 -348h-131z" />
<glyph unicode="&#xca;" horiz-adv-x="1175" d="M137 0v1399h936v-258h-586v-285h560v-260h-560v-334h603v-262h-953zM313 1532l189 348h217l188 -348h-131l-166 209l-168 -209h-129z" />
<glyph unicode="&#xcb;" horiz-adv-x="1175" d="M137 0v1399h936v-258h-586v-285h560v-260h-560v-334h603v-262h-953zM307 1696q0 48 36 84.5t85 36.5t84 -35.5t35 -85.5q0 -54 -33 -87.5t-86 -33.5q-51 0 -86 34.5t-35 86.5zM672 1696q0 48 36 84.5t85 36.5t83.5 -35.5t34.5 -85.5q0 -54 -32.5 -87.5t-85.5 -33.5 q-51 0 -86 34.5t-35 86.5z" />
<glyph unicode="&#xcc;" horiz-adv-x="653" d="M49 1880h221l205 -346h-131zM147 0v1399h361v-1399h-361z" />
<glyph unicode="&#xcd;" horiz-adv-x="653" d="M147 0v1399h361v-1399h-361zM180 1534l205 348h221l-295 -348h-131z" />
<glyph unicode="&#xce;" horiz-adv-x="653" d="M31 1532l188 348h217l189 -348h-131l-166 209l-168 -209h-129zM147 0v1399h361v-1399h-361z" />
<glyph unicode="&#xcf;" horiz-adv-x="653" d="M25 1696q0 48 35.5 84.5t84.5 36.5t84 -35.5t35 -85.5q0 -54 -33 -87.5t-86 -33.5q-51 0 -85.5 34.5t-34.5 86.5zM147 0v1399h361v-1399h-361zM389 1696q0 48 36 84.5t85 36.5t84 -35.5t35 -85.5q0 -54 -33 -87.5t-86 -33.5q-51 0 -86 34.5t-35 86.5z" />
<glyph unicode="&#xd0;" horiz-adv-x="1597" d="M0 600v203h154v596h524q195 0 326 -28t251 -118q134 -102 204.5 -242.5t70.5 -310.5q0 -187 -85 -340t-245 -254q-108 -68 -224 -87t-298 -19h-524v600h-154zM496 283h268q179 0 292 116.5t113 300.5q0 183 -112.5 299.5t-292.5 116.5h-268v-313h286v-203h-286v-317z" />
<glyph unicode="&#xd1;" horiz-adv-x="1677" d="M137 0v1399h307l750 -834v834h346v-1399h-274l-783 879v-879h-346zM539 1569q40 219 192 219q26 0 84 -14l88 -25q24 -6 51 -6q31 0 54 20t32 56h101q-23 -113 -70 -170.5t-129 -57.5q-28 0 -70 11l-84 24q-42 10 -63 10q-65 0 -86 -67h-100z" />
<glyph unicode="&#xd2;" horiz-adv-x="1656" d="M68 698q0 315 219 525q210 198 540 198q333 0 543 -198q219 -210 219 -525t-219 -522q-213 -201 -543 -201q-327 0 -540 201q-219 207 -219 522zM428 698q0 -188 112.5 -308t286.5 -120t287 120t113 308t-113 309t-287 121t-286.5 -121t-112.5 -309zM551 1880h221 l205 -346h-131z" />
<glyph unicode="&#xd3;" horiz-adv-x="1656" d="M68 698q0 315 219 525q210 198 540 198q333 0 543 -198q219 -210 219 -525t-219 -522q-213 -201 -543 -201q-327 0 -540 201q-219 207 -219 522zM428 698q0 -188 112.5 -308t286.5 -120t287 120t113 308t-113 309t-287 121t-286.5 -121t-112.5 -309zM682 1534l205 348 h221l-295 -348h-131z" />
<glyph unicode="&#xd4;" horiz-adv-x="1656" d="M68 698q0 315 219 525q210 198 540 198q333 0 543 -198q219 -210 219 -525t-219 -522q-213 -201 -543 -201q-327 0 -540 201q-219 207 -219 522zM428 698q0 -188 112.5 -308t286.5 -120t287 120t113 308t-113 309t-287 121t-286.5 -121t-112.5 -309zM532 1532l189 348 h217l188 -348h-131l-166 209l-167 -209h-130z" />
<glyph unicode="&#xd5;" horiz-adv-x="1656" d="M68 698q0 315 219 525q210 198 540 198q333 0 543 -198q219 -210 219 -525t-219 -522q-213 -201 -543 -201q-327 0 -540 201q-219 207 -219 522zM428 698q0 -188 112.5 -308t286.5 -120t287 120t113 308t-113 309t-287 121t-286.5 -121t-112.5 -309zM528 1569 q40 219 193 219q26 0 84 -14l88 -25q24 -6 51 -6q31 0 54 20t32 56h100q-23 -114 -69.5 -171t-128.5 -57q-28 0 -70 11l-84 24q-42 10 -63 10q-65 0 -86 -67h-101z" />
<glyph unicode="&#xd6;" horiz-adv-x="1656" d="M68 698q0 315 219 525q210 198 540 198q333 0 543 -198q219 -210 219 -525t-219 -522q-213 -201 -543 -201q-327 0 -540 201q-219 207 -219 522zM428 698q0 -188 112.5 -308t286.5 -120t287 120t113 308t-113 309t-287 121t-286.5 -121t-112.5 -309zM526 1696 q0 48 36 84.5t85 36.5t84 -35.5t35 -85.5q0 -54 -33 -87.5t-86 -33.5q-51 0 -86 34.5t-35 86.5zM891 1696q0 48 36 84.5t85 36.5t83.5 -35.5t34.5 -85.5q0 -54 -32.5 -87.5t-85.5 -33.5q-51 0 -86 34.5t-35 86.5z" />
<glyph unicode="&#xd7;" horiz-adv-x="1705" d="M276 160l451 450l-451 453l140 139l450 -450l451 450l141 -139l-450 -453l450 -450l-141 -140l-451 451l-450 -451z" />
<glyph unicode="&#xd8;" horiz-adv-x="1656" d="M27 80l186 178q-145 187 -145 426q0 217 95 384.5t270.5 260t406.5 92.5q265 0 456 -139l189 178l139 -143l-182 -174q147 -195 147 -445q0 -315 -219 -522q-108 -104 -244.5 -152.5t-314.5 -48.5q-263 0 -457 144l-188 -182zM418 707q0 -114 55 -215l586 563 q-100 73 -223 73q-178 0 -298 -121t-120 -300zM582 348q112 -78 245 -78q173 0 291.5 124.5t118.5 303.5q0 116 -57 215z" />
<glyph unicode="&#xd9;" horiz-adv-x="1579" d="M127 598v801h352v-787q0 -168 80.5 -256t231.5 -88t230 87.5t79 256.5v787h350v-801q0 -295 -175 -459t-487 -164q-311 0 -486 164t-175 459zM512 1880h221l205 -346h-131z" />
<glyph unicode="&#xda;" horiz-adv-x="1579" d="M127 598v801h352v-787q0 -168 80.5 -256t231.5 -88t230 87.5t79 256.5v787h350v-801q0 -295 -175 -459t-487 -164q-311 0 -486 164t-175 459zM643 1534l205 348h221l-295 -348h-131z" />
<glyph unicode="&#xdb;" horiz-adv-x="1579" d="M127 598v801h352v-787q0 -168 80.5 -256t231.5 -88t230 87.5t79 256.5v787h350v-801q0 -295 -175 -459t-487 -164q-311 0 -486 164t-175 459zM494 1532l188 348h217l188 -348h-131l-165 209l-168 -209h-129z" />
<glyph unicode="&#xdc;" horiz-adv-x="1579" d="M127 598v801h352v-787q0 -168 80.5 -256t231.5 -88t230 87.5t79 256.5v787h350v-801q0 -295 -175 -459t-487 -164q-311 0 -486 164t-175 459zM487 1696q0 48 36 84.5t85 36.5t84 -35.5t35 -85.5q0 -54 -33 -87.5t-86 -33.5q-51 0 -86 34.5t-35 86.5zM852 1696 q0 48 36 84.5t85 36.5t84 -35.5t35 -85.5q0 -54 -33 -87.5t-86 -33.5q-51 0 -86 34.5t-35 86.5z" />
<glyph unicode="&#xdd;" horiz-adv-x="1372" d="M-43 1399h420l307 -453l315 453h416l-557 -764v-635h-350v633zM539 1534l204 348h222l-295 -348h-131z" />
<glyph unicode="&#xde;" horiz-adv-x="1269" d="M137 0v1399h352v-264h164q284 0 420.5 -102.5t136.5 -323.5q0 -211 -147 -318.5t-438 -107.5h-136v-283h-352zM489 557h166q195 0 195 160q0 76 -49 116.5t-144 40.5h-168v-317z" />
<glyph unicode="&#xdf;" horiz-adv-x="1161" d="M115 0v995q0 197 122 307.5t341 110.5q220 0 343 -97t123 -261q0 -168 -170 -258q118 -46 173 -136.5t55 -240.5q0 -210 -111 -325t-313 -115q-52 0 -121 16v199h31q119 0 170 60t51 196t-60.5 200.5t-191.5 67.5v145q100 3 147.5 45t47.5 131q0 73 -44 116.5t-118 43.5 q-98 0 -136 -54t-38 -175v-971h-301z" />
<glyph unicode="&#xe0;" horiz-adv-x="1056" d="M49 246q0 55 23.5 98.5t62.5 76.5t114.5 66t152.5 58.5t204 62.5q2 10 2 27q0 69 -46 101t-140 32q-163 0 -328 -152l4 236q168 115 422 115q206 0 297.5 -79.5t91.5 -252.5v-377q0 -31 8.5 -45t30.5 -14q34 0 94 24v-166q-149 -73 -262 -73q-144 0 -159 104 q-130 -106 -295 -106q-137 0 -207 67t-70 197zM236 1425h221l205 -346h-132zM350 268q0 -46 28 -73t77 -27q68 0 151 59v232q-140 -49 -198 -89.5t-58 -101.5z" />
<glyph unicode="&#xe1;" horiz-adv-x="1056" d="M49 246q0 55 23.5 98.5t62.5 76.5t114.5 66t152.5 58.5t204 62.5q2 10 2 27q0 69 -46 101t-140 32q-163 0 -328 -152l4 236q168 115 422 115q206 0 297.5 -79.5t91.5 -252.5v-377q0 -31 8.5 -45t30.5 -14q34 0 94 24v-166q-149 -73 -262 -73q-144 0 -159 104 q-130 -106 -295 -106q-137 0 -207 67t-70 197zM350 268q0 -46 28 -73t77 -27q68 0 151 59v232q-140 -49 -198 -89.5t-58 -101.5zM367 1079l204 348h222l-295 -348h-131z" />
<glyph unicode="&#xe2;" horiz-adv-x="1056" d="M49 246q0 55 23.5 98.5t62.5 76.5t114.5 66t152.5 58.5t204 62.5q2 10 2 27q0 69 -46 101t-140 32q-163 0 -328 -152l4 236q168 115 422 115q206 0 297.5 -79.5t91.5 -252.5v-377q0 -31 8.5 -45t30.5 -14q34 0 94 24v-166q-149 -73 -262 -73q-144 0 -159 104 q-130 -106 -295 -106q-137 0 -207 67t-70 197zM217 1077l189 348h217l188 -348h-131l-166 209l-168 -209h-129zM350 268q0 -46 28 -73t77 -27q68 0 151 59v232q-140 -49 -198 -89.5t-58 -101.5z" />
<glyph unicode="&#xe3;" horiz-adv-x="1056" d="M49 246q0 55 23.5 98.5t62.5 76.5t114.5 66t152.5 58.5t204 62.5q2 10 2 27q0 69 -46 101t-140 32q-163 0 -328 -152l4 236q168 115 422 115q206 0 297.5 -79.5t91.5 -252.5v-377q0 -31 8.5 -45t30.5 -14q34 0 94 24v-166q-149 -73 -262 -73q-144 0 -159 104 q-130 -106 -295 -106q-137 0 -207 67t-70 197zM213 1114q40 219 193 219q25 0 83 -14l89 -25q24 -6 51 -6q31 0 54 20t32 56h100q-23 -113 -70 -170t-129 -57q-31 0 -69 10l-84 24q-46 11 -64 11q-65 0 -86 -68h-100zM350 268q0 -46 28 -73t77 -27q68 0 151 59v232 q-140 -49 -198 -89.5t-58 -101.5z" />
<glyph unicode="&#xe4;" horiz-adv-x="1056" d="M49 246q0 55 23.5 98.5t62.5 76.5t114.5 66t152.5 58.5t204 62.5q2 10 2 27q0 69 -46 101t-140 32q-163 0 -328 -152l4 236q168 115 422 115q206 0 297.5 -79.5t91.5 -252.5v-377q0 -31 8.5 -45t30.5 -14q34 0 94 24v-166q-149 -73 -262 -73q-144 0 -159 104 q-130 -106 -295 -106q-137 0 -207 67t-70 197zM211 1241q0 48 36 84.5t85 36.5t84 -35.5t35 -85.5q0 -54 -33 -87.5t-86 -33.5q-51 0 -86 34.5t-35 86.5zM350 268q0 -46 28 -73t77 -27q68 0 151 59v232q-140 -49 -198 -89.5t-58 -101.5zM575 1241q0 48 36 84.5t85 36.5 t84 -35.5t35 -85.5q0 -54 -33 -87.5t-86 -33.5q-51 0 -86 34.5t-35 86.5z" />
<glyph unicode="&#xe5;" horiz-adv-x="1056" d="M49 246q0 55 23.5 98.5t62.5 76.5t114.5 66t152.5 58.5t204 62.5q2 10 2 27q0 69 -46 101t-140 32q-163 0 -328 -152l4 236q168 115 422 115q206 0 297.5 -79.5t91.5 -252.5v-377q0 -31 8.5 -45t30.5 -14q34 0 94 24v-166q-149 -73 -262 -73q-144 0 -159 104 q-130 -106 -295 -106q-137 0 -207 67t-70 197zM266 1290q0 106 73 179t179 73t180 -73t74 -179t-74 -180t-180 -74q-105 0 -178.5 74.5t-73.5 179.5zM350 268q0 -46 28 -73t77 -27q68 0 151 59v232q-140 -49 -198 -89.5t-58 -101.5zM403 1290q0 -47 35 -81.5t82 -34.5 q49 0 83 34t34 82q0 50 -33.5 83.5t-83.5 33.5q-48 0 -82.5 -34t-34.5 -83z" />
<glyph unicode="&#xe6;" horiz-adv-x="1640" d="M47 238q0 289 559 329q2 18 2 49q0 83 -43 117.5t-143 34.5q-163 0 -328 -152v236q182 117 416 117q176 0 305 -90q131 88 291 88q223 0 352 -141.5t129 -393.5v-10h-672v-4q0 -114 76.5 -179t210.5 -65q181 0 363 127v-197q-189 -124 -443 -124q-137 0 -231 33.5 t-164 113.5q-101 -74 -194 -109.5t-197 -35.5q-142 0 -215.5 65.5t-73.5 190.5zM350 268q0 -46 28 -73t77 -27q68 0 151 59v195q-256 -6 -256 -154zM918 567h368q-9 95 -55.5 146t-122.5 51q-78 0 -127.5 -50.5t-62.5 -146.5z" />
<glyph unicode="&#xe7;" horiz-adv-x="968" d="M51 473q0 222 146.5 359t394.5 137q154 0 299 -62v-233q-147 61 -254 61q-128 0 -200 -70t-72 -192q0 -124 73 -193t211 -69q117 0 258 63v-231q-131 -61 -303 -61q-258 0 -405.5 133.5t-147.5 357.5zM248 -315q165 -43 256 -43q108 0 108 75q0 42 -34 61t-107 19 q-7 0 -21.5 -1t-21.5 -1v205h90v-94h14q238 0 238 -193q0 -90 -64.5 -140t-185.5 -50q-115 0 -272 43v119z" />
<glyph unicode="&#xe8;" horiz-adv-x="1089" d="M57 485q0 218 136 350t362 132q223 0 352 -142t129 -393v-10h-671v-4q0 -114 77 -179t211 -65q179 0 361 127v-197q-190 -124 -434 -124q-247 0 -385 135t-138 370zM266 1425h221l205 -346h-131zM367 567h368q-7 93 -55.5 145t-122.5 52q-76 0 -127 -51.5t-63 -145.5z " />
<glyph unicode="&#xe9;" horiz-adv-x="1089" d="M57 485q0 218 136 350t362 132q223 0 352 -142t129 -393v-10h-671v-4q0 -114 77 -179t211 -65q179 0 361 127v-197q-190 -124 -434 -124q-247 0 -385 135t-138 370zM367 567h368q-7 93 -55.5 145t-122.5 52q-76 0 -127 -51.5t-63 -145.5zM397 1079l205 348h221l-295 -348 h-131z" />
<glyph unicode="&#xea;" horiz-adv-x="1089" d="M57 485q0 218 136 350t362 132q223 0 352 -142t129 -393v-10h-671v-4q0 -114 77 -179t211 -65q179 0 361 127v-197q-190 -124 -434 -124q-247 0 -385 135t-138 370zM248 1077l188 348h217l189 -348h-131l-166 209l-168 -209h-129zM367 567h368q-7 93 -55.5 145t-122.5 52 q-76 0 -127 -51.5t-63 -145.5z" />
<glyph unicode="&#xeb;" horiz-adv-x="1089" d="M57 485q0 218 136 350t362 132q223 0 352 -142t129 -393v-10h-671v-4q0 -114 77 -179t211 -65q179 0 361 127v-197q-190 -124 -434 -124q-247 0 -385 135t-138 370zM242 1241q0 48 35.5 84.5t84.5 36.5t84 -35.5t35 -85.5q0 -54 -33 -87.5t-86 -33.5q-51 0 -85.5 34.5 t-34.5 86.5zM367 567h368q-7 93 -55.5 145t-122.5 52q-76 0 -127 -51.5t-63 -145.5zM606 1241q0 48 36 84.5t85 36.5t84 -35.5t35 -85.5q0 -54 -33 -87.5t-86 -33.5q-51 0 -86 34.5t-35 86.5z" />
<glyph unicode="&#xec;" horiz-adv-x="516" d="M-20 1425h221l205 -346h-132zM109 0v948h299v-948h-299z" />
<glyph unicode="&#xed;" horiz-adv-x="516" d="M109 0v948h299v-948h-299zM111 1079l204 348h222l-295 -348h-131z" />
<glyph unicode="&#xee;" horiz-adv-x="516" d="M-39 1077l189 348h217l188 -348h-131l-166 209l-168 -209h-129zM109 0v948h299v-948h-299z" />
<glyph unicode="&#xef;" horiz-adv-x="516" d="M-45 1241q0 48 36 84.5t85 36.5t84 -35.5t35 -85.5q0 -54 -33 -87.5t-86 -33.5q-51 0 -86 34.5t-35 86.5zM109 0v948h299v-948h-299zM319 1241q0 48 36 84.5t85 36.5t84 -35.5t35 -85.5q0 -54 -33 -87.5t-86 -33.5q-51 0 -86 34.5t-35 86.5z" />
<glyph unicode="&#xf0;" horiz-adv-x="1142" d="M51 438q0 129 65.5 234.5t179 165t249.5 59.5q85 0 150.5 -28t131.5 -93q-18 159 -104 287l-313 -90l-43 125l270 78q-59 56 -150 120l140 125q106 -50 243 -184l232 66l49 -127l-195 -56q148 -233 148 -563q0 -279 -138 -427t-395 -148q-233 0 -376.5 128t-143.5 328z M358 438q0 -112 58.5 -180t154.5 -68t154.5 68t58.5 180t-59.5 180t-153.5 68q-96 0 -154.5 -68t-58.5 -180z" />
<glyph unicode="&#xf1;" horiz-adv-x="1155" d="M109 0v948h297v-119q71 73 148 105.5t175 32.5q155 0 238.5 -94t83.5 -273v-600h-299v559q0 99 -32 147t-102 48q-125 0 -212 -150v-604h-297zM291 1114q40 219 192 219q26 0 84 -14l88 -25q24 -6 52 -6q31 0 54 20t32 56h100q-23 -113 -70 -170t-129 -57q-31 0 -69 10 l-84 24q-46 11 -64 11q-65 0 -86 -68h-100z" />
<glyph unicode="&#xf2;" horiz-adv-x="1142" d="M51 473q0 218 144 356t376 138q233 0 378 -138.5t145 -355.5q0 -216 -145 -353.5t-378 -137.5q-232 0 -376 136.5t-144 354.5zM293 1425h221l205 -346h-131zM358 473q0 -122 58.5 -194t154.5 -72t154.5 72t58.5 194t-59 195t-154 73t-154 -73t-59 -195z" />
<glyph unicode="&#xf3;" horiz-adv-x="1142" d="M51 473q0 218 144 356t376 138q233 0 378 -138.5t145 -355.5q0 -216 -145 -353.5t-378 -137.5q-232 0 -376 136.5t-144 354.5zM358 473q0 -122 58.5 -194t154.5 -72t154.5 72t58.5 194t-59 195t-154 73t-154 -73t-59 -195zM424 1079l205 348h221l-295 -348h-131z" />
<glyph unicode="&#xf4;" horiz-adv-x="1142" d="M51 473q0 218 144 356t376 138q233 0 378 -138.5t145 -355.5q0 -216 -145 -353.5t-378 -137.5q-232 0 -376 136.5t-144 354.5zM274 1077l189 348h217l188 -348h-131l-166 209l-168 -209h-129zM358 473q0 -122 58.5 -194t154.5 -72t154.5 72t58.5 194t-59 195t-154 73 t-154 -73t-59 -195z" />
<glyph unicode="&#xf5;" horiz-adv-x="1142" d="M51 473q0 218 144 356t376 138q233 0 378 -138.5t145 -355.5q0 -216 -145 -353.5t-378 -137.5q-232 0 -376 136.5t-144 354.5zM270 1114q40 219 193 219q26 0 84 -14l88 -25q24 -6 51 -6q31 0 54 20t32 56h100q-23 -113 -69.5 -170t-128.5 -57q-32 0 -70 10l-84 24 q-46 11 -63 11q-65 0 -86 -68h-101zM358 473q0 -122 58.5 -194t154.5 -72t154.5 72t58.5 194t-59 195t-154 73t-154 -73t-59 -195z" />
<glyph unicode="&#xf6;" horiz-adv-x="1142" d="M51 473q0 218 144 356t376 138q233 0 378 -138.5t145 -355.5q0 -216 -145 -353.5t-378 -137.5q-232 0 -376 136.5t-144 354.5zM268 1241q0 48 36 84.5t85 36.5t84 -35.5t35 -85.5q0 -54 -33 -87.5t-86 -33.5q-51 0 -86 34.5t-35 86.5zM358 473q0 -122 58.5 -194 t154.5 -72t154.5 72t58.5 194t-59 195t-154 73t-154 -73t-59 -195zM633 1241q0 48 36 84.5t85 36.5t83.5 -35.5t34.5 -85.5q0 -54 -32.5 -87.5t-85.5 -33.5q-51 0 -86 34.5t-35 86.5z" />
<glyph unicode="&#xf7;" horiz-adv-x="1705" d="M254 512v199h1198v-199h-1198zM702 217q0 64 45 108t107 44t107 -44.5t45 -107.5q0 -60 -44.5 -104.5t-107.5 -44.5t-107.5 43t-44.5 106zM702 1004q0 64 45 107.5t107 43.5t107 -44t45 -107q0 -62 -44 -107t-108 -45q-63 0 -107.5 44.5t-44.5 107.5z" />
<glyph unicode="&#xf8;" horiz-adv-x="1142" d="M23 57l127 117q-99 118 -99 299q0 218 144 356t376 138q187 0 330 -97l119 113l96 -94l-123 -115q99 -116 99 -289q0 -228 -143 -365.5t-378 -137.5q-192 0 -329 98l-123 -117zM356 477q0 -43 15 -98l336 309q-56 53 -136 53q-94 0 -154.5 -73t-60.5 -191zM434 262 q58 -55 137 -55q95 0 155 69t60 183q0 57 -14 112z" />
<glyph unicode="&#xf9;" horiz-adv-x="1155" d="M104 348v600h299v-559q0 -99 32 -146.5t102 -47.5q128 0 213 149v604h299v-948h-299v119q-71 -73 -147.5 -105t-174.5 -32q-155 0 -239.5 94t-84.5 272zM299 1425h221l205 -346h-131z" />
<glyph unicode="&#xfa;" horiz-adv-x="1155" d="M104 348v600h299v-559q0 -99 32 -146.5t102 -47.5q128 0 213 149v604h299v-948h-299v119q-71 -73 -147.5 -105t-174.5 -32q-155 0 -239.5 94t-84.5 272zM430 1079l205 348h221l-295 -348h-131z" />
<glyph unicode="&#xfb;" horiz-adv-x="1155" d="M104 348v600h299v-559q0 -99 32 -146.5t102 -47.5q128 0 213 149v604h299v-948h-299v119q-71 -73 -147.5 -105t-174.5 -32q-155 0 -239.5 94t-84.5 272zM281 1077l188 348h217l188 -348h-131l-165 209l-168 -209h-129z" />
<glyph unicode="&#xfc;" horiz-adv-x="1155" d="M104 348v600h299v-559q0 -99 32 -146.5t102 -47.5q128 0 213 149v604h299v-948h-299v119q-71 -73 -147.5 -105t-174.5 -32q-155 0 -239.5 94t-84.5 272zM274 1241q0 48 36 84.5t85 36.5t84 -35.5t35 -85.5q0 -54 -33 -87.5t-86 -33.5q-51 0 -86 34.5t-35 86.5zM639 1241 q0 48 36 84.5t85 36.5t84 -35.5t35 -85.5q0 -54 -33 -87.5t-86 -33.5q-51 0 -86 34.5t-35 86.5z" />
<glyph unicode="&#xfd;" horiz-adv-x="978" d="M-33 948h320l192 -463l205 463h315l-639 -1413h-313l281 617zM342 1079l205 348h221l-295 -348h-131z" />
<glyph unicode="&#xfe;" horiz-adv-x="1171" d="M109 -465v1864h297v-518q110 88 262 88q199 0 323.5 -137t124.5 -359q0 -220 -124.5 -356.5t-323.5 -136.5q-153 0 -262 90v-535h-297zM406 274q73 -59 172 -59q102 0 164.5 70t62.5 190q0 121 -64 192.5t-172 71.5q-80 0 -163 -59v-406z" />
<glyph unicode="&#xff;" horiz-adv-x="978" d="M-33 948h320l192 -463l205 463h315l-639 -1413h-313l281 617zM186 1241q0 48 36 84.5t85 36.5t84 -35.5t35 -85.5q0 -54 -33 -87.5t-86 -33.5q-51 0 -86 34.5t-35 86.5zM551 1241q0 48 36 84.5t85 36.5t84 -35.5t35 -85.5q0 -54 -33 -87.5t-86 -33.5q-51 0 -86 34.5 t-35 86.5z" />
<glyph unicode="&#x152;" horiz-adv-x="2060" d="M70 700q0 184 82 337.5t231 248.5q114 74 247 93.5t353 19.5h74h901v-258h-588v-285h561v-260h-561v-334h604v-262h-860h-156q-188 0 -313 19.5t-237 84.5q-163 97 -250.5 251.5t-87.5 344.5zM428 698q0 -118 46 -214.5t128 -153.5q64 -45 131 -57.5t170 -12.5h117v877 h-117q-105 0 -172.5 -13t-128.5 -55q-82 -57 -128 -155t-46 -216z" />
<glyph unicode="&#x153;" horiz-adv-x="1814" d="M51 473q0 217 144 355.5t376 138.5q216 0 359 -129q139 127 346 127q226 0 355.5 -140.5t129.5 -396.5v-6h-671v-4q0 -113 76.5 -177.5t209.5 -64.5q181 0 363 127v-197q-190 -124 -432 -124q-217 0 -377 122q-161 -124 -355 -124q-231 0 -377.5 138t-146.5 355zM358 473 q0 -122 58.5 -194t154.5 -72t154.5 72t58.5 194t-59 195t-154 73t-154 -73t-59 -195zM1092 567h368q-7 93 -55.5 145t-122.5 52q-76 0 -127 -51.5t-63 -145.5z" />
<glyph unicode="&#x178;" horiz-adv-x="1372" d="M-43 1399h420l307 -453l315 453h416l-557 -764v-635h-350v633zM383 1696q0 48 36 84.5t85 36.5t84 -35.5t35 -85.5q0 -54 -33 -87.5t-86 -33.5q-51 0 -86 34.5t-35 86.5zM748 1696q0 48 35.5 84.5t84.5 36.5t84 -35.5t35 -85.5q0 -54 -33 -87.5t-86 -33.5 q-51 0 -85.5 34.5t-34.5 86.5z" />
<glyph unicode="&#x2c6;" horiz-adv-x="1024" d="M215 1077l188 348h218l188 -348h-131l-166 209l-168 -209h-129z" />
<glyph unicode="&#x2dc;" horiz-adv-x="1024" d="M211 1114q40 219 192 219q26 0 84 -14l88 -25q24 -6 52 -6q31 0 54 20t32 56h100q-23 -113 -70 -170t-129 -57q-31 0 -69 10l-84 24q-46 11 -64 11q-65 0 -86 -68h-100z" />
<glyph unicode="&#x2000;" horiz-adv-x="986" />
<glyph unicode="&#x2001;" horiz-adv-x="1972" />
<glyph unicode="&#x2002;" horiz-adv-x="986" />
<glyph unicode="&#x2003;" horiz-adv-x="1972" />
<glyph unicode="&#x2004;" horiz-adv-x="657" />
<glyph unicode="&#x2005;" horiz-adv-x="493" />
<glyph unicode="&#x2006;" horiz-adv-x="328" />
<glyph unicode="&#x2007;" horiz-adv-x="328" />
<glyph unicode="&#x2008;" horiz-adv-x="246" />
<glyph unicode="&#x2009;" horiz-adv-x="394" />
<glyph unicode="&#x200a;" horiz-adv-x="109" />
<glyph unicode="&#x2010;" horiz-adv-x="702" d="M80 342v270h541v-270h-541z" />
<glyph unicode="&#x2011;" horiz-adv-x="702" d="M80 342v270h541v-270h-541z" />
<glyph unicode="&#x2012;" horiz-adv-x="702" d="M80 342v270h541v-270h-541z" />
<glyph unicode="&#x2013;" horiz-adv-x="1024" d="M0 385v197h1024v-197h-1024z" />
<glyph unicode="&#x2014;" horiz-adv-x="2048" d="M0 385v197h2048v-197h-2048z" />
<glyph unicode="&#x2018;" horiz-adv-x="559" d="M90 997q0 156 105 276.5t274 147.5v-59q-109 -118 -109 -232v-18q46 -14 73.5 -55t27.5 -96q0 -74 -52.5 -127.5t-127.5 -53.5q-87 0 -139 58.5t-52 158.5z" />
<glyph unicode="&#x2019;" horiz-adv-x="559" d="M90 780v62q109 118 109 231v19q-46 14 -73.5 55t-27.5 96q0 74 53 126t128 52q87 0 138.5 -57.5t51.5 -157.5q0 -157 -105 -278t-274 -148z" />
<glyph unicode="&#x201a;" horiz-adv-x="559" d="M90 -242q109 118 109 236v14q-46 14 -73.5 55.5t-27.5 96.5q0 74 53 127t128 53q87 0 138.5 -58t51.5 -159q0 -156 -105 -276.5t-274 -147.5v59z" />
<glyph unicode="&#x201c;" horiz-adv-x="1089" d="M90 997q0 156 105 276.5t274 147.5v-59q-109 -118 -109 -232v-18q46 -14 73.5 -55t27.5 -96q0 -74 -52.5 -127.5t-127.5 -53.5q-87 0 -139 58.5t-52 158.5zM621 997q0 156 104.5 276.5t273.5 147.5v-59q-108 -117 -108 -232v-18q46 -13 73 -54t27 -97q0 -74 -52.5 -127.5 t-127.5 -53.5q-87 0 -138.5 58t-51.5 159z" />
<glyph unicode="&#x201d;" horiz-adv-x="1089" d="M90 780v62q109 118 109 231v19q-46 13 -72.5 54t-26.5 97q0 74 52 126t127 52q87 0 138.5 -57.5t51.5 -157.5q0 -157 -105 -278t-274 -148zM621 780v62q108 117 108 231v19q-46 13 -73 54t-27 97q0 74 52.5 126t127.5 52q87 0 138.5 -57.5t51.5 -157.5 q0 -157 -104.5 -278t-273.5 -148z" />
<glyph unicode="&#x201e;" horiz-adv-x="1087" d="M90 -242q109 118 109 236v14q-46 13 -72.5 54.5t-26.5 97.5q0 74 52 127t127 53q87 0 138.5 -58t51.5 -159q0 -156 -105 -276.5t-274 -147.5v59zM621 -242q108 117 108 236v14q-46 13 -73 54.5t-27 97.5q0 74 52.5 127t127.5 53q87 0 138.5 -58t51.5 -159 q0 -156 -104.5 -276.5t-273.5 -147.5v59z" />
<glyph unicode="&#x2022;" horiz-adv-x="1208" d="M307 762q0 123 87 209t210 86q122 0 208.5 -86t86.5 -209q0 -122 -87 -209.5t-210 -87.5t-209 87t-86 210z" />
<glyph unicode="&#x2026;" horiz-adv-x="2048" d="M164 160q0 74 52 127t126 53q76 0 128 -52.5t52 -127.5q0 -74 -52.5 -126t-127.5 -52t-126.5 52t-51.5 126zM846 160q0 74 52 127t126 53q76 0 128 -52.5t52 -127.5q0 -74 -52.5 -126t-127.5 -52t-126.5 52t-51.5 126zM1530 160q0 74 52 127t126 53q76 0 128 -52.5 t52 -127.5q0 -74 -52.5 -126t-127.5 -52t-126.5 52t-51.5 126z" />
<glyph unicode="&#x202f;" horiz-adv-x="394" />
<glyph unicode="&#x2039;" horiz-adv-x="632" d="M76 475l243 324h238l-238 -324l238 -325h-238z" />
<glyph unicode="&#x203a;" horiz-adv-x="632" d="M76 150l237 325l-237 324h237l244 -324l-244 -325h-237z" />
<glyph unicode="&#x205f;" horiz-adv-x="493" />
<glyph unicode="&#x2122;" horiz-adv-x="1705" d="M207 1350v112h485v-112h-168v-435h-149v435h-168zM803 915v547h196l127 -332l123 332h197v-547h-135v410l-154 -410h-61l-158 410v-410h-135z" />
<glyph unicode="&#x25fc;" horiz-adv-x="952" d="M0 0v952h952v-952h-952z" />
<glyph unicode="&#xfb01;" horiz-adv-x="1114" d="M-2 745v203h135v105q0 183 98.5 272.5t300.5 89.5q56 0 103 -8v-229q-46 4 -60 4q-81 0 -112 -43t-31 -146v-45h125v-203h-125v-745h-299v745h-135zM694 1255q0 67 47 113.5t113 46.5t113 -47t47 -113t-46.5 -112.5t-113.5 -46.5t-113.5 46.5t-46.5 112.5zM705 0v948h299 v-948h-299z" />
<glyph unicode="&#xfb02;" horiz-adv-x="1114" d="M-2 745v203h135v105q0 175 91.5 267.5t258.5 92.5q132 0 222 -78v66h299v-1401h-299v1149q-64 37 -123 37q-85 0 -117.5 -45.5t-32.5 -147.5v-45h125v-203h-125v-745h-299v745h-135z" />
</font>
</defs>
</svg>
