<?xml version="1.0" standalone="no"?>
<!DOCTYPE svg PUBLIC "-//W3C//DTD SVG 1.1//EN" "http://www.w3.org/Graphics/SVG/1.1/DTD/svg11.dtd" >
<svg xmlns="http://www.w3.org/2000/svg">
<metadata></metadata>
<defs>
<font id="humanist_521regular" horiz-adv-x="1034" >
<font-face units-per-em="2048" ascent="1638" descent="-410" />
<missing-glyph horiz-adv-x="516" />
<glyph horiz-adv-x="0" />
<glyph horiz-adv-x="682" />
<glyph unicode=" "  horiz-adv-x="516" />
<glyph unicode="&#x09;" horiz-adv-x="516" />
<glyph unicode="&#xa0;" horiz-adv-x="516" />
<glyph unicode="!" horiz-adv-x="516" d="M131 109q0 54 35.5 90.5t89.5 36.5q53 0 90 -36.5t37 -90.5t-36.5 -90.5t-90.5 -36.5t-89.5 36.5t-35.5 90.5zM139 1171q0 128 27 189t88 61t89 -57.5t28 -179.5q0 -402 -103 -750h-26q-39 97 -71 298t-32 439z" />
<glyph unicode="&#x22;" horiz-adv-x="614" d="M90 881v555h139v-555h-139zM385 881v555h139v-555h-139z" />
<glyph unicode="#" horiz-adv-x="1574" d="M88 449l53 145h310l92 264h-330l51 146h332l162 454h166l-162 -454h256l164 454h164l-160 -454h301l-51 -146h-303l-93 -264h322l-51 -145h-322l-162 -453h-165l161 453h-258l-162 -453h-165l159 453h-309zM616 594h261l92 264h-260z" />
<glyph unicode="$" d="M47 154v262q225 -197 410 -209v428q-402 102 -402 381q0 148 108.5 250.5t293.5 119.5v152h127v-149q179 -12 329 -121v-221q-192 149 -329 155v-397q198 -61 299.5 -165.5t101.5 -244.5q0 -166 -101.5 -265t-299.5 -124v-225h-127v223h-15q-175 0 -395 150zM250 1030 q0 -132 207 -188v360q-97 -1 -152 -48t-55 -124zM584 205q93 6 143.5 51t50.5 121q0 72 -49.5 126t-144.5 83v-381z" />
<glyph unicode="%" horiz-adv-x="1964" d="M57 1004q0 175 120.5 296t295.5 121q174 0 296 -121.5t122 -295.5q0 -173 -122.5 -294.5t-295.5 -121.5q-174 0 -295 121t-121 295zM240 1006q0 -99 67.5 -167.5t165.5 -68.5q97 0 165.5 69t68.5 167t-68.5 165.5t-165.5 67.5q-98 0 -165.5 -67.5t-67.5 -165.5zM426 -25 l944 1448h168l-948 -1448h-164zM1071 391q0 175 121.5 296.5t296.5 121.5q173 0 294.5 -121.5t121.5 -296.5q0 -173 -121.5 -294.5t-294.5 -121.5q-175 0 -296.5 121.5t-121.5 294.5zM1253 391q0 -98 68.5 -165.5t167.5 -67.5q97 0 165 67.5t68 165.5t-68 167t-165 69 q-98 0 -167 -69t-69 -167z" />
<glyph unicode="&#x26;" horiz-adv-x="1335" d="M61 328q0 124 85 222.5t268 203.5q-164 164 -164 340q0 148 99 238.5t261 90.5q163 0 262 -87.5t99 -225.5q0 -117 -63.5 -208t-200.5 -179l204 -238q80 88 152 236h209q-75 -207 -234 -383l281 -338h-260l-168 201q-104 -115 -212.5 -170.5t-234.5 -55.5 q-176 0 -279.5 98t-103.5 255zM270 340q0 -76 52 -122t139 -46q67 0 140.5 41.5t168.5 126.5l-235 281q-137 -82 -201 -147t-64 -134zM444 1110q0 -48 36.5 -115.5t107.5 -142.5q104 69 151 127.5t47 128.5q0 67 -48 110.5t-124 43.5q-73 0 -121.5 -44t-48.5 -108z" />
<glyph unicode="'" horiz-adv-x="317" d="M90 881v555h139v-555h-139z" />
<glyph unicode="(" horiz-adv-x="645" d="M111 471q0 247 102.5 478t312.5 472h113q-354 -436 -354 -960q0 -458 329 -924h-116q-197 229 -292 456.5t-95 477.5z" />
<glyph unicode=")" horiz-adv-x="645" d="M6 1421h111q211 -242 314.5 -473t103.5 -477q0 -250 -95.5 -477t-292.5 -457h-118q331 469 331 924q0 524 -354 960z" />
<glyph unicode="*" horiz-adv-x="905" d="M45 944v139l352 -45l-282 215l98 99l215 -283l-45 352h139l-47 -352l217 283l99 -99l-283 -217l352 47v-139l-352 47l283 -217l-99 -98l-217 282l47 -352h-139l45 352l-215 -282l-98 98l282 217z" />
<glyph unicode="+" horiz-adv-x="1705" d="M254 541v139h528v541h142v-541h528v-139h-528v-541h-142v541h-528z" />
<glyph unicode="," horiz-adv-x="516" d="M133 104q0 51 33.5 85t81.5 34q60 0 97.5 -51t37.5 -139q0 -107 -62 -185t-178 -116l-2 37q80 68 80 186v27q-88 46 -88 122z" />
<glyph unicode="-" horiz-adv-x="692" d="M84 379v166h524v-166h-524z" />
<glyph unicode="." horiz-adv-x="516" d="M137 104q0 51 35 86t86 35t86 -35t35 -86t-35 -85.5t-86 -34.5t-86 34.5t-35 85.5z" />
<glyph unicode="/" horiz-adv-x="577" d="M-51 -190l483 1611h143l-487 -1611h-139z" />
<glyph unicode="0" d="M57 698q0 340 126.5 531.5t332.5 191.5t332.5 -191.5t126.5 -531.5t-126.5 -531.5t-332.5 -191.5t-332.5 191.5t-126.5 531.5zM258 698q0 -260 68 -396t190 -136t190 136t68 396t-68 397.5t-190 137.5t-190 -137.5t-68 -397.5z" />
<glyph unicode="1" d="M418 0v1399h198v-1399h-198z" />
<glyph unicode="2" d="M70 0q105 155 244 331.5t153 196.5q192 275 192 449q0 116 -65 185t-174 69q-153 0 -314 -172v239q171 125 340 125q185 0 299.5 -117t114.5 -307q0 -171 -104 -353.5t-326 -442.5h528v-203h-888z" />
<glyph unicode="3" d="M135 57v213q167 -86 301 -86q108 0 170 61t62 163q0 213 -297 231v176q133 0 207.5 60.5t74.5 160.5q0 89 -70 147t-186 58q-85 0 -235 -63v180q139 65 270 65q190 0 304 -102t114 -266q0 -198 -168 -307q95 -46 147 -133t52 -201q0 -194 -124.5 -316.5t-326.5 -122.5 q-140 0 -295 82z" />
<glyph unicode="4" d="M12 467v84l705 870h86v-788h155v-166h-155v-467h-193v467h-598zM281 633h329l6 422z" />
<glyph unicode="5" d="M96 70v206q154 -96 312 -96q132 0 210 68.5t78 179.5q0 126 -93.5 196t-270.5 70q-56 0 -142 -22l25 727h616v-170h-442l-14 -359h31q228 0 360.5 -120t132.5 -318q0 -196 -137 -326.5t-350 -130.5q-137 0 -316 95z" />
<glyph unicode="6" d="M76 473q0 277 144.5 518t428.5 430l109 -137q-174 -120 -281 -247.5t-151 -280.5q133 65 231 65q173 0 285 -118t112 -297q0 -186 -124.5 -307.5t-317.5 -121.5q-196 0 -316 135.5t-120 360.5zM281 455q0 -131 68 -211t179 -80q100 0 162 63.5t62 167.5 q0 105 -64.5 171.5t-163.5 66.5q-133 0 -233 -92q-10 -52 -10 -86z" />
<glyph unicode="7" d="M123 1217v182h893l-635 -1434l-172 78l510 1174h-596z" />
<glyph unicode="8" d="M55 401q0 115 55 201t152 121q-77 51 -118.5 131.5t-41.5 179.5q0 170 118.5 279.5t305.5 109.5q176 0 291 -111t115 -276q0 -101 -42.5 -184t-117.5 -129q96 -35 150.5 -121t54.5 -203q0 -181 -130.5 -302.5t-330.5 -121.5q-202 0 -331.5 122t-129.5 304zM268 397 q0 -100 67.5 -166.5t172.5 -66.5q116 0 185 65.5t69 169.5q0 101 -67 162.5t-177 61.5q-112 0 -181 -64t-69 -162zM293 1032q0 -100 65.5 -164.5t155.5 -64.5q99 0 165 62.5t66 164.5q0 95 -62.5 153t-164.5 58q-101 0 -163 -58t-62 -151z" />
<glyph unicode="9" d="M72 993q0 187 124.5 308.5t317.5 121.5q196 0 316 -135t120 -360q0 -278 -145 -520.5t-428 -430.5l-109 138q355 244 432 528q-133 -65 -229 -65q-173 0 -286 118t-113 297zM276 1006q0 -105 63.5 -171.5t162.5 -66.5q136 0 233 90q13 67 13 86q0 132 -68.5 212.5 t-179.5 80.5q-100 0 -162 -63.5t-62 -167.5z" />
<glyph unicode=":" horiz-adv-x="516" d="M137 102q0 51 35 86t86 35t86 -35t35 -86t-35 -85.5t-86 -34.5t-86 34.5t-35 85.5zM137 825q0 51 35 85t86 34t86 -34t35 -85t-35 -85.5t-86 -34.5t-86 34.5t-35 85.5z" />
<glyph unicode=";" horiz-adv-x="516" d="M133 104q0 51 33.5 85t81.5 34q60 0 97.5 -51t37.5 -139q0 -107 -62 -185t-178 -116l-2 37q80 68 80 186v27q-88 46 -88 122zM139 823q0 51 34 86t85 35t86 -35t35 -86t-35 -86t-86 -35t-85 35t-34 86z" />
<glyph unicode="&#x3c;" horiz-adv-x="1705" d="M264 547v129l1178 483v-153l-969 -396l969 -393v-154z" />
<glyph unicode="=" horiz-adv-x="1705" d="M254 342v139h1198v-139h-1198zM254 739v140h1198v-140h-1198z" />
<glyph unicode="&#x3e;" horiz-adv-x="1705" d="M264 63v154l971 393l-971 396v153l1178 -483v-129z" />
<glyph unicode="?" horiz-adv-x="641" d="M49 1151l39 217q101 55 215 55q132 0 217.5 -87t85.5 -222q0 -89 -33 -162.5t-102 -160.5q-22 -28 -68.5 -83t-65 -80t-36.5 -64.5t-18 -74.5q0 -31 12 -65l-47 -21q-82 85 -82 187q0 91 78 217q13 21 40 61.5t40 62t29.5 52.5t23 57.5t6.5 53.5q0 60 -36 95.5t-95 35.5 q-74 0 -203 -74zM160 106q0 52 36 87.5t89 35.5t89 -35.5t36 -87.5t-36 -88t-89 -36t-89 36t-36 88z" />
<glyph unicode="@" horiz-adv-x="2048" d="M106 522q0 335 203 582q145 177 350.5 269.5t456.5 92.5q166 0 312.5 -46t250.5 -126q129 -100 197 -231t68 -283q0 -175 -63 -315.5t-185 -235.5q-139 -112 -316 -112q-200 0 -200 157v19q-108 -174 -301 -174q-152 0 -233 85.5t-81 246.5q0 156 63.5 283t172.5 198.5 t241 71.5q170 0 242 -150l57 115h132l-146 -576q-8 -33 -8 -59q0 -94 100 -94q101 0 209 102q79 75 124.5 185.5t45.5 234.5q0 257 -189 419t-501 162q-266 0 -457 -114t-296 -299.5t-105 -409.5q0 -177 61.5 -307.5t192.5 -230.5q99 -75 234.5 -117.5t289.5 -42.5 q169 0 329 49t292 141l55 -82q-296 -223 -664 -223q-382 0 -628 187q-306 236 -306 628zM725 446q0 -106 48.5 -162.5t137.5 -56.5q96 0 173.5 68t105.5 180l59 236q-17 89 -68.5 136.5t-129.5 47.5q-90 0 -165 -59.5t-118 -163t-43 -226.5z" />
<glyph unicode="A" horiz-adv-x="1275" d="M-45 0l606 1399h146l614 -1399h-207l-180 412h-596l-178 -412h-205zM416 592h436l-221 504z" />
<glyph unicode="B" horiz-adv-x="1185" d="M150 0v1399h409q211 0 323.5 -96t112.5 -269q0 -215 -207 -291q153 -37 236.5 -131.5t83.5 -230.5q0 -172 -126.5 -276.5t-346.5 -104.5h-485zM348 182h266q143 0 212 50.5t69 162.5q0 116 -76.5 168.5t-236.5 52.5h-234v-434zM348 799h135q153 0 227 54.5t74 168.5 q0 104 -59.5 150.5t-185.5 46.5h-191v-420z" />
<glyph unicode="C" horiz-adv-x="1421" d="M74 705q0 141 57.5 273t161.5 232q224 211 559 211q232 0 477 -112v-217q-261 141 -477 141q-247 0 -406 -154t-159 -381q0 -148 70.5 -269.5t197.5 -192t285 -70.5q244 0 501 166v-226q-250 -131 -503 -131q-241 0 -435 125q-157 101 -243 260t-86 345z" />
<glyph unicode="D" horiz-adv-x="1517" d="M150 0v1399h514q147 0 260.5 -27.5t210.5 -93.5q141 -96 219 -246.5t78 -331.5t-78 -332.5t-219 -246.5q-176 -121 -471 -121h-514zM348 190h316q263 0 409 137.5t146 370.5t-146 371.5t-409 138.5h-316v-1018z" />
<glyph unicode="E" horiz-adv-x="1114" d="M150 0v1399h841v-178h-643v-424h625v-181h-625v-436h664v-180h-862z" />
<glyph unicode="F" horiz-adv-x="1030" d="M150 0v1399h796v-178h-598v-414h580v-180h-580v-627h-198z" />
<glyph unicode="G" horiz-adv-x="1449" d="M74 705q0 141 57.5 273t161.5 232q221 211 561 211q233 0 475 -112v-217q-261 141 -477 141q-247 0 -406 -154t-159 -381q0 -148 70.5 -269.5t198 -192t286.5 -70.5q144 0 293 63v271h-263v186h469v-592q-275 -119 -497 -119q-254 0 -441 123q-157 101 -243 260t-86 347z " />
<glyph unicode="H" horiz-adv-x="1503" d="M150 0v1399h198v-602h807v602h199v-1399h-199v608h-807v-608h-198z" />
<glyph unicode="I" horiz-adv-x="512" d="M156 0v1399h200v-1399h-200z" />
<glyph unicode="J" horiz-adv-x="516" d="M-125 -287h31q153 0 204.5 57.5t51.5 215.5v1413h198v-1362q0 -70 -1.5 -112t-8.5 -95t-21 -88t-39.5 -71.5t-62.5 -65.5q-95 -76 -272 -76h-35z" />
<glyph unicode="K" horiz-adv-x="1251" d="M156 0v1399h200v-629l584 629h252l-608 -656l725 -743h-279l-674 692v-692h-200z" />
<glyph unicode="L" d="M156 0v1399h198v-1219h666v-180h-864z" />
<glyph unicode="M" horiz-adv-x="1654" d="M150 0v1399h174l503 -588l504 588h174v-1399h-194v1092l-484 -564l-483 564v-1092h-194z" />
<glyph unicode="N" horiz-adv-x="1593" d="M150 0v1399h174l921 -1086v1086h199v-1399h-178l-918 1087v-1087h-198z" />
<glyph unicode="O" horiz-adv-x="1640" d="M74 705q0 141 57 272t162 233q107 103 242 157t284 54q151 0 288 -54.5t241 -156.5q219 -213 219 -518q0 -142 -56 -273.5t-161 -232.5q-220 -211 -531 -211q-149 0 -285.5 55t-240.5 156q-219 213 -219 519zM287 698q0 -221 155 -376q73 -75 172 -115.5t205 -40.5 q223 0 379 156t156 376q0 216 -158 377q-75 76 -172.5 117t-204.5 41q-105 0 -202.5 -41t-174.5 -117q-75 -73 -115 -171t-40 -206z" />
<glyph unicode="P" horiz-adv-x="1110" d="M150 0v1399h436q220 0 342.5 -106.5t122.5 -293.5t-122.5 -292t-342.5 -105h-238v-602h-198zM348 780h217q143 0 210 51t67 168t-67 168.5t-210 51.5h-217v-439z" />
<glyph unicode="Q" horiz-adv-x="1640" d="M74 705q0 141 57 272t162 233q107 103 242 157t284 54q151 0 288 -54.5t241 -156.5q219 -213 219 -518q0 -242 -149 -430t-410 -264q206 -104 387 -104q57 0 139 16l8 -21l-190 -165q-24 -3 -47 -3q-278 0 -670 279q-169 41 -297 144t-196 248.5t-68 312.5zM287 698 q0 -221 155 -376q73 -75 172 -115.5t205 -40.5q223 0 379 156t156 376q0 216 -158 377q-75 76 -172.5 117t-204.5 41q-105 0 -202.5 -41t-174.5 -117q-75 -73 -115 -171t-40 -206z" />
<glyph unicode="R" horiz-adv-x="1157" d="M147 0v1399h410q214 0 328 -100t114 -283q0 -137 -63 -221t-199 -127q42 -23 74 -59t72 -97l340 -512h-242l-240 367q-39 60 -62 92t-56 69.5t-61.5 55t-67.5 29.5t-86 12h-60v-625h-201zM348 793h166q279 0 279 219q0 116 -67.5 166.5t-211.5 50.5h-166v-436z" />
<glyph unicode="S" horiz-adv-x="944" d="M76 1053q0 162 114.5 267t298.5 105q160 0 318 -96v-227q-176 141 -326 141q-95 0 -154 -47t-59 -119q0 -38 15.5 -69.5t52.5 -63.5t74 -57t104 -67q20 -12 31 -19q58 -36 96 -62t79 -60t65.5 -66t45.5 -73t30 -89.5t9 -106.5q0 -159 -114.5 -264t-298.5 -105 q-215 0 -379 134v264q93 -106 179.5 -155.5t186.5 -49.5q104 0 164 48.5t60 131.5q0 35 -11 64.5t-26.5 52t-49.5 50t-63 47t-84 54.5q-71 46 -109.5 72t-87 63.5t-72.5 65.5t-47.5 66t-32.5 79t-9 91z" />
<glyph unicode="T" horiz-adv-x="1255" d="M14 1217v182h1227v-182h-514v-1217h-199v1217h-514z" />
<glyph unicode="U" horiz-adv-x="1488" d="M141 588v811h199v-803q0 -113 10.5 -175.5t52.5 -111.5q124 -145 340 -145q182 0 293 94.5t111 247.5v893h199v-899q0 -233 -167 -379t-436 -146q-321 0 -503 222q-64 80 -81.5 166t-17.5 225z" />
<glyph unicode="V" horiz-adv-x="1214" d="M-41 1399h209l436 -998l445 998h206l-628 -1409h-52z" />
<glyph unicode="W" horiz-adv-x="1906" d="M-35 1399h207l342 -955l377 955h127l373 -957l348 957h203l-527 -1409h-45l-418 1077l-422 -1077h-47z" />
<glyph unicode="X" horiz-adv-x="1470" d="M-20 0l643 741l-555 658h247l433 -512l440 512h248l-566 -658l619 -741h-244l-502 598l-518 -598h-245z" />
<glyph unicode="Y" horiz-adv-x="1193" d="M-55 1399h237l408 -531l418 531h241l-561 -709v-690h-203v700z" />
<glyph unicode="Z" horiz-adv-x="1304" d="M14 0l920 1223h-854v176h1200v-23l-903 -1204h903v-172h-1266z" />
<glyph unicode="[" horiz-adv-x="641" d="M174 -428v1827h449v-139h-279v-1549h279v-139h-449z" />
<glyph unicode="\" horiz-adv-x="577" d="M4 1421h143l482 -1611h-137z" />
<glyph unicode="]" horiz-adv-x="641" d="M20 -289h281v1549h-281v139h449v-1827h-449v139z" />
<glyph unicode="^" horiz-adv-x="2048" d="M420 901l510 557h186l510 -557h-180l-422 420l-424 -420h-180z" />
<glyph unicode="_" horiz-adv-x="1024" d="M0 -340h1024v-143h-1024v143z" />
<glyph unicode="`" horiz-adv-x="1024" d="M262 1403h178l209 -348h-106z" />
<glyph unicode="a" horiz-adv-x="886" d="M47 207q0 195 305 297l219 74q2 14 2 38q0 83 -41 119.5t-133 36.5q-157 0 -323 -129v182q144 117 346 117q181 0 260.5 -80t79.5 -252v-391q0 -47 8 -68.5t29 -21.5q15 0 31 7t28.5 16t36.5 28v-112q-100 -84 -207 -84q-53 0 -79.5 21.5t-30.5 70.5q-131 -92 -267 -92 q-126 0 -195 60t-69 163zM244 238q0 -57 36.5 -88t102.5 -31q98 0 188 69v271q-175 -54 -251 -102.5t-76 -118.5z" />
<glyph unicode="b" horiz-adv-x="1058" d="M121 43v1356h186v-527q103 72 244 72q201 0 323.5 -130.5t122.5 -350.5q0 -230 -136.5 -356.5t-387.5 -126.5q-166 0 -352 63zM307 186q95 -36 187 -36q147 0 227 81t80 230q0 145 -78 229t-211 84q-105 0 -205 -69v-519z" />
<glyph unicode="c" horiz-adv-x="901" d="M57 463q0 203 144 342t364 139q134 0 260 -57v-197q-128 76 -254 76q-144 0 -232.5 -85.5t-88.5 -217.5q0 -134 90 -220.5t240 -86.5q137 0 260 63v-188q-137 -49 -267 -49q-227 0 -371.5 136.5t-144.5 344.5z" />
<glyph unicode="d" horiz-adv-x="1058" d="M61 463q0 214 127 347.5t326 133.5q137 0 240 -72v527h184v-1399h-184v51q-99 -69 -240 -69q-199 0 -326 133.5t-127 347.5zM258 465q0 -152 81.5 -238t221.5 -86q105 0 193 64v520q-86 63 -193 63q-140 0 -221.5 -86t-81.5 -237z" />
<glyph unicode="e" horiz-adv-x="999" d="M57 477q0 206 125.5 335.5t327.5 129.5q198 0 316 -130t118 -355v-27h-692q7 -132 85.5 -205t209.5 -73q177 0 381 131v-185q-181 -118 -391 -118q-220 0 -350 136.5t-130 360.5zM252 561h489q-9 101 -73 162t-160 61q-105 0 -170.5 -57t-85.5 -166z" />
<glyph unicode="f" horiz-adv-x="540" d="M39 764v160h121v84q0 102 8 161t37 107q40 65 110.5 101t157.5 36q52 0 148 -22v-162q-75 16 -117 16q-87 0 -120.5 -49t-33.5 -160v-112h123v-160h-123v-764h-190v764h-121z" />
<glyph unicode="g" horiz-adv-x="915" d="M-8 -186q0 197 266 247q-102 47 -102 113q0 69 125 121q-104 32 -158.5 106.5t-54.5 182.5q0 168 115.5 254t344.5 86h367v-150h-156q74 -80 74 -188q0 -117 -70.5 -198t-189.5 -103q-24 -4 -55.5 -9t-49 -8t-39.5 -7.5t-33 -9t-22 -12t-15.5 -18t-4.5 -24.5 q0 -37 57 -58q34 -12 204 -46q18 -4 34 -7q272 -56 272 -262q0 -140 -117 -214.5t-342 -74.5q-221 0 -335.5 72t-114.5 207zM172 -172q0 -137 268 -137q131 0 203 34.5t72 92.5q0 131 -330 131q-96 0 -154.5 -35t-58.5 -86zM250 592q0 -82 50.5 -127t141.5 -45t144 46.5 t53 125.5q0 76 -55 126t-142 50q-86 0 -139 -50t-53 -126z" />
<glyph unicode="h" horiz-adv-x="1026" d="M121 0v1399h184v-588q133 127 285 127q151 0 238 -87t87 -239v-612h-186v565q0 113 -46.5 166t-145.5 53q-73 0 -128 -28t-104 -90v-666h-184z" />
<glyph unicode="i" horiz-adv-x="432" d="M111 1196q0 44 30.5 74t73.5 30t73.5 -30t30.5 -74t-30.5 -74t-73.5 -30t-73.5 30t-30.5 74zM123 0v924h184v-924h-184z" />
<glyph unicode="j" horiz-adv-x="436" d="M0 -334q72 34 99.5 81.5t27.5 127.5v1049h186v-1033q0 -142 -44 -225t-154 -131zM115 1196q0 44 31.5 74t74.5 30t74 -30t31 -74t-31 -74t-74 -30t-74.5 30t-31.5 74z" />
<glyph unicode="k" horiz-adv-x="989" d="M123 0v1399h184v-1399h-184zM313 492l398 432h227l-387 -422l465 -502h-252z" />
<glyph unicode="l" horiz-adv-x="432" d="M123 0v1399h184v-1399h-184z" />
<glyph unicode="m" horiz-adv-x="1626" d="M117 0v924h184v-113q133 127 285 127q102 0 170.5 -37.5t115.5 -118.5q82 81 156.5 118.5t161.5 37.5q151 0 238.5 -87t87.5 -239v-612h-187v565q0 113 -46.5 166t-145.5 53q-72 0 -126.5 -27.5t-105.5 -90.5v-666h-180v565q0 112 -47.5 165.5t-147.5 53.5 q-72 0 -125 -27.5t-104 -90.5v-666h-184z" />
<glyph unicode="n" horiz-adv-x="1021" d="M117 0v924h184v-113q133 127 285 127q151 0 237 -87t86 -239v-612h-184v565q0 112 -47.5 165.5t-147.5 53.5q-72 0 -125 -27.5t-104 -90.5v-666h-184z" />
<glyph unicode="o" horiz-adv-x="1095" d="M57 463q0 200 143 340.5t349 140.5q200 0 344 -141q145 -145 145 -340q0 -95 -38 -184.5t-107 -157.5q-142 -139 -344 -139q-135 0 -248 64t-178.5 174.5t-65.5 242.5zM250 463q0 -129 87 -218t210 -89t210 90t87 217t-87 216t-210 89t-210 -89t-87 -216z" />
<glyph unicode="p" horiz-adv-x="1058" d="M121 -465v1389h186v-52q103 72 238 72q199 0 325.5 -133.5t126.5 -347.5t-126.5 -347.5t-325.5 -133.5q-139 0 -238 69v-516h-186zM307 203q88 -64 191 -64q140 0 221.5 86t81.5 238q0 151 -81 236t-222 85q-105 0 -191 -63v-518z" />
<glyph unicode="q" horiz-adv-x="1058" d="M61 463q0 214 127 347.5t326 133.5q137 0 240 -72v52h184v-1389h-184v516q-99 -69 -240 -69q-199 0 -326 133.5t-127 347.5zM258 459q0 -151 81.5 -236.5t221.5 -85.5q105 0 193 64v518q-86 63 -193 63q-140 0 -221.5 -86t-81.5 -237z" />
<glyph unicode="r" horiz-adv-x="768" d="M119 0v924h184v-201q72 114 134 165.5t138 51.5q95 0 211 -90l-100 -164q-86 74 -172 74q-73 0 -130 -62t-81 -176v-522h-184z" />
<glyph unicode="s" horiz-adv-x="770" d="M57 63v197q169 -113 301 -113q71 0 111.5 27t40.5 72q0 18 -8 33t-18.5 26.5t-34 26t-41.5 23.5t-55.5 27.5t-61.5 31.5q-119 62 -172 122t-53 156q0 115 82.5 183.5t228.5 68.5q154 0 291 -76v-180q-165 92 -289 92q-58 0 -89.5 -20.5t-31.5 -57.5q0 -53 62 -95 q30 -20 149 -79q133 -66 187.5 -121.5t54.5 -156.5q0 -121 -90.5 -194.5t-243.5 -73.5q-173 0 -320 81z" />
<glyph unicode="t" horiz-adv-x="659" d="M-12 764v18l323 357h21v-215h289v-160h-289v-424q0 -106 24.5 -144t110.5 -38t160 45v-174q-84 -47 -199 -47q-84 0 -139 19.5t-87 63.5t-44.5 105.5t-12.5 155.5v438h-157z" />
<glyph unicode="u" horiz-adv-x="1021" d="M111 311v613h186v-566q0 -112 47.5 -165.5t147.5 -53.5q72 0 125 28t104 91v666h184v-924h-184v113q-133 -127 -285 -127q-151 0 -238 86.5t-87 238.5z" />
<glyph unicode="v" horiz-adv-x="909" d="M-29 924h205l285 -613l266 613h201l-426 -942h-86z" />
<glyph unicode="w" horiz-adv-x="1531" d="M-12 924h194l264 -613l254 613h121l258 -611l264 611h195l-412 -942h-90l-274 669l-275 -669h-90z" />
<glyph unicode="x" horiz-adv-x="974" d="M-8 0l373 477l-365 447h227l248 -314l244 314h227l-354 -443l389 -481h-223l-277 340l-266 -340h-223z" />
<glyph unicode="y" horiz-adv-x="909" d="M-29 924h205l285 -541l266 541h201l-686 -1389h-201l319 647z" />
<glyph unicode="z" horiz-adv-x="903" d="M18 0v25l517 729h-496v170h817v-21l-506 -729h514v-174h-846z" />
<glyph unicode="{" horiz-adv-x="1024" d="M168 457v149q8 0 23 -1t22 -1q131 0 184.5 60.5t53.5 207.5v246q0 132 18.5 200.5t81.5 106.5q86 52 278 52h37v-150h-41q-125 0 -163.5 -46.5t-38.5 -182.5v-242q0 -150 -41 -222.5t-160 -103.5q121 -31 161 -102.5t40 -222.5v-242q0 -70 7.5 -110t29.5 -69t61.5 -39.5 t105.5 -10.5h39v-148h-43q-98 0 -162 10t-110 39q-63 38 -81.5 107t-18.5 201v245q0 147 -54 209t-186 62q-7 0 -21.5 -1t-21.5 -1z" />
<glyph unicode="|" horiz-adv-x="1024" d="M438 -483v2048h150v-2048h-150z" />
<glyph unicode="}" horiz-adv-x="1024" d="M160 -266h39q126 0 165 47.5t39 183.5v240q0 150 40.5 222t160.5 103q-119 31 -160 103.5t-41 222.5v242q0 135 -39 182t-165 47h-39v150h37q194 0 278 -52q63 -38 81.5 -106.5t18.5 -200.5v-246q0 -147 53.5 -207.5t184.5 -60.5q7 0 22 1t23 1v-149q-7 0 -22 1t-21 1 q-134 0 -187 -61.5t-53 -209.5v-245q0 -132 -18.5 -201t-81.5 -107q-46 -29 -110 -39t-162 -10h-43v148z" />
<glyph unicode="~" horiz-adv-x="1705" d="M178 451v155q211 144 387 144q118 0 291 -62q11 -4 41.5 -15t43 -15t39 -12.5t42.5 -12.5t38.5 -8.5t42.5 -6.5t40 -2q92 0 184.5 38t202.5 116v-156q-203 -141 -389 -141q-22 0 -43 2t-44.5 6.5t-39 8t-43 12.5t-38 12.5t-42.5 14.5t-39 14q-66 23 -99 33t-87.5 21 t-102.5 11q-88 0 -180 -38.5t-205 -118.5z" />
<glyph unicode="&#xa1;" horiz-adv-x="516" d="M131 1294q0 54 35.5 90.5t89.5 36.5t90.5 -36.5t36.5 -90.5q0 -53 -37 -89t-90 -36q-54 0 -89.5 35.5t-35.5 89.5zM139 231q0 238 32 439.5t71 298.5h26q103 -348 103 -750q0 -122 -28 -179.5t-89 -57.5t-88 60.5t-27 188.5z" />
<glyph unicode="&#xa2;" d="M106 475q0 214 145 354t374 140q53 0 82 -4l120 319h111l-131 -346q34 -6 67 -29v-198q-60 36 -129 61l-217 -584q58 -12 105 -12q128 0 256 64v-187q-112 -49 -279 -49q-60 0 -143 21l-145 -385h-109l152 409q-124 66 -191.5 177t-67.5 249zM301 471q0 -153 129 -250 l213 572q-14 2 -43 2q-130 0 -214.5 -92t-84.5 -232z" />
<glyph unicode="&#xa3;" d="M68 -12l161 612h-135v180h197q92 321 220 483t286 162q48 0 100 -12l96 -188q-66 16 -116 16q-142 0 -232.5 -111.5t-150.5 -349.5h149v-180h-211l-102 -391q58 4 110 4q61 0 173 -19.5t165 -19.5q69 0 191 39v-199q-125 -32 -211 -32q-42 0 -170 18t-213 18 q-107 0 -307 -30z" />
<glyph unicode="&#xa4;" d="M10 512l37 111h117q-2 25 -2 75q0 16 1 45t1 43h-154l37 111h131q38 242 176 383t330 141q185 0 295 -75v-218q-53 48 -133.5 78.5t-163.5 30.5q-124 0 -200.5 -91.5t-104.5 -248.5h538l-36 -111h-514q-3 -43 -3 -88q0 -38 3 -75h460l-37 -111h-413q56 -346 299 -346 q174 0 313 133v-225q-63 -50 -158 -74.5t-178 -24.5q-181 0 -310.5 145t-164.5 392h-166z" />
<glyph unicode="&#xa5;" horiz-adv-x="1159" d="M-39 1399h219l404 -547l407 547h226l-304 -400h199v-110h-283l-124 -164h407v-111h-436v-614h-195v614h-434v111h418l-123 164h-295v108h215z" />
<glyph unicode="&#xa6;" horiz-adv-x="1024" d="M438 -350v758h150v-758h-150zM438 674v758h150v-758h-150z" />
<glyph unicode="&#xa7;" d="M82 637q0 184 215 274q-125 84 -125 226q0 131 93.5 208.5t260.5 77.5q173 0 305 -73v-181q-174 97 -294 97q-82 0 -126 -32t-44 -91q0 -58 52 -98t192 -111q21 -10 32 -16q81 -40 132 -72t94 -73t62 -89t19 -109q0 -184 -217 -272q127 -89 127 -227q0 -132 -93.5 -209.5 t-260.5 -77.5q-174 0 -328 86v184q177 -112 328 -112q77 0 120.5 32t43.5 87q0 54 -47.5 95.5t-157.5 96.5q-178 90 -228 122q-111 72 -141 161q-14 43 -14 96zM270 657q0 -57 33.5 -97.5t106.5 -76.5l202 -104q78 34 114 76t36 102q0 57 -32.5 96.5t-104.5 75.5l-203 107 q-78 -35 -115 -77t-37 -102z" />
<glyph unicode="&#xa8;" horiz-adv-x="1024" d="M223 1208q0 40 29.5 70.5t69.5 30.5t70 -30.5t30 -70.5q0 -42 -29 -71t-71 -29t-70.5 29t-28.5 71zM604 1208q0 40 29.5 70.5t68.5 30.5q40 0 70.5 -30.5t30.5 -70.5q0 -42 -29.5 -71t-71.5 -29q-41 0 -69.5 28.5t-28.5 71.5z" />
<glyph unicode="&#xa9;" horiz-adv-x="1705" d="M117 727q0 147 56 281.5t163 242.5q103 103 235.5 158t280.5 55q309 0 524 -215q103 -103 159 -238t56 -284q0 -150 -55 -282t-158 -234q-109 -106 -245 -163.5t-281 -57.5q-146 0 -279 56.5t-239 162.5t-161.5 239t-55.5 279zM213 727q0 -126 49 -242.5t141 -208.5 q188 -188 451 -188q126 0 242.5 49t212.5 142q184 181 184 448q0 130 -47.5 247t-136.5 206q-188 188 -455 188q-264 0 -448 -184q-93 -93 -143 -211.5t-50 -245.5zM463 733q0 201 109.5 323t285.5 122q142 0 236.5 -75.5t105.5 -195.5h-147q-12 77 -65.5 118.5t-139.5 41.5 q-103 0 -164 -89t-61 -251q0 -158 62.5 -245t172.5 -87q82 0 137 46.5t68 129.5h145q-9 -131 -107 -211.5t-249 -80.5q-181 0 -285 119.5t-104 334.5z" />
<glyph unicode="&#xaa;" horiz-adv-x="665" d="M35 897q0 136 229 207l164 51q2 10 2 29q0 57 -31 82.5t-100 25.5q-117 0 -242 -90v127q107 82 260 82q135 0 194.5 -55.5t59.5 -175.5v-275q0 -63 29 -63q25 0 72 37v-80q-75 -60 -156 -60q-76 0 -82 66q-100 -66 -201 -66q-94 0 -146 42.5t-52 115.5zM182 918 q0 -39 27.5 -60.5t77.5 -21.5q77 0 141 47v190q-131 -38 -188.5 -71.5t-57.5 -83.5z" />
<glyph unicode="&#xab;" horiz-adv-x="870" d="M63 463l240 317h158l-236 -317l236 -301h-158zM408 463l241 317h158l-236 -317l236 -301h-158z" />
<glyph unicode="&#xac;" horiz-adv-x="1705" d="M254 721v139h1198v-502h-137v363h-1061z" />
<glyph unicode="&#xad;" horiz-adv-x="692" d="M84 379v166h524v-166h-524z" />
<glyph unicode="&#xae;" horiz-adv-x="1705" d="M117 727q0 146 58 282.5t165 245.5q206 209 512 209q151 0 285.5 -56t240.5 -163q102 -104 157.5 -237.5t55.5 -280.5q0 -309 -215 -518q-109 -106 -244 -162.5t-280 -56.5q-147 0 -280.5 57t-239.5 164q-105 106 -160 238t-55 278zM213 727q0 -257 188 -448 q90 -92 206.5 -141.5t240.5 -49.5q265 0 459 188q90 87 138 202t48 243q0 275 -182 457q-187 190 -457 190q-267 0 -446 -182q-94 -95 -144.5 -214t-50.5 -245zM557 324v835h315q349 0 349 -229q0 -89 -50 -147.5t-141 -77.5l187 -381h-177l-170 356h-155v-356h-158z M715 780h133q110 0 160.5 30.5t50.5 102.5q0 76 -52 110t-163 34h-129v-277z" />
<glyph unicode="&#xaf;" horiz-adv-x="1024" d="M254 1149v125h516v-125h-516z" />
<glyph unicode="&#xb0;" horiz-adv-x="673" d="M49 1167q0 121 85 205t204 84t203 -84.5t84 -204.5q0 -118 -83.5 -202t-205.5 -84q-121 0 -204 83t-83 203zM143 1169q0 -82 56.5 -139t138.5 -57t137 57.5t55 138.5q0 80 -55.5 136.5t-136.5 56.5q-80 0 -137.5 -56t-57.5 -137z" />
<glyph unicode="&#xb1;" horiz-adv-x="1705" d="M254 29v141h1198v-141h-1198zM254 713v139h528v340h142v-340h528v-139h-528v-340h-142v340h-528z" />
<glyph unicode="&#xb2;" horiz-adv-x="681" d="M45 559q68 90 157.5 193.5t104.5 124.5q129 167 129 268q0 69 -44 111t-116 42q-96 0 -206 -104v143q113 76 225 76q122 0 197 -70t75 -184q0 -102 -68 -211.5t-214 -267.5h348v-121h-588z" />
<glyph unicode="&#xb3;" horiz-adv-x="681" d="M90 594v127q105 -51 199 -51q70 0 110.5 36t40.5 97q0 130 -196 139v107q89 0 138.5 36t49.5 97q0 53 -46.5 88t-123.5 35q-56 0 -156 -39v108q95 39 179 39q126 0 201 -61t75 -160q0 -118 -110 -184q63 -28 97 -80t34 -121q0 -116 -82 -189t-215 -73q-97 0 -195 49z" />
<glyph unicode="&#xb4;" horiz-adv-x="1024" d="M375 1055l209 348h178l-281 -348h-106z" />
<glyph unicode="&#xb5;" horiz-adv-x="1150" d="M-113 -428l318 1499h180l-129 -600q-14 -63 -14 -133q0 -99 52 -153t148 -54q135 0 211 96t121 308l115 536h178l-156 -731q-22 -108 -22 -133q0 -37 17 -52.5t55 -15.5q20 0 32 2l-30 -143q-49 -10 -109 -10q-64 0 -97 29.5t-52 99.5q-88 -131 -271 -131 q-82 0 -143 27.5t-113 88.5l-110 -530h-181z" />
<glyph unicode="&#xb6;" horiz-adv-x="1024" d="M66 1130q0 156 106.5 252.5t286.5 96.5h499v-86h-120v-1393h-111v1393h-178v-1393h-111v782q-172 7 -272 102t-100 246z" />
<glyph unicode="&#xb7;" horiz-adv-x="516" d="M139 707q0 51 35 85.5t86 34.5t86 -34.5t35 -85.5t-35 -86t-86 -35t-86 35t-35 86z" />
<glyph unicode="&#xb8;" horiz-adv-x="1024" d="M262 -336q157 -37 248 -37q121 0 121 84q0 52 -33.5 75.5t-105.5 23.5q-25 0 -52 -3v193h72v-106h23q112 0 169.5 -45t57.5 -132q0 -89 -63.5 -135.5t-186.5 -46.5q-95 0 -250 41v88z" />
<glyph unicode="&#xb9;" horiz-adv-x="681" d="M274 559v840h132v-840h-132z" />
<glyph unicode="&#xba;" horiz-adv-x="821" d="M43 1075q0 140 107 239t262 99q147 0 258 -100q108 -99 108 -238q0 -67 -28 -129.5t-80 -109.5q-108 -97 -258 -97q-154 0 -261.5 97.5t-107.5 238.5zM188 1075q0 -90 64.5 -152.5t157.5 -62.5q92 0 157.5 63t65.5 152t-65 151t-158 62q-92 0 -157 -62t-65 -151z" />
<glyph unicode="&#xbb;" horiz-adv-x="870" d="M63 162l234 301l-234 317h156l242 -317l-242 -301h-156zM408 162l235 301l-235 317h157l240 -317l-240 -301h-157z" />
<glyph unicode="&#xbc;" horiz-adv-x="1652" d="M262 614v783h125v-783h-125zM309 -25l873 1446h151l-872 -1446h-152zM1010 262v47l442 488h55v-443h99v-92h-99v-262h-121v262h-376zM1178 354h208l5 236z" />
<glyph unicode="&#xbd;" horiz-adv-x="1652" d="M262 614v783h125v-783h-125zM309 -25l873 1446h151l-872 -1446h-152zM1044 0q67 88 158 189.5t94 105.5q121 154 121 252q0 65 -41 104t-110 39q-90 0 -197 -96v133q107 70 213 70q117 0 189.5 -65.5t72.5 -172.5q0 -95 -65.5 -196.5t-206.5 -249.5h334v-113h-562z" />
<glyph unicode="&#xbe;" horiz-adv-x="1652" d="M86 647v119q104 -49 188 -49q68 0 107 33.5t39 91.5q0 119 -187 131v98q83 0 131 34t48 89q0 50 -44 82.5t-118 32.5q-52 0 -148 -35v100q84 37 170 37q120 0 191.5 -57t71.5 -150q0 -110 -105 -172q60 -25 92.5 -73t32.5 -113q0 -108 -78.5 -177t-206.5 -69 q-92 0 -184 47zM309 -25l873 1446h151l-872 -1446h-152zM1010 262v47l442 488h55v-443h99v-92h-99v-262h-121v262h-376zM1178 354h208l5 236z" />
<glyph unicode="&#xbf;" horiz-adv-x="641" d="M35 289q0 89 33 162.5t102 160.5q21 27 68 83t65.5 81t36.5 64.5t18 74.5q0 30 -12 64l47 20q82 -85 82 -186q0 -91 -78 -217q-13 -21 -40 -61.5t-40 -62t-29.5 -52.5t-23 -57.5t-6.5 -53.5q0 -60 36 -95.5t95 -35.5q77 0 203 74l-39 -217q-101 -55 -215 -55 q-132 0 -217.5 87t-85.5 222zM231 1298q0 52 36 87.5t89 35.5t89 -35.5t36 -87.5t-36 -88t-89 -36t-89 36t-36 88z" />
<glyph unicode="&#xc0;" horiz-adv-x="1275" d="M-45 0l606 1399h146l614 -1399h-207l-180 412h-596l-178 -412h-205zM389 1882h178l209 -348h-106zM416 592h436l-221 504z" />
<glyph unicode="&#xc1;" horiz-adv-x="1275" d="M-45 0l606 1399h146l614 -1399h-207l-180 412h-596l-178 -412h-205zM416 592h436l-221 504zM502 1534l209 348h178l-281 -348h-106z" />
<glyph unicode="&#xc2;" horiz-adv-x="1275" d="M-45 0l606 1399h146l614 -1399h-207l-180 412h-596l-178 -412h-205zM352 1534l197 348h178l197 -348h-107l-178 242l-180 -242h-107zM416 592h436l-221 504z" />
<glyph unicode="&#xc3;" horiz-adv-x="1275" d="M-45 0l606 1399h146l614 -1399h-207l-180 412h-596l-178 -412h-205zM348 1591q22 92 73 139.5t126 47.5q32 0 59 -9l78 -28q33 -10 61 -10q73 0 97 71h88q-24 -94 -76 -143t-123 -49q-32 0 -65 10l-80 27q-24 8 -54 8q-68 0 -96 -64h-88zM416 592h436l-221 504z" />
<glyph unicode="&#xc4;" horiz-adv-x="1275" d="M-45 0l606 1399h146l614 -1399h-207l-180 412h-596l-178 -412h-205zM350 1688q0 40 29.5 70t69.5 30t70 -30t30 -70q0 -42 -29.5 -71.5t-70.5 -29.5t-70 29t-29 72zM416 592h436l-221 504zM731 1688q0 40 29 70t69 30t70.5 -30t30.5 -70q0 -42 -29.5 -71.5t-71.5 -29.5 q-41 0 -69.5 29t-28.5 72z" />
<glyph unicode="&#xc5;" horiz-adv-x="1275" d="M-45 0l606 1399h146l614 -1399h-207l-180 412h-596l-178 -412h-205zM385 1712q0 104 72 176t176 72t177 -72t73 -176t-73 -176t-177 -72t-176 72t-72 176zM416 592h436l-221 504zM492 1712q0 -60 41.5 -101.5t101.5 -41.5t100.5 41.5t40.5 101.5t-40.5 101.5t-100.5 41.5 q-61 0 -102 -41.5t-41 -101.5z" />
<glyph unicode="&#xc6;" horiz-adv-x="1880" d="M-133 0l928 1399h964v-180h-649v-422h629v-181h-629v-436h668v-180h-873v403h-553l-268 -403h-217zM481 592h424v627h-10z" />
<glyph unicode="&#xc7;" horiz-adv-x="1421" d="M74 705q0 141 57.5 273t161.5 232q224 211 559 211q232 0 477 -112v-217q-261 141 -477 141q-247 0 -406 -154t-159 -381q0 -148 70.5 -269.5t197.5 -192t285 -70.5q244 0 501 166v-226q-250 -131 -503 -131q-241 0 -435 125q-157 101 -243 260t-86 345zM504 -336 q157 -37 248 -37q120 0 120 84q0 52 -33.5 75.5t-105.5 23.5q-24 0 -51 -3v193h72v-106h22q112 0 170 -45t58 -132q0 -89 -63.5 -135.5t-186.5 -46.5q-95 0 -250 41v88z" />
<glyph unicode="&#xc8;" horiz-adv-x="1114" d="M150 0v1399h841v-178h-643v-424h625v-181h-625v-436h664v-180h-862zM319 1882h179l209 -348h-107z" />
<glyph unicode="&#xc9;" horiz-adv-x="1114" d="M150 0v1399h841v-178h-643v-424h625v-181h-625v-436h664v-180h-862zM432 1534l209 348h178l-280 -348h-107z" />
<glyph unicode="&#xca;" horiz-adv-x="1114" d="M150 0v1399h841v-178h-643v-424h625v-181h-625v-436h664v-180h-862zM283 1534l196 348h178l197 -348h-106l-179 242l-180 -242h-106z" />
<glyph unicode="&#xcb;" horiz-adv-x="1114" d="M150 0v1399h841v-178h-643v-424h625v-181h-625v-436h664v-180h-862zM281 1688q0 40 29 70t69 30t70 -30t30 -70q0 -42 -29.5 -71.5t-70.5 -29.5t-69.5 29t-28.5 72zM662 1688q0 40 29 70t69 30t70 -30t30 -70q0 -42 -29 -71.5t-71 -29.5q-41 0 -69.5 29t-28.5 72z" />
<glyph unicode="&#xcc;" horiz-adv-x="512" d="M6 1882h178l209 -348h-106zM156 0v1399h200v-1399h-200z" />
<glyph unicode="&#xcd;" horiz-adv-x="512" d="M119 1534l209 348h178l-281 -348h-106zM156 0v1399h200v-1399h-200z" />
<glyph unicode="&#xce;" horiz-adv-x="512" d="M-31 1534l197 348h178l197 -348h-107l-178 242l-180 -242h-107zM156 0v1399h200v-1399h-200z" />
<glyph unicode="&#xcf;" horiz-adv-x="512" d="M-33 1688q0 40 29.5 70t69.5 30t70 -30t30 -70q0 -42 -29 -71.5t-71 -29.5q-41 0 -70 29t-29 72zM156 0v1399h200v-1399h-200zM348 1688q0 40 29 70t69 30t70.5 -30t30.5 -70q0 -42 -29.5 -71.5t-71.5 -29.5q-41 0 -69.5 29t-28.5 72z" />
<glyph unicode="&#xd0;" horiz-adv-x="1531" d="M0 623v159h164v617h514q147 0 260.5 -27.5t210.5 -93.5q141 -96 219 -246.5t78 -331.5t-78.5 -332t-220.5 -247q-95 -65 -208.5 -93t-260.5 -28h-514v623h-164zM362 190h316q263 0 409 137.5t146 370.5t-146 371.5t-409 138.5h-316v-426h365v-159h-365v-433z" />
<glyph unicode="&#xd1;" horiz-adv-x="1593" d="M150 0v1399h174l921 -1086v1086h199v-1399h-178l-918 1087v-1087h-198zM506 1591q22 92 73 139.5t126 47.5q32 0 59 -9l78 -28q33 -10 61 -10q72 0 96 71h88q-25 -94 -76 -143t-122 -49q-33 0 -66 10l-80 27q-24 8 -53 8q-68 0 -96 -64h-88z" />
<glyph unicode="&#xd2;" horiz-adv-x="1640" d="M74 705q0 141 57 272t162 233q107 103 242 157t284 54q151 0 288 -54.5t241 -156.5q219 -213 219 -518q0 -142 -56 -273.5t-161 -232.5q-220 -211 -531 -211q-149 0 -285.5 55t-240.5 156q-219 213 -219 519zM287 698q0 -221 155 -376q73 -75 172 -115.5t205 -40.5 q223 0 379 156t156 376q0 216 -158 377q-75 76 -172.5 117t-204.5 41q-105 0 -202.5 -41t-174.5 -117q-75 -73 -115 -171t-40 -206zM571 1882h179l208 -348h-106z" />
<glyph unicode="&#xd3;" horiz-adv-x="1640" d="M74 705q0 141 57 272t162 233q107 103 242 157t284 54q151 0 288 -54.5t241 -156.5q219 -213 219 -518q0 -142 -56 -273.5t-161 -232.5q-220 -211 -531 -211q-149 0 -285.5 55t-240.5 156q-219 213 -219 519zM287 698q0 -221 155 -376q73 -75 172 -115.5t205 -40.5 q223 0 379 156t156 376q0 216 -158 377q-75 76 -172.5 117t-204.5 41q-105 0 -202.5 -41t-174.5 -117q-75 -73 -115 -171t-40 -206zM684 1534l209 348h178l-280 -348h-107z" />
<glyph unicode="&#xd4;" horiz-adv-x="1640" d="M74 705q0 141 57 272t162 233q107 103 242 157t284 54q151 0 288 -54.5t241 -156.5q219 -213 219 -518q0 -142 -56 -273.5t-161 -232.5q-220 -211 -531 -211q-149 0 -285.5 55t-240.5 156q-219 213 -219 519zM287 698q0 -221 155 -376q73 -75 172 -115.5t205 -40.5 q223 0 379 156t156 376q0 216 -158 377q-75 76 -172.5 117t-204.5 41q-105 0 -202.5 -41t-174.5 -117q-75 -73 -115 -171t-40 -206zM535 1534l196 348h178l197 -348h-107l-178 242l-180 -242h-106z" />
<glyph unicode="&#xd5;" horiz-adv-x="1640" d="M74 705q0 141 57 272t162 233q107 103 242 157t284 54q151 0 288 -54.5t241 -156.5q219 -213 219 -518q0 -142 -56 -273.5t-161 -232.5q-220 -211 -531 -211q-149 0 -285.5 55t-240.5 156q-219 213 -219 519zM287 698q0 -221 155 -376q73 -75 172 -115.5t205 -40.5 q223 0 379 156t156 376q0 216 -158 377q-75 76 -172.5 117t-204.5 41q-105 0 -202.5 -41t-174.5 -117q-75 -73 -115 -171t-40 -206zM530 1591q22 92 73 139.5t126 47.5q32 0 59 -9l78 -28q33 -10 62 -10q72 0 96 71h88q-24 -94 -76 -143t-123 -49q-32 0 -65 10l-80 27 q-24 8 -53 8q-69 0 -97 -64h-88z" />
<glyph unicode="&#xd6;" horiz-adv-x="1640" d="M74 705q0 141 57 272t162 233q107 103 242 157t284 54q151 0 288 -54.5t241 -156.5q219 -213 219 -518q0 -142 -56 -273.5t-161 -232.5q-220 -211 -531 -211q-149 0 -285.5 55t-240.5 156q-219 213 -219 519zM287 698q0 -221 155 -376q73 -75 172 -115.5t205 -40.5 q223 0 379 156t156 376q0 216 -158 377q-75 76 -172.5 117t-204.5 41q-105 0 -202.5 -41t-174.5 -117q-75 -73 -115 -171t-40 -206zM532 1688q0 40 29.5 70t69.5 30t70 -30t30 -70q0 -42 -29.5 -71.5t-70.5 -29.5t-70 29t-29 72zM913 1688q0 40 29.5 70t69.5 30t70 -30 t30 -70q0 -42 -29 -71.5t-71 -29.5q-41 0 -70 29t-29 72z" />
<glyph unicode="&#xd7;" horiz-adv-x="1705" d="M293 141l469 469l-469 469l98 99l469 -469l469 469l98 -99l-469 -469l469 -469l-98 -96l-469 467l-469 -467z" />
<glyph unicode="&#xd8;" horiz-adv-x="1640" d="M39 63l197 193q-162 174 -162 436q0 305 219 518q106 103 239 158t279 55q282 0 483 -166l181 173l106 -105l-182 -174q170 -188 170 -440q0 -309 -219 -525q-214 -211 -523 -211q-272 0 -489 170l-195 -186zM287 698q0 -173 96 -303l762 719q-138 119 -326 119 q-105 0 -202.5 -41t-174.5 -117q-74 -73 -114.5 -171.5t-40.5 -205.5zM485 287q139 -121 334 -121q148 0 270.5 70.5t193.5 196t71 280.5q0 172 -107 299z" />
<glyph unicode="&#xd9;" horiz-adv-x="1488" d="M141 588v811h199v-803q0 -113 10.5 -175.5t52.5 -111.5q124 -145 340 -145q182 0 293 94.5t111 247.5v893h199v-899q0 -233 -167 -379t-436 -146q-321 0 -503 222q-64 80 -81.5 166t-17.5 225zM496 1882h178l209 -348h-107z" />
<glyph unicode="&#xda;" horiz-adv-x="1488" d="M141 588v811h199v-803q0 -113 10.5 -175.5t52.5 -111.5q124 -145 340 -145q182 0 293 94.5t111 247.5v893h199v-899q0 -233 -167 -379t-436 -146q-321 0 -503 222q-64 80 -81.5 166t-17.5 225zM608 1534l209 348h178l-280 -348h-107z" />
<glyph unicode="&#xdb;" horiz-adv-x="1488" d="M141 588v811h199v-803q0 -113 10.5 -175.5t52.5 -111.5q124 -145 340 -145q182 0 293 94.5t111 247.5v893h199v-899q0 -233 -167 -379t-436 -146q-321 0 -503 222q-64 80 -81.5 166t-17.5 225zM459 1534l196 348h179l196 -348h-106l-179 242l-180 -242h-106z" />
<glyph unicode="&#xdc;" horiz-adv-x="1488" d="M141 588v811h199v-803q0 -113 10.5 -175.5t52.5 -111.5q124 -145 340 -145q182 0 293 94.5t111 247.5v893h199v-899q0 -233 -167 -379t-436 -146q-321 0 -503 222q-64 80 -81.5 166t-17.5 225zM457 1688q0 40 29 70t69 30t70 -30t30 -70q0 -42 -29.5 -71.5t-70.5 -29.5 t-69.5 29t-28.5 72zM838 1688q0 40 29 70t69 30t70 -30t30 -70q0 -42 -29 -71.5t-71 -29.5q-41 0 -69.5 29t-28.5 72z" />
<glyph unicode="&#xdd;" horiz-adv-x="1193" d="M-55 1399h237l408 -531l418 531h241l-561 -709v-690h-203v700zM461 1534l209 348h178l-281 -348h-106z" />
<glyph unicode="&#xde;" horiz-adv-x="1110" d="M150 0v1399h198v-291h238q220 0 342.5 -106t122.5 -293t-122.5 -292.5t-342.5 -105.5h-238v-311h-198zM348 489h217q143 0 210 51.5t67 168.5q0 116 -67 167.5t-210 51.5h-217v-439z" />
<glyph unicode="&#xdf;" horiz-adv-x="1028" d="M115 0v1040q0 183 103 282t292 99q173 0 277 -91t104 -238q0 -229 -184 -314q128 -53 188.5 -139.5t60.5 -218.5q0 -207 -104 -323.5t-289 -116.5q-45 0 -110 10v184q65 -18 106 -18q91 0 147 67.5t56 182.5q0 141 -71 209.5t-224 74.5v158h6q113 0 173.5 55t60.5 154 t-58 160t-151 61q-86 0 -140.5 -55.5t-54.5 -145.5v-1077h-188z" />
<glyph unicode="&#xe0;" horiz-adv-x="886" d="M47 207q0 195 305 297l219 74q2 14 2 38q0 83 -41 119.5t-133 36.5q-157 0 -323 -129v182q144 117 346 117q181 0 260.5 -80t79.5 -252v-391q0 -47 8 -68.5t29 -21.5q15 0 31 7t28.5 16t36.5 28v-112q-100 -84 -207 -84q-53 0 -79.5 21.5t-30.5 70.5q-131 -92 -267 -92 q-126 0 -195 60t-69 163zM184 1403h178l209 -348h-106zM244 238q0 -57 36.5 -88t102.5 -31q98 0 188 69v271q-175 -54 -251 -102.5t-76 -118.5z" />
<glyph unicode="&#xe1;" horiz-adv-x="886" d="M47 207q0 195 305 297l219 74q2 14 2 38q0 83 -41 119.5t-133 36.5q-157 0 -323 -129v182q144 117 346 117q181 0 260.5 -80t79.5 -252v-391q0 -47 8 -68.5t29 -21.5q15 0 31 7t28.5 16t36.5 28v-112q-100 -84 -207 -84q-53 0 -79.5 21.5t-30.5 70.5q-131 -92 -267 -92 q-126 0 -195 60t-69 163zM244 238q0 -57 36.5 -88t102.5 -31q98 0 188 69v271q-175 -54 -251 -102.5t-76 -118.5zM297 1055l209 348h178l-281 -348h-106z" />
<glyph unicode="&#xe2;" horiz-adv-x="886" d="M47 207q0 195 305 297l219 74q2 14 2 38q0 83 -41 119.5t-133 36.5q-157 0 -323 -129v182q144 117 346 117q181 0 260.5 -80t79.5 -252v-391q0 -47 8 -68.5t29 -21.5q15 0 31 7t28.5 16t36.5 28v-112q-100 -84 -207 -84q-53 0 -79.5 21.5t-30.5 70.5q-131 -92 -267 -92 q-126 0 -195 60t-69 163zM147 1055l197 348h178l197 -348h-107l-178 241l-180 -241h-107zM244 238q0 -57 36.5 -88t102.5 -31q98 0 188 69v271q-175 -54 -251 -102.5t-76 -118.5z" />
<glyph unicode="&#xe3;" horiz-adv-x="886" d="M47 207q0 195 305 297l219 74q2 14 2 38q0 83 -41 119.5t-133 36.5q-157 0 -323 -129v182q144 117 346 117q181 0 260.5 -80t79.5 -252v-391q0 -47 8 -68.5t29 -21.5q15 0 31 7t28.5 16t36.5 28v-112q-100 -84 -207 -84q-53 0 -79.5 21.5t-30.5 70.5q-131 -92 -267 -92 q-126 0 -195 60t-69 163zM143 1112q44 186 199 186q35 0 59 -8l78 -28q37 -11 62 -11q71 0 96 72h88q-25 -94 -76.5 -143.5t-122.5 -49.5q-28 0 -65 11l-80 26q-27 9 -53 9q-69 0 -97 -64h-88zM244 238q0 -57 36.5 -88t102.5 -31q98 0 188 69v271q-175 -54 -251 -102.5 t-76 -118.5z" />
<glyph unicode="&#xe4;" horiz-adv-x="886" d="M47 207q0 195 305 297l219 74q2 14 2 38q0 83 -41 119.5t-133 36.5q-157 0 -323 -129v182q144 117 346 117q181 0 260.5 -80t79.5 -252v-391q0 -47 8 -68.5t29 -21.5q15 0 31 7t28.5 16t36.5 28v-112q-100 -84 -207 -84q-53 0 -79.5 21.5t-30.5 70.5q-131 -92 -267 -92 q-126 0 -195 60t-69 163zM145 1208q0 40 29.5 70.5t69.5 30.5t70 -30.5t30 -70.5q0 -42 -29 -71t-71 -29t-70.5 29t-28.5 71zM244 238q0 -57 36.5 -88t102.5 -31q98 0 188 69v271q-175 -54 -251 -102.5t-76 -118.5zM526 1208q0 40 29.5 70.5t69.5 30.5t70 -30.5t30 -70.5 q0 -42 -29 -71t-71 -29q-41 0 -70 29t-29 71z" />
<glyph unicode="&#xe5;" horiz-adv-x="886" d="M47 207q0 195 305 297l219 74q2 14 2 38q0 83 -41 119.5t-133 36.5q-157 0 -323 -129v182q144 117 346 117q181 0 260.5 -80t79.5 -252v-391q0 -47 8 -68.5t29 -21.5q15 0 31 7t28.5 16t36.5 28v-112q-100 -84 -207 -84q-53 0 -79.5 21.5t-30.5 70.5q-131 -92 -267 -92 q-126 0 -195 60t-69 163zM186 1260q0 104 71.5 174.5t176.5 70.5t177.5 -70.5t72.5 -174.5t-73 -176t-177 -72t-176 72t-72 176zM244 238q0 -57 36.5 -88t102.5 -31q98 0 188 69v271q-175 -54 -251 -102.5t-76 -118.5zM293 1257q0 -60 41.5 -101.5t101.5 -41.5t101 41.5 t41 101.5t-41 102t-101 42q-61 0 -102 -42t-41 -102z" />
<glyph unicode="&#xe6;" horiz-adv-x="1527" d="M49 209q0 137 128 223.5t394 132.5q2 14 2 43q0 86 -38.5 125t-124.5 39q-168 0 -334 -129v182q147 119 362 119q182 0 281 -123q68 68 142.5 96.5t174.5 28.5q198 0 316 -130t118 -357v-27h-692q7 -132 86.5 -206t210.5 -74q169 0 379 133v-187q-181 -118 -395 -118 q-117 0 -206 37.5t-165 119.5q-213 -162 -375 -162q-121 0 -192.5 65.5t-71.5 168.5zM244 238q0 -57 36.5 -88t102.5 -31q98 0 188 69v254q-327 -55 -327 -204zM778 565h492q-9 101 -74.5 162t-161.5 61q-105 0 -170.5 -57t-85.5 -166z" />
<glyph unicode="&#xe7;" horiz-adv-x="901" d="M57 463q0 203 144 342t364 139q134 0 260 -57v-197q-128 76 -254 76q-144 0 -232.5 -85.5t-88.5 -217.5q0 -134 90 -220.5t240 -86.5q137 0 260 63v-188q-137 -49 -267 -49q-227 0 -371.5 136.5t-144.5 344.5zM248 -336q157 -37 248 -37q120 0 120 84q0 52 -33.5 75.5 t-105.5 23.5q-24 0 -51 -3v193h72v-106h22q112 0 170 -45t58 -132q0 -89 -63.5 -135.5t-186.5 -46.5q-95 0 -250 41v88z" />
<glyph unicode="&#xe8;" horiz-adv-x="999" d="M57 477q0 206 125.5 335.5t327.5 129.5q198 0 316 -130t118 -355v-27h-692q7 -132 85.5 -205t209.5 -73q177 0 381 131v-185q-181 -118 -391 -118q-220 0 -350 136.5t-130 360.5zM250 1403h178l209 -348h-107zM252 561h489q-9 101 -73 162t-160 61q-105 0 -170.5 -57 t-85.5 -166z" />
<glyph unicode="&#xe9;" horiz-adv-x="999" d="M57 477q0 206 125.5 335.5t327.5 129.5q198 0 316 -130t118 -355v-27h-692q7 -132 85.5 -205t209.5 -73q177 0 381 131v-185q-181 -118 -391 -118q-220 0 -350 136.5t-130 360.5zM252 561h489q-9 101 -73 162t-160 61q-105 0 -170.5 -57t-85.5 -166zM362 1055l209 348 h179l-281 -348h-107z" />
<glyph unicode="&#xea;" horiz-adv-x="999" d="M57 477q0 206 125.5 335.5t327.5 129.5q198 0 316 -130t118 -355v-27h-692q7 -132 85.5 -205t209.5 -73q177 0 381 131v-185q-181 -118 -391 -118q-220 0 -350 136.5t-130 360.5zM213 1055l197 348h178l196 -348h-106l-178 241l-181 -241h-106zM252 561h489 q-9 101 -73 162t-160 61q-105 0 -170.5 -57t-85.5 -166z" />
<glyph unicode="&#xeb;" horiz-adv-x="999" d="M57 477q0 206 125.5 335.5t327.5 129.5q198 0 316 -130t118 -355v-27h-692q7 -132 85.5 -205t209.5 -73q177 0 381 131v-185q-181 -118 -391 -118q-220 0 -350 136.5t-130 360.5zM211 1208q0 40 29.5 70.5t68.5 30.5q40 0 70.5 -30.5t30.5 -70.5q0 -42 -29.5 -71 t-71.5 -29q-41 0 -69.5 28.5t-28.5 71.5zM252 561h489q-9 101 -73 162t-160 61q-105 0 -170.5 -57t-85.5 -166zM592 1208q0 40 29.5 70.5t68.5 30.5q40 0 70.5 -30.5t30.5 -70.5q0 -42 -29.5 -71t-71.5 -29q-41 0 -69.5 28.5t-28.5 71.5z" />
<glyph unicode="&#xec;" horiz-adv-x="432" d="M-33 1403h178l209 -348h-106zM123 0v924h184v-924h-184z" />
<glyph unicode="&#xed;" horiz-adv-x="432" d="M80 1055l209 348h178l-281 -348h-106zM123 0v924h184v-924h-184z" />
<glyph unicode="&#xee;" horiz-adv-x="432" d="M-70 1055l197 348h178l197 -348h-107l-178 241l-180 -241h-107zM123 0v924h184v-924h-184z" />
<glyph unicode="&#xef;" horiz-adv-x="432" d="M-72 1208q0 40 29.5 70.5t69.5 30.5t70 -30.5t30 -70.5q0 -42 -29 -71t-71 -29q-41 0 -70 29t-29 71zM123 0v924h184v-924h-184zM309 1208q0 40 29.5 70.5t69.5 30.5t70 -30.5t30 -70.5q0 -42 -29 -71t-71 -29t-70.5 29t-28.5 71z" />
<glyph unicode="&#xf0;" horiz-adv-x="1095" d="M57 442q0 124 64 228.5t177.5 166.5t250.5 62q176 0 305 -135q-28 191 -137 336l-316 -92l-39 112l267 78q-75 72 -160 133l111 90q121 -62 229 -170l231 64l45 -111l-194 -55q162 -242 162 -569q0 -282 -136 -438t-368 -156q-136 0 -249 60.5t-178 165.5t-65 230z M250 440q0 -119 86.5 -201.5t210.5 -82.5q125 0 211 83t86 201t-86.5 201.5t-210.5 83.5t-210.5 -84.5t-86.5 -200.5z" />
<glyph unicode="&#xf1;" horiz-adv-x="1021" d="M117 0v924h184v-113q133 127 285 127q151 0 237 -87t86 -239v-612h-184v565q0 112 -47.5 165.5t-147.5 53.5q-72 0 -125 -27.5t-104 -90.5v-666h-184zM221 1112q44 186 199 186q35 0 59 -8l78 -28q37 -11 61 -11q72 0 97 72h88q-25 -94 -76.5 -143.5t-122.5 -49.5 q-28 0 -65 11l-80 26q-27 9 -53 9q-69 0 -97 -64h-88z" />
<glyph unicode="&#xf2;" horiz-adv-x="1095" d="M57 463q0 200 143 340.5t349 140.5q200 0 344 -141q145 -145 145 -340q0 -95 -38 -184.5t-107 -157.5q-142 -139 -344 -139q-135 0 -248 64t-178.5 174.5t-65.5 242.5zM250 463q0 -129 87 -218t210 -89t210 90t87 217t-87 216t-210 89t-210 -89t-87 -216zM299 1403h178 l209 -348h-106z" />
<glyph unicode="&#xf3;" horiz-adv-x="1095" d="M57 463q0 200 143 340.5t349 140.5q200 0 344 -141q145 -145 145 -340q0 -95 -38 -184.5t-107 -157.5q-142 -139 -344 -139q-135 0 -248 64t-178.5 174.5t-65.5 242.5zM250 463q0 -129 87 -218t210 -89t210 90t87 217t-87 216t-210 89t-210 -89t-87 -216zM412 1055 l209 348h178l-281 -348h-106z" />
<glyph unicode="&#xf4;" horiz-adv-x="1095" d="M57 463q0 200 143 340.5t349 140.5q200 0 344 -141q145 -145 145 -340q0 -95 -38 -184.5t-107 -157.5q-142 -139 -344 -139q-135 0 -248 64t-178.5 174.5t-65.5 242.5zM250 463q0 -129 87 -218t210 -89t210 90t87 217t-87 216t-210 89t-210 -89t-87 -216zM262 1055 l197 348h178l197 -348h-107l-178 241l-180 -241h-107z" />
<glyph unicode="&#xf5;" horiz-adv-x="1095" d="M57 463q0 200 143 340.5t349 140.5q200 0 344 -141q145 -145 145 -340q0 -95 -38 -184.5t-107 -157.5q-142 -139 -344 -139q-135 0 -248 64t-178.5 174.5t-65.5 242.5zM250 463q0 -129 87 -218t210 -89t210 90t87 217t-87 216t-210 89t-210 -89t-87 -216zM258 1112 q44 186 199 186q35 0 59 -8l78 -28q37 -11 61 -11q72 0 97 72h88q-25 -94 -76.5 -143.5t-122.5 -49.5q-29 0 -66 11l-79 26q-27 9 -54 9q-68 0 -96 -64h-88z" />
<glyph unicode="&#xf6;" horiz-adv-x="1095" d="M57 463q0 200 143 340.5t349 140.5q200 0 344 -141q145 -145 145 -340q0 -95 -38 -184.5t-107 -157.5q-142 -139 -344 -139q-135 0 -248 64t-178.5 174.5t-65.5 242.5zM250 463q0 -129 87 -218t210 -89t210 90t87 217t-87 216t-210 89t-210 -89t-87 -216zM260 1208 q0 40 29.5 70.5t68.5 30.5q40 0 70.5 -30.5t30.5 -70.5q0 -42 -29.5 -71t-71.5 -29q-41 0 -69.5 28.5t-28.5 71.5zM641 1208q0 40 29.5 70.5t68.5 30.5q40 0 70.5 -30.5t30.5 -70.5q0 -42 -29.5 -71t-71.5 -29q-41 0 -69.5 28.5t-28.5 71.5z" />
<glyph unicode="&#xf7;" horiz-adv-x="1705" d="M254 541v139h1198v-139h-1198zM729 242q0 52 37 88.5t88 36.5t88 -36.5t37 -88.5q0 -51 -36.5 -88t-88.5 -37q-54 0 -89.5 36t-35.5 89zM729 979q0 52 37 89.5t88 37.5t88 -37.5t37 -89.5q0 -51 -36.5 -88t-88.5 -37t-88.5 36t-36.5 89z" />
<glyph unicode="&#xf8;" horiz-adv-x="1095" d="M41 55l119 111q-103 130 -103 297q0 201 141 340t353 139q101 0 177 -30t122 -70l115 110l90 -94l-115 -113q98 -124 98 -272q0 -210 -143.5 -350.5t-362.5 -140.5q-156 0 -276 94l-123 -119zM248 461q0 -95 49 -164l426 410q-64 61 -176 61q-123 0 -211 -91.5 t-88 -215.5zM381 211q71 -57 160 -57q129 0 219 95t90 226q0 75 -49 139z" />
<glyph unicode="&#xf9;" horiz-adv-x="1021" d="M111 311v613h186v-566q0 -112 47.5 -165.5t147.5 -53.5q72 0 125 28t104 91v666h184v-924h-184v113q-133 -127 -285 -127q-151 0 -238 86.5t-87 238.5zM262 1403h178l209 -348h-106z" />
<glyph unicode="&#xfa;" horiz-adv-x="1021" d="M111 311v613h186v-566q0 -112 47.5 -165.5t147.5 -53.5q72 0 125 28t104 91v666h184v-924h-184v113q-133 -127 -285 -127q-151 0 -238 86.5t-87 238.5zM375 1055l209 348h178l-281 -348h-106z" />
<glyph unicode="&#xfb;" horiz-adv-x="1021" d="M111 311v613h186v-566q0 -112 47.5 -165.5t147.5 -53.5q72 0 125 28t104 91v666h184v-924h-184v113q-133 -127 -285 -127q-151 0 -238 86.5t-87 238.5zM225 1055l197 348h178l197 -348h-107l-178 241l-180 -241h-107z" />
<glyph unicode="&#xfc;" horiz-adv-x="1021" d="M111 311v613h186v-566q0 -112 47.5 -165.5t147.5 -53.5q72 0 125 28t104 91v666h184v-924h-184v113q-133 -127 -285 -127q-151 0 -238 86.5t-87 238.5zM223 1208q0 40 29.5 70.5t69.5 30.5t70 -30.5t30 -70.5q0 -42 -29 -71t-71 -29t-70.5 29t-28.5 71zM604 1208 q0 40 29.5 70.5t68.5 30.5q40 0 70.5 -30.5t30.5 -70.5q0 -42 -29.5 -71t-71.5 -29q-41 0 -69.5 28.5t-28.5 71.5z" />
<glyph unicode="&#xfd;" horiz-adv-x="909" d="M-29 924h205l285 -541l266 541h201l-686 -1389h-201l319 647zM317 1055l209 348h179l-281 -348h-107z" />
<glyph unicode="&#xfe;" horiz-adv-x="1058" d="M121 -465v1864h186v-527q103 72 238 72q199 0 325.5 -133.5t126.5 -347.5t-126.5 -347.5t-325.5 -133.5q-139 0 -238 69v-516h-186zM307 203q88 -64 191 -64q140 0 221.5 86t81.5 238q0 151 -81 236t-222 85q-105 0 -191 -63v-518z" />
<glyph unicode="&#xff;" horiz-adv-x="909" d="M-29 924h205l285 -541l266 541h201l-686 -1389h-201l319 647zM166 1208q0 40 29.5 70.5t68.5 30.5q40 0 70.5 -30.5t30.5 -70.5q0 -42 -29.5 -71t-71.5 -29q-41 0 -69.5 28.5t-28.5 71.5zM547 1208q0 40 29.5 70.5t68.5 30.5q40 0 70 -30.5t30 -70.5q0 -42 -29 -71 t-71 -29q-41 0 -69.5 28.5t-28.5 71.5z" />
<glyph unicode="&#x152;" horiz-adv-x="2017" d="M98 698q0 202 81 358.5t231 246.5q104 62 220 79t300 17h964v-178h-645v-424h627v-181h-627v-436h666v-180h-911h-72q-184 0 -300 17t-222 79q-149 88 -230.5 244t-81.5 358zM307 702q0 -154 62 -272t172 -180q72 -40 173 -55t251 -15h88v1043h-88q-150 0 -251 -15 t-173 -55q-110 -62 -172 -179.5t-62 -271.5z" />
<glyph unicode="&#x153;" horiz-adv-x="1787" d="M57 463q0 131 65 241.5t179 175t252 64.5q242 0 377 -182q66 95 154.5 139.5t211.5 44.5q200 0 317.5 -129.5t117.5 -361.5v-23h-693q7 -132 86.5 -206t210.5 -74q169 0 379 133v-187q-175 -116 -395 -116q-129 0 -220 43.5t-165 142.5q-165 -186 -383 -186 q-137 0 -250.5 64t-178.5 174.5t-65 242.5zM250 463q0 -129 87 -218t210 -89t210 90t87 217t-87 216t-210 89t-210 -89t-87 -216zM1038 565h492q-9 101 -74.5 162t-161.5 61q-105 0 -170.5 -57t-85.5 -166z" />
<glyph unicode="&#x178;" horiz-adv-x="1193" d="M-55 1399h237l408 -531l418 531h241l-561 -709v-690h-203v700zM309 1688q0 40 29.5 70t69.5 30t70 -30t30 -70q0 -42 -29 -71.5t-71 -29.5q-41 0 -70 29t-29 72zM690 1688q0 40 29 70t69 30t70.5 -30t30.5 -70q0 -42 -29.5 -71.5t-71.5 -29.5q-41 0 -69.5 29t-28.5 72z " />
<glyph unicode="&#x2c6;" horiz-adv-x="1024" d="M225 1055l197 348h178l197 -348h-107l-178 241l-180 -241h-107z" />
<glyph unicode="&#x2dc;" horiz-adv-x="1024" d="M221 1112q44 186 199 186q35 0 59 -8l78 -28q37 -11 61 -11q72 0 97 72h88q-25 -94 -76.5 -143.5t-122.5 -49.5q-28 0 -65 11l-80 26q-27 9 -53 9q-69 0 -97 -64h-88z" />
<glyph unicode="&#x2000;" horiz-adv-x="980" />
<glyph unicode="&#x2001;" horiz-adv-x="1960" />
<glyph unicode="&#x2002;" horiz-adv-x="980" />
<glyph unicode="&#x2003;" horiz-adv-x="1960" />
<glyph unicode="&#x2004;" horiz-adv-x="653" />
<glyph unicode="&#x2005;" horiz-adv-x="490" />
<glyph unicode="&#x2006;" horiz-adv-x="326" />
<glyph unicode="&#x2007;" horiz-adv-x="326" />
<glyph unicode="&#x2008;" horiz-adv-x="245" />
<glyph unicode="&#x2009;" horiz-adv-x="392" />
<glyph unicode="&#x200a;" horiz-adv-x="108" />
<glyph unicode="&#x2010;" horiz-adv-x="692" d="M84 379v166h524v-166h-524z" />
<glyph unicode="&#x2011;" horiz-adv-x="692" d="M84 379v166h524v-166h-524z" />
<glyph unicode="&#x2012;" horiz-adv-x="692" d="M84 379v166h524v-166h-524z" />
<glyph unicode="&#x2013;" horiz-adv-x="1024" d="M0 401v123h1024v-123h-1024z" />
<glyph unicode="&#x2014;" horiz-adv-x="2048" d="M0 401v123h2048v-123h-2048z" />
<glyph unicode="&#x2018;" horiz-adv-x="483" d="M117 1120q0 107 61.5 185t177.5 116l2 -37q-79 -67 -79 -184v-26q88 -46 88 -125q0 -51 -32.5 -85t-80.5 -34q-60 0 -98.5 51.5t-38.5 138.5z" />
<glyph unicode="&#x2019;" horiz-adv-x="483" d="M117 1305q0 51 32 84.5t80 33.5q60 0 99 -51.5t39 -138.5q0 -107 -62.5 -186t-177.5 -117l-2 37q80 68 80 186v27q-88 46 -88 125z" />
<glyph unicode="&#x201a;" horiz-adv-x="483" d="M117 104q0 51 32.5 85t79.5 34q60 0 99 -51.5t39 -138.5q0 -107 -62.5 -186t-177.5 -117l-2 37q80 68 80 186v27q-88 46 -88 124z" />
<glyph unicode="&#x201c;" horiz-adv-x="880" d="M117 1118q0 107 62 186t177 117l2 -37q-79 -67 -79 -186v-27q88 -46 88 -122q0 -51 -32.5 -85t-80.5 -34q-60 0 -98.5 50.5t-38.5 137.5zM512 1118q0 107 62.5 186t177.5 117l2 -37q-80 -68 -80 -186v-27q88 -46 88 -122q0 -51 -32.5 -85t-80.5 -34q-60 0 -98.5 50.5 t-38.5 137.5z" />
<glyph unicode="&#x201d;" horiz-adv-x="880" d="M117 1303q0 51 32 84.5t80 33.5q60 0 99 -51.5t39 -138.5q0 -107 -62 -185t-178 -116l-2 37q80 68 80 184v27q-88 46 -88 125zM512 1303q0 50 33.5 84t81.5 34q60 0 97.5 -51t37.5 -139q0 -107 -62 -185t-178 -116l-2 37q80 68 80 184v27q-88 46 -88 125z" />
<glyph unicode="&#x201e;" horiz-adv-x="880" d="M117 104q0 51 32.5 85t79.5 34q60 0 99 -51.5t39 -138.5q0 -107 -62.5 -186t-177.5 -117l-2 37q80 68 80 186v27q-88 46 -88 124zM512 104q0 51 33.5 85t81.5 34q60 0 97.5 -51t37.5 -139q0 -107 -62.5 -186t-177.5 -117l-2 37q80 68 80 186v27q-88 46 -88 124z" />
<glyph unicode="&#x2022;" horiz-adv-x="1208" d="M307 762q0 123 87 209t210 86q122 0 208.5 -86t86.5 -209q0 -122 -87 -209.5t-210 -87.5t-209 87t-86 210z" />
<glyph unicode="&#x2026;" horiz-adv-x="2048" d="M221 104q0 51 35 86t86 35t86 -35t35 -86t-35 -85.5t-86 -34.5t-86 34.5t-35 85.5zM903 104q0 51 35 86t86 35t86 -35t35 -86t-35 -85.5t-86 -34.5t-86 34.5t-35 85.5zM1587 104q0 51 35 86t86 35t86 -35t35 -86t-35 -85.5t-86 -34.5t-86 34.5t-35 85.5z" />
<glyph unicode="&#x202f;" horiz-adv-x="392" />
<glyph unicode="&#x2039;" horiz-adv-x="526" d="M63 479l240 301h158l-234 -301l234 -317h-158z" />
<glyph unicode="&#x203a;" horiz-adv-x="526" d="M63 162l234 317l-234 301h158l240 -301l-240 -317h-158z" />
<glyph unicode="&#x205f;" horiz-adv-x="490" />
<glyph unicode="&#x20ac;" d="M10 512l37 111h117q-2 25 -2 75q0 16 1 45t1 43h-154l37 111h131q38 242 176 383t330 141q185 0 295 -75v-218q-53 48 -133.5 78.5t-163.5 30.5q-124 0 -200.5 -91.5t-104.5 -248.5h538l-36 -111h-514q-3 -43 -3 -88q0 -38 3 -75h460l-37 -111h-413q56 -346 299 -346 q174 0 313 133v-225q-63 -50 -158 -74.5t-178 -24.5q-181 0 -310.5 145t-164.5 392h-166z" />
<glyph unicode="&#x2122;" horiz-adv-x="1705" d="M242 1378v80h452v-80h-172v-458h-108v458h-172zM813 920v538h150l151 -385l141 385h150v-538h-98v444l-166 -444h-56l-174 444v-444h-98z" />
<glyph unicode="&#x25fc;" horiz-adv-x="921" d="M0 0v922h922v-922h-922z" />
<glyph unicode="&#xfb01;" horiz-adv-x="974" d="M33 764v160h121v110q0 185 94 282t268 97q158 0 249.5 -87t92.5 -241h-186q-6 78 -47 120t-109 42q-93 0 -132.5 -58t-39.5 -181v-84h123v-160h-123v-764h-190v764h-121zM674 0v924h184v-924h-184z" />
<glyph unicode="&#xfb02;" horiz-adv-x="974" d="M35 764v160h121v84q0 102 8 161t37 107q40 65 109.5 101t156.5 36q53 0 149 -22v-162q-75 16 -116 16q-87 0 -120.5 -49t-33.5 -160v-112h123v-160h-123v-764h-190v764h-121zM674 0v1399h184v-1399h-184z" />
</font>
</defs>
</svg>
