<?xml version="1.0" standalone="no"?>
<!DOCTYPE svg PUBLIC "-//W3C//DTD SVG 1.1//EN" "http://www.w3.org/Graphics/SVG/1.1/DTD/svg11.dtd" >
<svg xmlns="http://www.w3.org/2000/svg">
<metadata></metadata>
<defs>
<font id="tim_sansbold" horiz-adv-x="1208" >
<font-face units-per-em="2048" ascent="1536" descent="-512" />
<missing-glyph horiz-adv-x="520" />
<glyph unicode="&#xfb01;" horiz-adv-x="1310" d="M20 965v14q0 47 3.5 70t8 27.5t15.5 4.5h156v29q0 202 116 324q134 143 398 143q205 0 375 -84q15 -7 18.5 -17t0 -24.5t-16.5 -48.5l-19 -51q-19 -49 -29.5 -60.5t-29.5 -3.5q-132 58 -260 58q-141 0 -209 -68q-64 -64 -64 -188v-9h234q10 0 15 -4.5t8 -27t3 -70.5v-14 q0 -48 -3 -70.5t-8 -27.5t-15 -5h-234v-831q0 -13 -8 -18.5t-36.5 -9t-88.5 -3.5h-10q-65 0 -94.5 3.5t-36 9t-6.5 18.5v831h-156q-10 0 -15 5t-8.5 28t-3.5 70zM887 31v1020q0 13 6.5 18.5t35.5 8.5t95 3h10q60 0 88.5 -3t36.5 -8.5t8 -18.5v-1020q0 -13 -8 -18.5t-36.5 -9 t-88.5 -3.5h-10q-65 0 -94.5 3.5t-36 9t-6.5 18.5z" />
<glyph unicode="&#xfb02;" horiz-adv-x="1370" d="M20 965v14q0 47 3.5 70t8 27.5t15.5 4.5h156v29q0 202 116 324q134 143 418 143q124 0 237 -31t165 -78q22 -19 27.5 -35.5t7.5 -54.5q6 -172 6 -444v-651q0 -37 15 -53.5t52 -16.5h25q13 0 16.5 -16t3.5 -74v-19q0 -55 -3 -69.5t-15 -20.5q-53 -24 -137 -24 q-111 0 -172 61q-66 66 -66 215v711q0 120 -8 338q-60 31 -139 31q-137 0 -205 -68q-64 -64 -64 -188v-9h234q10 0 15 -4.5t8 -27t3 -70.5v-14q0 -48 -3 -70.5t-8 -27.5t-15 -5h-234v-831q0 -13 -8 -18.5t-36.5 -9t-88.5 -3.5h-10q-65 0 -94.5 3.5t-36 9t-6.5 18.5v831h-156 q-10 0 -15 5t-8.5 28t-3.5 70z" />
<glyph horiz-adv-x="0" />
<glyph horiz-adv-x="682" />
<glyph unicode="&#xd;" horiz-adv-x="520" />
<glyph unicode=" "  horiz-adv-x="520" />
<glyph unicode="&#x09;" horiz-adv-x="520" />
<glyph unicode="&#xa0;" horiz-adv-x="520" />
<glyph unicode="!" horiz-adv-x="612" d="M131 147q0 71 50 120.5t124 49.5q76 0 126 -49.5t50 -120.5q0 -70 -50 -118.5t-126 -48.5q-74 0 -124 48.5t-50 118.5zM152 1440q0 20 27 27.5t112 7.5h22q86 0 113 -7.5t27 -27.5l-33 -930q0 -15 -19 -20t-75 -5h-43q-56 0 -75.5 5t-19.5 20z" />
<glyph unicode="&#x22;" horiz-adv-x="886" d="M104 1446q-2 19 20 24t107 5h13q85 0 107 -5t20 -24l-29 -520q0 -23 -94 -23h-19q-98 0 -98 23zM516 1446q-2 19 20 24t107 5h12q85 0 107 -5t20 -24l-28 -520q0 -23 -95 -23h-18q-98 0 -98 23z" />
<glyph unicode="#" horiz-adv-x="1339" d="M29 498v6q0 54 4 75.5t9.5 24t23.5 2.5h192l55 271h-145q-22 0 -29.5 19t-7.5 93v6q0 54 4 75.5t9.5 24.5t23.5 3h190l74 354q2 8 8 12.5t27.5 7.5t62.5 3h43q41 0 63 -3t27.5 -7.5t4.5 -12.5l-72 -354h293l74 354q2 8 8 12.5t27.5 7.5t62.5 3h43q41 0 62.5 -3t27 -7.5 t4.5 -12.5l-72 -354h148h4q15 0 20.5 -4t9 -26t3.5 -73v-6q0 -74 -7.5 -93t-29.5 -19h-191l-55 -271h143q18 0 23.5 -2.5t9.5 -24t4 -75.5v-6q0 -74 -7.5 -93.5t-29.5 -19.5h-190l-76 -362q-2 -8 -8 -12.5t-27.5 -7.5t-62.5 -3h-43q-41 0 -62.5 3t-27 7.5t-4.5 12.5l73 362 h-292l-76 -362q-3 -12 -21.5 -17.5t-77.5 -5.5h-43q-41 0 -62.5 3t-27 7.5t-4.5 12.5l74 362h-147q-22 0 -29.5 19.5t-7.5 93.5zM496 606h292l56 271h-293z" />
<glyph unicode="$" horiz-adv-x="1210" d="M77.5 158q0.5 23 26.5 73l25 50q26 49 43 62t37 1q189 -117 356 -117q109 0 177.5 48t68.5 126q0 25 -8 47t-18.5 39t-33.5 35.5t-40 30.5t-52.5 30t-55.5 27t-64 29q-72 32 -117 54.5t-102 62t-89.5 79.5t-55.5 99.5t-23 130.5q0 153 94.5 263t253.5 149v202 q0 13 6.5 18.5t34.5 9t90 3.5h14q60 0 87 -3.5t33.5 -9t6.5 -18.5v-192q160 -18 285 -101q23 -19 21 -39t-29 -75l-21 -41q-27 -55 -41.5 -66.5t-32.5 2.5q-150 86 -280 86q-99 0 -163.5 -46.5t-64.5 -116.5q0 -34 17 -62.5t54 -54t70.5 -43.5t91.5 -45q6 -3 9.5 -4.5t9 -4 t9.5 -4.5q55 -25 88.5 -41.5t81 -44t76 -51t61.5 -58t50.5 -71t29.5 -85t12 -103.5q0 -164 -95.5 -277t-277.5 -147v-195q0 -13 -6.5 -18.5t-33.5 -8.5t-87 -3h-14q-62 0 -90 3t-34.5 8.5t-6.5 18.5v187q-218 25 -363 133q-21 16 -20.5 39z" />
<glyph unicode="%" horiz-adv-x="1984" d="M111 1061q0 209 100 321.5t268 112.5q158 0 255 -105t97 -303q0 -209 -100 -321.5t-268 -112.5q-158 0 -255 105t-97 303zM334 1069q0 -238 131 -238q143 0 143 248q0 238 -131 238q-143 0 -143 -248zM417 20q-1 6 5 15l895 1405q13 22 40.5 28.5t104.5 6.5h4 q108 0 112 -16q1 -6 -7 -19l-895 -1405q-12 -20 -42 -27.5t-104 -7.5h-14q-98 0 -99 20zM1153 387q0 209 100 321.5t269 112.5q158 0 255 -105t97 -302q0 -209 -100 -321.5t-269 -112.5q-158 0 -255 105t-97 302zM1376 395q0 -237 131 -237q144 0 144 248q0 237 -131 237 q-144 0 -144 -248z" />
<glyph unicode="&#x26;" horiz-adv-x="1443" d="M57 420q0 135 80.5 238.5t218.5 166.5q-127 146 -127 301q0 88 36.5 160t96.5 116.5t133.5 68.5t151.5 24q164 0 277.5 -94t113.5 -244q0 -75 -26 -142.5t-91.5 -134.5t-166.5 -114l280 -256q57 127 70 281q1 17 8 23t25.5 8.5t66.5 2.5h23q68 0 82 -6t12 -33 q-22 -231 -127 -424l205 -188q18 -18 11 -35t-50 -65l-25 -27q-43 -46 -62 -53t-36 12l-182 166q-192 -192 -469 -192q-244 0 -386.5 122.5t-142.5 317.5zM315 432q0 -108 76 -175t211 -67q171 0 299 125l-407 375q-81 -39 -130 -105.5t-49 -152.5zM475 1128 q0 -54 31.5 -106t103.5 -123q195 90 195 240q0 65 -43 108t-119 43q-73 0 -120.5 -43.5t-47.5 -118.5z" />
<glyph unicode="'" horiz-adv-x="475" d="M104 1446q-2 19 20 24t107 5h13q85 0 107 -5t20 -24l-29 -520q0 -23 -94 -23h-19q-98 0 -98 23z" />
<glyph unicode="(" horiz-adv-x="706" d="M111 635q0 286 104.5 542.5t251.5 399.5q5 11 26.5 5.5t71.5 -36.5l29 -18q37 -23 53.5 -38.5t16 -22.5t-4.5 -15q-108 -159 -171.5 -368t-63.5 -449t63.5 -449t171.5 -368q4 -8 4.5 -15t-16 -22.5t-53.5 -38.5l-29 -18q-50 -31 -71.5 -36.5t-26.5 5.5 q-149 144 -252.5 397t-103.5 545z" />
<glyph unicode=")" horiz-adv-x="706" d="M42.5 -197.5q0.5 7.5 4.5 15.5q108 159 172 368t64 449t-64 449t-172 368q-4 8 -4.5 15.5t16.5 22.5t54 38l28 18q50 31 72 36.5t27 -5.5q147 -143 251.5 -399.5t104.5 -542.5q0 -292 -103.5 -545t-252.5 -397q-5 -11 -27 -5.5t-72 36.5l-28 18q-37 23 -54 38t-16.5 22.5 z" />
<glyph unicode="*" horiz-adv-x="864" d="M41.5 1147.5q-0.5 19.5 15.5 71.5l9 26q16 53 26.5 69t30.5 9l221 -94l-20 237q-1 19 16.5 24t73.5 5h26q56 0 73.5 -5t16.5 -24l-22 -237l233 94q20 7 31 -9t27 -69l8 -26q16 -52 15.5 -71.5t-19.5 -23.5l-242 -59l166 -186q14 -13 3 -31t-52 -49l-25 -19 q-43 -32 -62 -37.5t-30 11.5l-135 213l-125 -213q-11 -17 -30 -11.5t-62 37.5l-25 19q-42 31 -52 46.5t3 33.5l156 186l-230 59q-19 4 -19.5 23.5z" />
<glyph unicode="+" d="M98 698v29q0 64 6.5 83t22.5 19h358v359q0 16 19.5 22.5t83.5 6.5h28q64 0 83.5 -6.5t19.5 -22.5v-359h360q16 0 22.5 -19t6.5 -83v-29q0 -64 -6.5 -83t-22.5 -19h-360v-360q0 -16 -19.5 -22.5t-83.5 -6.5h-28q-64 0 -83.5 6.5t-19.5 22.5v360h-358q-16 0 -22.5 19 t-6.5 83z" />
<glyph unicode="," horiz-adv-x="489" d="M33.5 -313q-1.5 10 11.5 28q113 145 113 248q0 32 -14.5 58t-31.5 42t-31.5 43.5t-14.5 61.5q0 58 44.5 102.5t112.5 44.5q80 0 131.5 -56t51.5 -146q0 -124 -67.5 -249.5t-188.5 -236.5q-28 -26 -60 2l-37 33q-18 15 -19.5 25z" />
<glyph unicode="-" horiz-adv-x="798" d="M70 575v29q0 64 6 83.5t22 19.5h602q16 0 22.5 -19.5t6.5 -83.5v-29q0 -64 -6.5 -83t-22.5 -19h-602q-16 0 -22 19t-6 83z" />
<glyph unicode="." horiz-adv-x="489" d="M70 147q0 71 50 120.5t124 49.5q76 0 126 -49.5t50 -120.5q0 -70 -50 -118.5t-126 -48.5q-74 0 -124 48.5t-50 118.5z" />
<glyph unicode="/" horiz-adv-x="755" d="M24 17q-3 6 1 18l426 1405q6 22 32 28.5t103 6.5h26q111 0 120 -17q3 -6 -1 -18l-426 -1405q-6 -22 -32 -28.5t-103 -6.5h-27q-110 0 -119 17z" />
<glyph unicode="0" horiz-adv-x="1200" d="M74 711q0 379 141.5 581.5t400.5 202.5q243 0 376.5 -185.5t133.5 -545.5q0 -379 -141.5 -581.5t-400.5 -202.5q-243 0 -376.5 185.5t-133.5 545.5zM367 725q0 -260 55.5 -385t169.5 -125q242 0 242 535q0 260 -56 385t-170 125q-241 0 -241 -535z" />
<glyph unicode="1" horiz-adv-x="1054" d="M41.5 1242q-1.5 21 15.5 28l357 166q88 39 149 39h51q47 0 60.5 -6.5t13.5 -24.5v-1223h240q14 0 19 -17.5t5 -82.5v-21q0 -64 -5 -82t-19 -18h-791q-14 0 -19 18t-5 82v21q0 65 5 82.5t19 17.5h266v946l-251 -108q-20 -8 -34.5 7t-39.5 73l-12 28q-23 54 -24.5 75z" />
<glyph unicode="2" horiz-adv-x="1054" d="M61 31v67q0 45 7.5 71t35.5 60l275 334q149 181 207.5 286.5t58.5 211.5q0 95 -54 149t-145 54q-100 0 -253 -93q-16 -10 -32.5 1t-43.5 59l-25 43q-21 38 -20.5 57.5t22.5 34.5q80 58 184 93.5t205 35.5q212 0 333.5 -114t121.5 -310q0 -140 -78 -281t-276 -364 l-166 -186h514q14 0 19 -18t5 -83v-39q0 -64 -5 -82t-19 -18h-782q-58 0 -73.5 5.5t-15.5 25.5z" />
<glyph unicode="3" horiz-adv-x="1085" d="M50.5 116.5q0.5 19.5 23.5 67.5l18 37q24 50 39.5 64.5t32.5 5.5q144 -80 285 -80q112 0 178.5 59t66.5 162q0 108 -65 164q-69 61 -264 61h-43q-10 0 -15 6t-8.5 28.5t-3.5 66.5v18q0 44 3.5 66.5t8.5 28.5t15 6h51q159 0 223 55q66 56 66 149q0 85 -54 135t-139 50 q-97 0 -217 -60q-17 -12 -34 -0.5t-42 58.5l-18 34q-25 49 -27 66.5t21 32.5q72 45 165.5 71.5t188.5 26.5q201 0 320.5 -111t119.5 -284q0 -103 -59 -186t-162 -126q123 -37 192.5 -129t69.5 -225q0 -191 -117 -311q-140 -143 -411 -143q-110 0 -214 28.5t-177 79.5 q-18 9 -17.5 28.5z" />
<glyph unicode="4" horiz-adv-x="1196" d="M72 358v82q0 77 14 111l365 893q8 20 31 25.5t104 5.5h22q121 0 125 -21q0 -4 -2 -10l-362 -881h288v248q0 19 24.5 25t109.5 6h10q82 0 109.5 -6t27.5 -25v-248h152q16 0 21 -16.5t5 -81.5v-31q0 -66 -5.5 -86t-20.5 -20h-152v-297q0 -19 -27.5 -25t-109.5 -6h-10 q-85 0 -109.5 6t-24.5 25v297h-497q-59 0 -73.5 5t-14.5 25z" />
<glyph unicode="5" horiz-adv-x="1079" d="M51 121.5q0 22.5 27 75.5l18 36q25 47 36.5 58.5t29.5 1.5q139 -82 280 -82q116 0 186 70.5t70 193.5q0 125 -71.5 192.5t-208.5 67.5q-112 0 -211 -22q-49 -13 -49 24v707q0 20 16 25.5t76 5.5h649q10 0 15 -6.5t7.5 -28.5t2.5 -66v-39q0 -44 -2.5 -66t-7.5 -28t-15 -6 h-483v-289q36 4 88 4q222 0 353.5 -119.5t131.5 -343.5q0 -217 -131 -354q-147 -153 -412 -153q-210 0 -374 108q-21 11 -21 33.5z" />
<glyph unicode="6" horiz-adv-x="1130" d="M74 633q0 394 155.5 628t423.5 234q84 0 160 -24t127 -60q21 -17 20.5 -34t-20.5 -54l-27 -51q-22 -41 -34 -50.5t-27 -2.5q-100 49 -184 49q-117 0 -185 -86q-84 -110 -108 -332q126 94 272 94q189 0 301.5 -121.5t112.5 -320.5q0 -139 -60 -257t-175 -191.5t-263 -73.5 q-126 0 -221 47t-153 134t-86.5 205t-28.5 267zM365 623q0 -204 54 -309t154 -105q88 0 146.5 78t58.5 200q0 115 -52.5 173.5t-152.5 58.5q-49 0 -107 -19.5t-101 -50.5v-26z" />
<glyph unicode="7" horiz-adv-x="1007" d="M41 1335v39q0 44 2.5 66t7.5 28.5t15 6.5h829q56 0 72 -8.5t16 -32.5v-86q0 -53 -39 -146l-485 -1171q-7 -20 -33 -25.5t-109 -5.5h-73q-56 0 -74.5 6.5t-11.5 24.5l528 1204h-620q-10 0 -15 6t-7.5 28t-2.5 66z" />
<glyph unicode="8" horiz-adv-x="1167" d="M82 379q0 118 68 212t182 154q-178 128 -178 342q0 178 124.5 292t325.5 114q193 0 312.5 -102t119.5 -273q0 -94 -56 -175.5t-155 -143.5q56 -30 99 -64.5t81.5 -81.5t59 -109.5t20.5 -137.5q0 -105 -39.5 -187.5t-110.5 -135t-165 -79.5t-207 -27q-135 0 -242 44 t-173 136.5t-66 221.5zM369 397q0 -88 60 -138t155 -50q97 0 156 50t59 134q0 35 -13.5 65.5t-38 53.5t-57 43.5t-71 39.5t-79.5 37q-20 8 -30 13q-141 -95 -141 -248zM432 1110q0 -76 52 -125.5t153 -95.5q56 42 92.5 98.5t36.5 118.5q0 71 -47 117.5t-123 46.5 q-72 0 -118 -47t-46 -113z" />
<glyph unicode="9" horiz-adv-x="1132" d="M70 993q0 136 57 249.5t168 183t256 69.5q508 0 508 -653q0 -431 -176 -664q-150 -198 -406 -198q-197 0 -321 88q-21 17 -20.5 34t20.5 54l26 51q22 41 35.5 51t26.5 2q95 -53 207 -53q162 0 235 137q61 115 76 324q-131 -97 -277 -97q-187 0 -301 116.5t-114 305.5z M356 1018q0 -109 54.5 -166t152.5 -57q50 0 106.5 18.5t98.5 48.5q-1 209 -53.5 306.5t-157.5 97.5q-87 0 -144 -68.5t-57 -179.5z" />
<glyph unicode=":" horiz-adv-x="489" d="M70 147q0 71 50 120.5t124 49.5q76 0 126 -49.5t50 -120.5q0 -70 -50 -118.5t-126 -48.5q-74 0 -124 48.5t-50 118.5zM70 881q0 71 50 120.5t124 49.5q76 0 126 -49.5t50 -120.5q0 -70 -50 -119t-126 -49q-74 0 -124 49t-50 119z" />
<glyph unicode=";" horiz-adv-x="489" d="M39.5 -313q-1.5 10 11.5 28q113 145 113 248q0 32 -14.5 58t-31.5 42t-31.5 43.5t-14.5 61.5q0 58 44.5 102.5t112.5 44.5q80 0 131.5 -56t51.5 -146q0 -124 -67.5 -249.5t-188.5 -236.5q-28 -26 -60 2l-37 33q-18 15 -19.5 25zM70 881q0 71 50 120.5t124 49.5 q76 0 126 -49.5t50 -120.5q0 -70 -50 -119t-126 -49q-74 0 -124 49t-50 119z" />
<glyph unicode="&#x3c;" d="M125 702v21q0 47 7.5 67t25.5 31l786 465q18 14 38.5 1.5t51.5 -68.5l8 -15q34 -61 37.5 -83.5t-16.5 -30.5l-641 -377l641 -377q20 -8 16.5 -31t-37.5 -84l-8 -14q-32 -56 -52 -69t-38 1l-786 465q-19 11 -26 30t-7 68z" />
<glyph unicode="=" d="M139 453v28q0 64 6.5 83.5t22.5 19.5h870q16 0 22.5 -19.5t6.5 -83.5v-28q0 -64 -6.5 -83.5t-22.5 -19.5h-870q-16 0 -22.5 19.5t-6.5 83.5zM139 942v29q0 64 6.5 83t22.5 19h870q16 0 22.5 -19t6.5 -83v-29q0 -64 -6.5 -83t-22.5 -19h-870q-16 0 -22.5 19t-6.5 83z" />
<glyph unicode="&#x3e;" d="M126.5 305q-3.5 23 16.5 31l641 377l-641 377q-20 8 -16.5 30.5t37.5 83.5l8 15q32 56 52 68.5t38 -1.5l787 -465q18 -11 25 -30.5t7 -67.5v-21q0 -50 -7 -68.5t-25 -29.5l-787 -465q-18 -14 -38 -1t-52 69l-8 14q-34 61 -37.5 84z" />
<glyph unicode="?" horiz-adv-x="935" d="M66 1349q0 18 22 33q158 113 354 113q192 0 309.5 -99.5t118.5 -271.5q0 -69 -19.5 -128.5t-51 -102.5t-69.5 -81t-76.5 -72t-70.5 -67.5t-52.5 -74.5t-22.5 -86q0 -16 -20.5 -21.5t-86.5 -5.5h-39q-66 0 -86 5.5t-20 23.5v8q0 66 18 122.5t46 97.5t62.5 77.5t69 69 t62.5 64.5t46 71.5t18 83.5q0 67 -43 107t-127 40q-106 0 -218 -73q-18 -13 -34 -1.5t-41 60.5l-29 53q-20 37 -20 55zM213 147q0 71 49 120.5t123 49.5q75 0 124.5 -49.5t49.5 -120.5q0 -70 -49 -118.5t-123 -48.5t-124 48.5t-50 118.5z" />
<glyph unicode="@" horiz-adv-x="2002" d="M82 487q0 171 47 326t135 278.5t209 214.5t276 140t328 49q258 0 451 -95.5t295 -266.5t102 -396q0 -186 -60.5 -333.5t-173.5 -232.5t-261 -85q-105 0 -177.5 49.5t-95.5 134.5q-46 -90 -125.5 -137t-173.5 -47q-138 0 -221.5 101.5t-83.5 279.5q0 150 59 278.5 t158.5 202.5t214.5 74q152 0 236 -125l45 76q13 23 27 27t67 4h20q65 0 80 -5t10 -24q-40 -165 -71 -311l-17 -78q-26 -121 -26 -170q0 -59 26.5 -91t77.5 -32q97 0 158 114t61 314q0 255 -164 400t-436 145q-164 0 -303 -58t-234 -159t-148.5 -239t-53.5 -296 q0 -306 186 -471.5t535 -165.5q87 0 216.5 19t244.5 47q24 5 35 -7t24 -61l10 -37q12 -46 9 -62t-25 -24q-269 -88 -559 -88q-214 0 -390 60.5t-295 168.5t-184 260t-65 334zM811 483q0 -81 29 -129.5t92 -48.5q72 0 123 66q51 64 82 202l37 166q-60 78 -140 78 q-95 0 -159 -95.5t-64 -238.5z" />
<glyph unicode="A" horiz-adv-x="1462" d="M29 35l546 1407q6 16 14.5 22t34 8.5t87.5 2.5h20q66 0 90.5 -2t34 -8t16.5 -23l562 -1405q3 -13 3 -15q-1 -4 -5 -8q-6 -4 -13 -7t-23.5 -4.5t-37 -2t-51.5 -0.5h-29q-91 0 -119.5 6.5t-36.5 28.5l-129 340h-544l-123 -340q-11 -23 -36.5 -29t-117.5 -6h-22 q-108 0 -120 9q-4 3 -4 10t3 16zM532 600h377l-47 133q-103 291 -139 420q-12 -39 -141 -414z" />
<glyph unicode="B" horiz-adv-x="1335" d="M152 31v1413q0 21 13.5 26t74.5 5h348q565 0 565 -369q0 -212 -211 -320q293 -79 293 -362q0 -111 -44 -193.5t-126.5 -132.5t-193.5 -74t-253 -24h-378q-61 0 -74.5 5.5t-13.5 25.5zM451 233h176q159 0 232 49t73 160q0 113 -73 158t-232 45h-176v-412zM451 870h139 q131 0 197.5 46.5t66.5 146.5q0 96 -63.5 136t-196.5 40h-143v-369z" />
<glyph unicode="C" horiz-adv-x="1290" d="M78 723q0 355 187.5 563.5t506.5 208.5q128 0 229 -29t195 -94q25 -17 25 -33t-35 -75l-29 -47q-29 -48 -44 -57.5t-32 3.5q-139 82 -284 82q-199 0 -305.5 -133t-106.5 -381q0 -247 105 -373.5t309 -126.5q130 0 299 68q25 9 36 0t33 -53l25 -51q25 -56 26 -73t-22 -30 q-92 -50 -211.5 -81t-234.5 -31q-317 0 -494.5 196.5t-177.5 546.5z" />
<glyph unicode="D" horiz-adv-x="1468" d="M152 31v1413q0 20 13.5 25.5t74.5 5.5h338q219 0 365.5 -44t244.5 -139t150.5 -237.5t52.5 -313.5q0 -191 -63 -343t-171 -244q-95 -81 -231 -117.5t-338 -36.5h-348q-61 0 -74.5 5.5t-13.5 25.5zM451 238h131q244 0 360 96q143 121 143 405q0 250 -110 369 q-120 129 -385 129h-139v-999z" />
<glyph unicode="E" horiz-adv-x="1234" d="M152 31v1413q0 20 13.5 25.5t74.5 5.5h841q23 0 29 -17t6 -92v-16q0 -72 -7 -92.5t-28 -20.5h-630v-373h536q23 0 29 -16.5t6 -91.5v-17q0 -72 -7 -92t-28 -20h-536v-389h639q23 0 28.5 -16.5t5.5 -92.5v-16q0 -72 -6 -92.5t-28 -20.5h-850q-61 0 -74.5 5.5t-13.5 25.5z " />
<glyph unicode="F" horiz-adv-x="1191" d="M152 27v1417q0 23 11.5 27t76.5 4h856q23 0 28.5 -16.5t5.5 -92.5v-16q0 -73 -6.5 -93t-27.5 -20h-645v-373h550q23 0 29 -16.5t6 -91.5v-17q0 -72 -7 -92t-28 -20h-550v-600q0 -18 -23.5 -22.5t-116.5 -4.5h-24q-98 0 -116.5 3.5t-18.5 23.5z" />
<glyph unicode="G" horiz-adv-x="1456" d="M78 737q0 351 194.5 554.5t536.5 203.5q273 0 467 -133q23 -15 20.5 -32t-36.5 -73l-33 -53q-28 -46 -42.5 -54t-35.5 5q-153 90 -318 90q-220 0 -333 -128.5t-113 -377.5q0 -512 428 -512q95 0 209 27v336h-254q-22 0 -29.5 19t-7.5 93v17q0 54 4 77t10 27t23 4h461 q61 0 74.5 -5.5t13.5 -28.5v-674q0 -20 -3.5 -27.5t-15.5 -13.5q-88 -44 -234 -71t-286 -27q-348 0 -524 198t-176 559z" />
<glyph unicode="H" horiz-adv-x="1499" d="M152 31v1413q0 22 20.5 26.5t114.5 4.5h24q94 0 117 -5t23 -26v-580h598v580q0 22 20.5 26.5t114.5 4.5h24q94 0 117 -5t23 -26v-1413q0 -21 -23 -26t-117 -5h-24q-94 0 -114.5 4.5t-20.5 26.5v596h-598v-596q0 -21 -23 -26t-117 -5h-24q-94 0 -114.5 4.5t-20.5 26.5z " />
<glyph unicode="I" horiz-adv-x="614" d="M158 31v1413q0 22 20.5 26.5t114.5 4.5h24q94 0 117 -5t23 -26v-1413q0 -21 -23 -26t-117 -5h-24q-94 0 -114.5 4.5t-20.5 26.5z" />
<glyph unicode="J" horiz-adv-x="968" d="M62 67q0 22 14 72l12 41q16 53 29.5 70t38.5 8q98 -31 172 -31q102 0 145 52q32 34 42.5 84.5t10.5 134.5v946q0 18 26.5 24.5t109.5 6.5h22q81 0 110 -6.5t29 -24.5v-950q0 -269 -112 -390q-112 -124 -344 -124q-167 0 -287 55q-18 9 -18 32z" />
<glyph unicode="K" horiz-adv-x="1366" d="M152 31v1413q0 11 3.5 16.5t19 9t40 4.5t72.5 1h24q90 0 115 -5.5t25 -25.5v-594l86 82q266 261 448 514q13 20 34 24.5t103 4.5h31q115 0 121 -18q2 -5 -2 -15q-120 -242 -494 -594l525 -811q6 -9 6 -16q0 -11 -16 -15q-23 -6 -95 -6h-68q-101 0 -122 4t-33 25l-395 626 l-129 -120v-504q0 -20 -26 -25.5t-114 -5.5h-24q-94 0 -114.5 4.5t-20.5 26.5z" />
<glyph unicode="L" horiz-adv-x="1126" d="M152 31v1413q0 11 3.5 16.5t19 9t40 4.5t72.5 1h24q90 0 115 -5.5t25 -25.5v-1206h579q23 0 29 -17t6 -92v-16q0 -72 -7 -92.5t-28 -20.5h-790q-61 0 -74.5 5t-13.5 26z" />
<glyph unicode="M" horiz-adv-x="1781" d="M152 31v1411q0 20 25 26.5t104 6.5h90q84 0 112 -7t37 -28l185 -393q56 -116 194 -449q103 243 201 449l184 393q9 21 37.5 28t112.5 7h67q79 0 104 -6.5t25 -26.5v-1411q0 -21 -22.5 -26t-114.5 -5h-16q-94 0 -115 4.5t-21 26.5l2 538q0 203 5 408q-68 -181 -183 -426 l-129 -272q-10 -19 -29.5 -24t-99.5 -5h-28q-57 0 -83 3t-35 8t-16 18l-129 272q-107 222 -182 430q6 -123 6 -387v-563q0 -21 -22.5 -26t-116.5 -5h-14q-94 0 -114.5 4.5t-20.5 26.5z" />
<glyph unicode="N" horiz-adv-x="1536" d="M152 31v1413q0 22 16 26.5t98 4.5h13q87 0 107.5 -4.5t37.5 -28.5l405 -561q201 -279 289 -445q-10 212 -10 504v504q0 22 20 26.5t109 4.5h16q88 0 109.5 -5t21.5 -26v-1413q0 -12 -1.5 -16.5t-13.5 -9t-33.5 -5t-65.5 -0.5h-15q-81 0 -103.5 5.5t-37.5 27.5l-405 561 q-199 273 -289 426q10 -176 10 -485v-504q0 -22 -20 -26.5t-109 -4.5h-14q-95 0 -115 4.5t-20 26.5z" />
<glyph unicode="O" horiz-adv-x="1533" d="M78 717q0 239 79 412.5t240.5 269.5t393.5 96q324 0 494.5 -189t170.5 -548q0 -363 -183.5 -570.5t-529.5 -207.5q-324 0 -494.5 189t-170.5 548zM385 725q0 -251 90 -374.5t275 -123.5q195 0 297 134t102 389q0 251 -90.5 374t-274.5 123q-196 0 -297.5 -132.5 t-101.5 -389.5z" />
<glyph unicode="P" horiz-adv-x="1251" d="M152 31v1413q0 21 13.5 26t74.5 5h272q128 0 226 -12.5t183 -44.5t139.5 -84t85 -133.5t30.5 -190.5q0 -240 -157 -365t-429 -125q-13 0 -139 4v-493q0 -21 -23 -26t-117 -5h-24q-94 0 -114.5 4.5t-20.5 26.5zM451 762q53 -6 122 -6q146 0 223.5 63.5t77.5 186.5 q0 128 -83.5 179.5t-239.5 51.5h-100v-475z" />
<glyph unicode="Q" horiz-adv-x="1533" d="M78 717q0 239 79 412.5t240.5 269.5t393.5 96q324 0 494.5 -189t170.5 -548q0 -278 -107.5 -466.5t-316.5 -264.5q61 -38 105 -82l153 -148q19 -18 11.5 -36.5t-54.5 -65.5l-35 -35q-56 -56 -78 -66q-6 -3 -13 -3q-13 0 -23 14l-289 286q-55 54 -89 72t-97 25 q-266 32 -405.5 218.5t-139.5 510.5zM385 725q0 -251 90 -374.5t275 -123.5q195 0 297 134t102 389q0 251 -90.5 374t-274.5 123q-196 0 -297.5 -132.5t-101.5 -389.5z" />
<glyph unicode="R" horiz-adv-x="1351" d="M152 31v1413q0 21 14 26t74 5h311q320 0 474.5 -102.5t154.5 -325.5q0 -316 -293 -433q46 -36 100 -114l313 -459q6 -10 6 -18q0 -15 -24 -19q-20 -4 -57 -4h-129q-63 0 -90 6.5t-39 24.5l-275 420q-47 71 -81 92.5t-107 21.5h-53v-534q0 -21 -23 -26t-117 -5h-24 q-94 0 -114.5 4.5t-20.5 26.5zM451 799h129q142 0 221.5 57t79.5 174q0 49 -14.5 86t-39.5 59.5t-64 36.5t-82 19.5t-99 5.5h-131v-438z" />
<glyph unicode="S" horiz-adv-x="1210" d="M104 231l25 50q26 49 43 62t37 1q189 -117 356 -117q109 0 177.5 48t68.5 126q0 25 -8 47t-18.5 39t-33.5 35.5t-40 30.5t-52.5 30t-55.5 27t-64 29q-72 32 -117 54.5t-102 62t-89.5 79.5t-55.5 99.5t-23 130.5q0 189 140.5 309.5t364.5 120.5q240 0 400 -109 q23 -19 21 -39t-29 -75l-21 -41q-27 -55 -41.5 -66.5t-32.5 2.5q-150 86 -280 86q-99 0 -163.5 -46.5t-64.5 -116.5q0 -34 17 -62.5t54 -54t70.5 -43.5t91.5 -45q6 -3 9.5 -4.5t9 -4t9.5 -4.5q55 -25 88.5 -41.5t81 -44t76 -51t61.5 -58t50.5 -71t29.5 -85t12 -103.5 q0 -198 -138 -318t-395 -120q-136 0 -261 36.5t-214 102.5q-21 16 -21 38q0 23 27 74z" />
<glyph unicode="T" horiz-adv-x="1204" d="M41 1350v16q0 55 3.5 77.5t9 27t22.5 4.5h1052q17 0 22.5 -4.5t9 -27t3.5 -77.5v-16q0 -52 -3.5 -76t-10 -30.5t-21.5 -6.5h-376v-1206q0 -21 -22.5 -26t-115.5 -5h-26q-94 0 -114.5 4.5t-20.5 26.5v1206h-377q-15 0 -21.5 6.5t-10 30.5t-3.5 76z" />
<glyph unicode="U" horiz-adv-x="1509" d="M145 555v889q0 11 3.5 16.5t19 9t40 4.5t73.5 1h24q88 0 112.5 -5.5t24.5 -25.5v-887q0 -171 75 -250.5t239 -79.5t240.5 80t76.5 250v887q0 21 22 26t113 5h19q88 0 112.5 -5.5t24.5 -25.5v-889q0 -297 -145.5 -436t-462.5 -139t-464 139t-147 436z" />
<glyph unicode="V" horiz-adv-x="1417" d="M45 1440q-3 7 -3 12q0 12 14 17q20 6 110 6h37q69 0 97.5 -2.5t39.5 -9t16 -23.5l222 -688q81 -249 145 -488q62 256 139 492l223 684q5 17 16 23.5t37.5 9t88.5 2.5h8q35 0 57.5 -0.5t40 -2t25.5 -4t14 -6.5q5 -3 5 -7l-3 -15l-471 -1397q-9 -29 -38.5 -36t-131.5 -7 h-12q-116 0 -143.5 6t-36.5 33z" />
<glyph unicode="W" horiz-adv-x="2115" d="M47 1440q-2 6 -2 11q0 15 17 19q22 6 122 5h33q91 0 114 -5.5t29 -29.5l199 -725q61 -223 96 -391q37 219 76 376l184 740q6 25 28.5 30t119.5 5h20q95 0 120.5 -5.5t31.5 -29.5l176 -692q49 -193 92 -457q46 252 94 440l185 709q3 14 6.5 19.5t20.5 10t40.5 5t77.5 0.5 h12q93 1 116 -5q18 -4 18 -20q0 -5 -2 -10l-408 -1405q-7 -24 -31.5 -29.5t-118.5 -5.5h-28q-60 0 -86.5 0.5t-47 4.5t-26 10.5t-8.5 19.5l-154 573q-54 197 -98 453q-47 -272 -96 -461l-150 -565q-4 -17 -15.5 -24t-37.5 -9t-94 -2h-47q-72 0 -98 2t-36.5 8.5t-15.5 24.5z " />
<glyph unicode="X" horiz-adv-x="1349" d="M22 20q0 6 5 13l335 497q20 29 75.5 111.5t80.5 116.5q-75 101 -156 229l-288 445q-17 26 2 34q20 9 94 9h92q82 0 105 -5.5t36 -25.5l187 -283q65 -99 115 -190q48 91 124 219l150 252q9 15 18.5 21t35.5 9t83 3h94q90 0 92 -19q1 -6 -6 -16l-286 -428 q-108 -164 -174 -254q46 -54 145 -207l334 -514q6 -9 6 -15q0 -11 -16 -15q-23 -7 -91 -7h-94q-81 0 -104 5.5t-33 21.5l-199 303q-70 106 -133 219l-104 -178l-205 -344q-11 -18 -31.5 -22.5t-101.5 -4.5h-94q-93 0 -93 20z" />
<glyph unicode="Y" horiz-adv-x="1320" d="M33 1440q-2 5 -2 9q0 13 23 19q31 7 110 7h47q92 0 117.5 -5.5t36.5 -27.5l174 -332q99 -189 141 -293q53 130 135 299l162 324q11 24 32.5 29.5t106.5 5.5h62q102 0 109 -16q1 -2 1 -5q0 -6 -4 -14l-477 -867v-542q0 -21 -22.5 -26t-116.5 -5h-25q-94 0 -114.5 4.5 t-20.5 26.5v542z" />
<glyph unicode="Z" horiz-adv-x="1263" d="M90 31v106q0 44 9 72t38 70l656 958h-633q-15 0 -21.5 6.5t-10 30.5t-3.5 76v16q0 55 3.5 77.5t9 27t22.5 4.5h901q60 0 73 -4.5t13 -26.5v-107q0 -43 -9.5 -74t-35.5 -67l-656 -958h691q13 0 18 -1.5t9.5 -12.5t5.5 -32t1 -63v-16q0 -75 -6.5 -94t-27.5 -19h-959 q-60 0 -74 5t-14 26z" />
<glyph unicode="[" horiz-adv-x="694" d="M147 -256v1784q0 14 17 14h479q15 0 19 -15.5t4 -74.5v-18q0 -59 -4 -75t-19 -16h-233v-1415h233q15 0 19 -15.5t4 -74.5v-18q0 -59 -4 -74.5t-19 -15.5h-479q-17 0 -17 14z" />
<glyph unicode="\" horiz-adv-x="755" d="M25 1440q-7 21 12 27q23 8 106 8h27q77 0 103 -6.5t32 -28.5l426 -1405q7 -21 -13 -27q-24 -8 -106 -8h-26q-77 0 -103 6.5t-32 28.5z" />
<glyph unicode="]" horiz-adv-x="694" d="M29 -162q0 59 3.5 74.5t18.5 15.5h234v1415h-234q-15 0 -18.5 15.5t-3.5 75.5v18q0 59 3.5 74.5t18.5 15.5h479q17 0 17 -14v-1784q0 -14 -17 -14h-479q-15 0 -18.5 15.5t-3.5 74.5v18z" />
<glyph unicode="^" d="M113 666q-3 8 6 26l360 750q9 19 29.5 26t71.5 7h49q51 0 71 -7t29 -26l361 -750q13 -28 -4 -37q-21 -10 -101 -10h-22q-61 0 -85.5 5t-31.5 20l-242 528l-242 -528q-7 -15 -31 -20t-85 -5h-23q-104 0 -110 21z" />
<glyph unicode="_" horiz-adv-x="1024" d="M-23 -332q0 64 6.5 83.5t22.5 19.5h1012q16 0 22.5 -19.5t6.5 -83.5v-12q0 -64 -6.5 -83t-22.5 -19h-1012q-16 0 -22.5 19t-6.5 83v12z" />
<glyph unicode="`" horiz-adv-x="716" d="M106 1577q-18 25 20 31q15 2 40 2h98q55 0 75 -5.5t28 -19.5l217 -334q10 -18 -1.5 -24t-47.5 -6h-78q-65 0 -84 22z" />
<glyph unicode="a" horiz-adv-x="1181" d="M76 520q0 136 36 247.5t98 184t143.5 111.5t174.5 39q81 0 151.5 -34t106.5 -87l9 74q1 10 7.5 15t32.5 8t80 3h13q77 0 98 -5t21 -23q0 -21 -2.5 -184t-2.5 -259v-125l15 -453q0 -20 -16 -26q-18 -6 -101 -6h-10q-75 0 -97 5t-28 22q-4 9 -14 69q-45 -52 -123.5 -84 t-157.5 -32q-201 0 -317.5 144t-116.5 396zM365 528q0 -149 49 -231t166 -82q49 0 90 16.5t63 44.5q29 37 29 115v369q-30 45 -77.5 71.5t-100.5 26.5q-219 0 -219 -330z" />
<glyph unicode="b" horiz-adv-x="1183" d="M135 117v1409q0 13 6.5 18.5t35.5 8.5t95 3h11q60 0 88.5 -3t36.5 -8.5t8 -18.5v-522q106 98 268 98q195 0 309.5 -146t114.5 -399q0 -294 -152 -446q-131 -131 -409 -131q-105 0 -216 24t-171 59q-16 10 -20.5 21t-4.5 33zM416 236q59 -21 137 -21q136 0 197 76 q69 84 69 266q0 169 -67 246q-51 59 -150 59q-45 0 -90.5 -13.5t-67.5 -37.5q-28 -30 -28 -111v-464z" />
<glyph unicode="c" horiz-adv-x="1021" d="M76 532q0 269 149 424q143 146 385 146q97 0 187.5 -32t160.5 -89q14 -12 14 -27v-5q-3 -18 -30 -70l-20 -39q-19 -35 -32.5 -51.5t-23 -16t-18.5 5.5q-116 80 -227 80q-112 0 -184 -77.5t-72 -233.5q0 -157 68 -240.5t200 -83.5q101 0 227 60q19 9 29.5 -3t36.5 -73 l12 -29q22 -51 23.5 -70.5t-13.5 -25.5q-67 -45 -159 -73.5t-193 -28.5q-227 0 -358 122q-162 150 -162 430z" />
<glyph unicode="d" horiz-adv-x="1210" d="M76 524q0 268 123 423t327 155q138 0 244 -92v516q0 13 6.5 18.5t35.5 8.5t95 3h11q60 0 88.5 -3t36.5 -8.5t8 -18.5v-1252q0 -33 13.5 -45t45.5 -12q18 0 22.5 -14t4.5 -70v-22q0 -52 -4 -71t-15 -24q-63 -24 -147 -24q-66 0 -111.5 27.5t-66.5 74.5 q-108 -114 -285 -114q-201 0 -316.5 146t-115.5 398zM365 524q0 -166 69 -245q52 -60 154 -60q44 0 87 14.5t66 38.5q29 32 29 111v383q-79 94 -184 94q-221 0 -221 -336z" />
<glyph unicode="e" horiz-adv-x="1140" d="M76 528q0 168 60 297.5t175 203t269 73.5q152 0 260 -72t160.5 -194.5t52.5 -284.5q0 -60 -4.5 -83.5t-16.5 -23.5h-663q17 -110 85.5 -167.5t184.5 -57.5q133 0 289 66q17 8 27.5 -3.5t27.5 -56.5l18 -51q18 -52 18 -68.5t-20 -27.5q-79 -44 -185.5 -71t-211.5 -27 q-244 0 -385 144.5t-141 403.5zM369 645h403q-9 100 -58 160.5t-132 60.5t-137.5 -58t-75.5 -163z" />
<glyph unicode="f" horiz-adv-x="780" d="M33 965v14q0 48 3 70.5t8 27t15 4.5h144v49q0 223 114 340q104 107 295 107q120 0 226 -39q15 -5 15 -25q0 -19 -11 -69l-8 -35q-11 -51 -20.5 -67t-22.5 -13q-80 17 -132 17q-98 0 -137 -54q-39 -53 -39 -170v-41h236q10 0 15 -4.5t8 -27t3 -70.5v-14q0 -48 -3 -70.5 t-8 -27.5t-15 -5h-236v-831q0 -13 -8 -18.5t-36.5 -9t-88.5 -3.5h-10q-65 0 -94.5 3.5t-36 9t-6.5 18.5v831h-144q-10 0 -15 5t-8 27.5t-3 70.5z" />
<glyph unicode="g" horiz-adv-x="1187" d="M76 532q1 266 125.5 418t322.5 152q156 0 273 -127q6 59 16 84q4 9 8 12.5t24.5 6.5t63.5 3h21q63 0 80.5 -3.5t23.5 -20.5q19 -56 19 -432v-537q0 -293 -125 -430q-123 -135 -375 -135q-90 0 -184.5 24t-157.5 60q-17 10 -17 27t23 77l14 35q22 52 34.5 66.5t29.5 7.5 q131 -60 242 -60q118 0 176.5 69t58.5 228v31q-109 -92 -262 -92q-202 0 -318 142.5t-116 393.5zM365 532q0 -299 225 -299q44 0 87 15t66 39q29 32 29 110v338q-33 61 -81.5 93t-104.5 32q-105 0 -163 -82.5t-58 -245.5z" />
<glyph unicode="h" horiz-adv-x="1202" d="M135 31v1495q0 13 6.5 18.5t35.5 8.5t95 3h11q60 0 88.5 -3t36.5 -8.5t8 -18.5v-533q109 109 276 109q188 0 285 -111q51 -57 73.5 -134.5t22.5 -194.5v-631q0 -13 -8 -18.5t-36.5 -9t-88.5 -3.5h-10q-65 0 -94.5 3.5t-36 9t-6.5 18.5v553q0 106 -8 149.5t-33 71.5 q-41 47 -138 47q-84 0 -137 -33q-30 -19 -42 -43.5t-15 -64.5q-4 -47 -4 -201v-479q0 -13 -8 -18.5t-36.5 -9t-88.5 -3.5h-11q-65 0 -94.5 3.5t-36 9t-6.5 18.5z" />
<glyph unicode="i" horiz-adv-x="567" d="M106 1413q0 68 50 118t123 50t122.5 -49.5t49.5 -118.5t-49.5 -118.5t-122.5 -49.5t-123 50t-50 118zM143 31v1020q0 13 6.5 18.5t36 8.5t95.5 3h10q60 0 88.5 -3t36.5 -8.5t8 -18.5v-1020q0 -13 -8 -18.5t-36.5 -9t-88.5 -3.5h-10q-66 0 -95.5 3.5t-36 9t-6.5 18.5z" />
<glyph unicode="j" horiz-adv-x="595" d="M-163 -410.5q0 17.5 13 74.5l9 35q13 52 21.5 64t33.5 6q60 -13 111 -13q81 0 114 50t33 163v1082q0 13 6.5 18.5t35.5 8.5t95 3h10q60 0 88.5 -3t37 -8.5t8.5 -18.5v-1041q0 -487 -394 -487q-58 0 -115.5 11.5t-86.5 27.5q-20 10 -20 27.5zM135 1413q0 69 49.5 118.5 t122.5 49.5t122.5 -49.5t49.5 -118.5t-49.5 -118.5t-122.5 -49.5t-122.5 49.5t-49.5 118.5z" />
<glyph unicode="k" horiz-adv-x="1085" d="M135 31v1495q0 13 6.5 18.5t35.5 8.5t95 3h11q60 0 88.5 -3t36.5 -8.5t8 -18.5v-844q132 130 319 373q12 17 34 21.5t101 4.5h33q106 0 113 -18q2 -6 -2 -16q-44 -97 -141.5 -221t-210.5 -228l409 -555q5 -7 5 -13q0 -18 -43 -25q-32 -5 -89 -5h-26q-100 0 -127 5t-41 26 l-334 458v-458q0 -13 -8 -18.5t-36.5 -9t-88.5 -3.5h-11q-65 0 -94.5 3.5t-36 9t-6.5 18.5z" />
<glyph unicode="l" horiz-adv-x="610" d="M123 1530v7q1 5 1 7q2 4 15.5 7.5t38.5 4t78 0.5h10q84 0 108 -5t27 -21q19 -93 19 -596v-651q0 -37 15 -53.5t52 -16.5h25q13 0 16.5 -16t3.5 -74v-19q0 -55 -3 -69.5t-15 -20.5q-53 -24 -137 -24q-111 0 -172 61q-66 66 -66 215v711q0 137 -5.5 314.5t-10.5 238.5z" />
<glyph unicode="m" horiz-adv-x="1822" d="M125 1048q1 20 19 26q20 7 104 7h10q76 0 98.5 -4.5t28.5 -21.5q8 -23 16 -88q53 61 128.5 98t160.5 37q98 0 181.5 -42.5t125.5 -119.5q61 78 146 120t180 42q177 0 274 -111q51 -57 74 -134.5t23 -194.5v-631q0 -13 -8 -18.5t-36.5 -9t-88.5 -3.5h-11q-65 0 -94.5 3.5 t-36 9t-6.5 18.5v553q0 106 -8 149.5t-33 71.5q-41 47 -129 47q-75 0 -125 -31q-30 -19 -42 -43.5t-15 -64.5q-4 -47 -4 -201v-481q0 -13 -8 -18.5t-36.5 -9t-88.5 -3.5h-11q-65 0 -94.5 3.5t-36 9t-6.5 18.5v553q0 106 -8 149.5t-33 71.5q-41 47 -129 47q-75 0 -125 -31 q-30 -19 -42 -43.5t-15 -64.5q-4 -47 -4 -201v-481q0 -13 -8 -18.5t-36.5 -9t-88.5 -3.5h-11q-65 0 -94.5 3.5t-36 9t-6.5 18.5v565z" />
<glyph unicode="n" horiz-adv-x="1206" d="M125 1048q1 20 19 26q20 7 104 7h10q76 0 98.5 -4.5t28.5 -21.5t14 -82q51 59 128.5 94t168.5 35q188 0 285 -111q51 -57 73.5 -134.5t22.5 -194.5v-631q0 -13 -8 -18.5t-36.5 -9t-88.5 -3.5h-10q-65 0 -94.5 3.5t-36 9t-6.5 18.5v553q0 106 -8 149.5t-33 71.5 q-41 47 -138 47q-84 0 -137 -33q-30 -19 -42 -43.5t-15 -64.5q-4 -47 -4 -201v-479q0 -13 -8 -18.5t-36.5 -9t-88.5 -3.5h-11q-65 0 -94.5 3.5t-36 9t-6.5 18.5v565z" />
<glyph unicode="o" horiz-adv-x="1169" d="M76 520q0 280 135.5 431t390.5 151q232 0 362 -139.5t130 -401.5q0 -279 -136 -430t-391 -151q-232 0 -361.5 139t-129.5 401zM365 532q0 -311 208 -311q232 0 232 328q0 311 -209 311q-231 0 -231 -328z" />
<glyph unicode="p" horiz-adv-x="1189" d="M125 1048q0 20 19 26q20 7 104 7h10q76 0 98.5 -4.5t28.5 -21.5t14 -82q52 60 128 94.5t163 34.5q193 0 308.5 -147.5t115.5 -397.5q0 -268 -124 -422.5t-328 -154.5q-148 0 -242 79v-485q0 -13 -8 -18.5t-36.5 -9t-88.5 -3.5h-11q-65 0 -94.5 3.5t-36 9t-6.5 18.5v1022z M420 297q75 -78 182 -78q111 0 167 86.5t56 251.5q0 169 -67 246q-51 59 -154 59q-44 0 -88 -14.5t-67 -38.5q-29 -32 -29 -111v-401z" />
<glyph unicode="q" horiz-adv-x="1181" d="M76 524q0 264 151 421t418 157q97 0 203.5 -28.5t169.5 -67.5q17 -10 21.5 -20.5t4.5 -31.5v-813q0 -319 39 -567q1 -5 1 -8.5t-1 -6.5q-2 -5 -14.5 -9t-38.5 -5.5t-74 -1.5h-16q-62 0 -88 2.5t-36 8t-13 20.5q-15 65 -27 202t-12 302q-106 -98 -256 -98 q-201 0 -316.5 146t-115.5 398zM365 524q0 -166 69 -245q52 -60 150 -60q45 0 87 13.5t64 37.5q29 32 29 111v467q-62 18 -131 18q-67 0 -119.5 -28t-84.5 -76t-48 -108.5t-16 -129.5z" />
<glyph unicode="r" horiz-adv-x="808" d="M125 1048q1 20 19 26q20 7 104 7h12q76 0 98.5 -4.5t26.5 -21.5q5 -15 13.5 -84.5t11.5 -126.5q51 130 118.5 194t163.5 64q34 0 53 -8q12 -5 15.5 -21.5t3.5 -81.5v-28q0 -52 -3 -75t-8 -29t-18 -7q-156 -14 -239 -139q-76 -116 -76 -387v-295q0 -13 -8 -18.5t-36.5 -9 t-88.5 -3.5h-11q-65 0 -94.5 3.5t-36 9t-6.5 18.5v565z" />
<glyph unicode="s" horiz-adv-x="978" d="M72 132q4 20 28 63l21 36q27 47 43 61.5t33 2.5q133 -88 262 -88q80 0 126 27t46 69q0 32 -29 54.5t-75.5 37.5t-102 30t-111.5 39.5t-102.5 58.5t-75.5 93.5t-29 139.5q0 158 120 252t304 94q204 0 338 -103q15 -10 10.5 -29t-34.5 -71l-19 -29q-28 -47 -42 -58.5 t-31 -0.5q-106 66 -209 66q-92 0 -133 -35q-29 -26 -29 -60q0 -31 29 -53.5t75 -37.5t102 -31t112 -40t102 -57.5t75 -90.5t29 -132q0 -71 -27.5 -136t-76.5 -112q-115 -112 -338 -112q-115 0 -215.5 33t-165.5 89q-10 7 -10 21q-1 5 0 9z" />
<glyph unicode="t" horiz-adv-x="837" d="M16 944v14q0 75 27 82q127 36 176 101.5t64 210.5q1 16 18 20t74 4h18q57 0 74.5 -6t17.5 -24v-265h244q11 0 15.5 -4.5t8 -27.5t3.5 -70v-14q0 -47 -3.5 -70t-8.5 -28t-15 -5h-244v-506q0 -82 35 -114q32 -29 90 -29q45 0 107 20q16 5 26 -10.5t27 -70.5l6 -21 q16 -54 16 -72q0 -19 -20 -28q-102 -51 -235 -51q-165 0 -248 83q-84 84 -84 277v522h-162q-14 0 -20.5 17.5t-6.5 64.5z" />
<glyph unicode="u" horiz-adv-x="1202" d="M129 420v631q0 13 6.5 18.5t35.5 8.5t95 3h10q60 0 88.5 -3t37 -8.5t8.5 -18.5v-553q0 -106 8 -150t33 -72q41 -47 135 -47q82 0 135 33q30 19 42 44t15 65q4 47 4 200v480q0 13 6.5 18.5t36 8.5t95.5 3h10q60 0 88.5 -3t36.5 -8.5t8 -18.5v-566l14 -452q-1 -20 -19 -26 q-20 -7 -104 -7h-10q-75 0 -98 5t-29 22t-14 82q-51 -60 -127.5 -94.5t-167.5 -34.5q-187 0 -283 110q-51 57 -73.5 135t-22.5 195z" />
<glyph unicode="v" horiz-adv-x="1073" d="M12 1044q-2 6 -2 10q0 12 14 17q26 10 123 10h19q81 0 108 -6t33 -24l139 -426q73 -224 103 -340q56 144 124 376.5t101 389.5q3 19 24.5 24.5t104.5 5.5h12q54 0 85 -4.5t40 -10.5q7 -5 7 -12q-1 -116 -157 -532q-112 -296 -220 -497q-7 -13 -35 -19t-103 -6h-18 q-77 0 -103 5.5t-32 21.5z" />
<glyph unicode="w" horiz-adv-x="1619" d="M15 1060q2 8 15.5 12.5t41.5 6.5t78 2h6q84 0 110 -6.5t31 -25.5l98 -383q23 -89 48.5 -219t31.5 -187q8 54 40 184.5t56 214.5l107 390q6 21 29.5 26.5t107.5 5.5h19q77 0 101.5 -6.5t29.5 -21.5l100 -385q57 -218 88 -402q93 296 172 783q2 15 9.5 20.5t34 8.5t89.5 3 h8q76 0 99 -6q20 -5 20 -22q0 -101 -113 -511q-77 -278 -172 -513q-7 -20 -32.5 -24.5t-118.5 -4.5h-16q-97 0 -124 5.5t-32 21.5l-92 335q-71 263 -84 392q-16 -169 -84 -394l-99 -333q-5 -15 -33 -21t-114 -6h-20q-85 0 -113 5.5t-33 21.5l-289 1015q-2 7 -2 12q0 3 1 6z " />
<glyph unicode="x" horiz-adv-x="1044" d="M18 25q0 5 5 14l346 514q-70 90 -129 180l-209 309q-16 25 8 32q22 7 102 7h35q93 0 126.5 -6.5t45.5 -25.5l78 -119q30 -47 102 -166q32 60 97 166l69 119q12 21 36.5 26.5t107.5 5.5h20q128 0 128 -25q0 -7 -5 -14l-180 -272q-62 -97 -144 -211q83 -104 138 -184 l231 -340q5 -8 5 -13q0 -11 -17 -15q-24 -7 -119 -7h-33q-86 0 -112.5 6t-40.5 27l-93 139q-91 142 -114 182q-26 -47 -107 -184l-82 -137q-12 -21 -36.5 -27t-106.5 -6h-25q-126 0 -127 25z" />
<glyph unicode="y" horiz-adv-x="1089" d="M-33 -330l8 29q15 54 27 69.5t35 8.5q69 -21 127 -21q87 0 144.5 50.5t109.5 187.5l-369 1050q-7 21 14 28q26 9 115 9h27q86 0 109.5 -6t29.5 -24l127 -402q67 -213 92 -368q28 147 90 364l119 406q6 18 28.5 24t100.5 6h27q117 0 126 -19q1 -3 1 -6q0 -5 -2 -12 l-351 -1026q-91 -267 -207 -381t-311 -114q-65 0 -126.5 14.5t-94.5 36.5q-12 11 -12 24t16 72z" />
<glyph unicode="z" horiz-adv-x="983" d="M76 29v73q0 57 30 103l449 659h-426q-10 0 -15 5.5t-8.5 29t-3.5 70.5v8q0 47 3.5 70.5t8.5 28.5t15 5h702q48 0 61 -5t13 -23v-74q0 -55 -31 -102l-444 -660h461q10 0 15 -5t8.5 -28.5t3.5 -70.5v-9q0 -47 -3.5 -70.5t-8.5 -28.5t-15 -5h-741q-48 0 -61 5.5t-13 23.5z " />
<glyph unicode="{" horiz-adv-x="659" d="M45 614v41q0 56 4 71.5t19 18.5q60 12 90 44t30 106v295q0 179 78 265.5t266 86.5h76q15 0 19 -15.5t4 -74.5v-25q0 -59 -4 -74.5t-19 -15.5h-47q-62 0 -86 -30t-24 -99v-288q0 -108 -34.5 -176t-113.5 -109q79 -41 113.5 -109t34.5 -176v-289q0 -68 23.5 -97.5 t86.5 -29.5h43q16 0 21.5 -17t5.5 -73v-24q0 -59 -4 -74.5t-19 -15.5h-76q-188 0 -266 86.5t-78 265.5v293q0 74 -30 105.5t-90 43.5q-15 3 -19 18.5t-4 71.5z" />
<glyph unicode="|" horiz-adv-x="559" d="M150 -528v2170q0 13 5.5 18.5t30.5 9t80 3.5h23q54 0 81.5 -4t33.5 -9.5t6 -17.5v-2170q0 -12 -6 -17.5t-33.5 -9.5t-81.5 -4h-23q-55 0 -80 3.5t-30.5 9t-5.5 18.5z" />
<glyph unicode="}" horiz-adv-x="659" d="M29 -156q0 57 5 73.5t21 16.5h43q62 0 86.5 32.5t24.5 101.5v282q0 109 34.5 176.5t112.5 108.5q-78 41 -112.5 108.5t-34.5 176.5v282q0 69 -24.5 102t-86.5 33h-47q-15 0 -18.5 15.5t-3.5 74.5v25q0 59 3.5 74.5t18.5 15.5h76q188 0 266 -86.5t78 -265.5v-295 q0 -74 30.5 -106t90.5 -44q15 -3 18.5 -18.5t3.5 -71.5v-41q0 -56 -3.5 -71.5t-18.5 -18.5q-61 -12 -91 -43.5t-30 -105.5v-293q0 -179 -78 -265.5t-266 -86.5h-76q-15 0 -18.5 15.5t-3.5 74.5v24z" />
<glyph unicode="~" d="M70 670q26 122 112 204t201 82q57 0 112.5 -17.5t98.5 -42t81.5 -49t77 -42t70.5 -17.5q83 0 127 119q10 31 90 13l27 -7q47 -11 60.5 -20t9.5 -29q-27 -123 -113 -204.5t-201 -81.5q-57 0 -112.5 17t-97.5 41.5t-80.5 49.5t-77.5 42t-72 17q-42 0 -74.5 -32t-52.5 -86 q-10 -31 -90 -13l-27 7q-47 11 -60 20t-9 29z" />
<glyph unicode="&#xa1;" horiz-adv-x="612" d="M131 934q0 70 50 119t126 49q74 0 124 -49t50 -119q0 -71 -50 -120.5t-124 -49.5q-76 0 -126 49.5t-50 120.5zM160 -358l33 929q0 15 19 20t75 5h43q56 0 75 -5t19 -20l37 -929q0 -20 -27 -27.5t-112 -7.5h-23q-85 0 -112 7.5t-27 27.5z" />
<glyph unicode="&#xa2;" horiz-adv-x="1030" d="M76 530q0 269 149 424q97 102 250 131v205q0 13 6 18.5t34 9t91 3.5h6q60 0 87 -3.5t33.5 -9t6.5 -18.5v-203q127 -26 228 -108q16 -15 13 -32t-30 -70l-20 -39q-19 -35 -32.5 -51.5t-23 -16t-18.5 5.5q-121 80 -235 80q-112 0 -184 -77.5t-72 -233.5q0 -157 68 -240.5 t200 -83.5q107 0 233 60q19 9 29.5 -3t36.5 -73l12 -29q22 -51 23.5 -70.5t-13.5 -25.5q-93 -63 -215 -86v-207q0 -13 -6.5 -18.5t-33.5 -9t-87 -3.5h-6q-63 0 -91 3.5t-34 9t-6 18.5v201q-143 24 -237 112q-162 150 -162 430z" />
<glyph unicode="&#xa3;" d="M127 727v14q0 47 3.5 70t8.5 28t15 5h141v147q0 240 121 372t364 132q92 0 179.5 -20.5t140.5 -53.5q20 -11 20.5 -27t-18.5 -69l-15 -37q-22 -55 -35.5 -67t-35.5 -4q-117 47 -203 47q-227 0 -227 -252v-168h385q10 0 15 -5t8 -27.5t3 -70.5v-14q0 -48 -3 -70.5t-8 -27 t-15 -4.5h-387v-60q0 -115 -27 -203t-82 -126h608q23 0 29 -17t6 -92v-14q0 -72 -7 -92.5t-28 -20.5h-919q-21 0 -28 20.5t-7 92.5v8q0 55 7 76t28 32q75 44 103 118t28 208v70h-141q-11 0 -15.5 4.5t-8 27.5t-3.5 70z" />
<glyph unicode="&#xa4;" d="M126 187q0 4 3 10l152 260q-70 106 -70 264q0 185 82 299l-150 258q-12 21 25 27l45 2h80q40 0 54.5 -5t23.5 -20l84 -143q70 24 161 24q84 0 152 -24l84 143q9 15 23.5 20t54.5 5h80q73 0 72 -19q0 -4 -3 -10l-151 -260q69 -104 69 -264q0 -185 -82 -299l150 -258 q12 -21 -25 -27q-17 -2 -45 -2h-80q-40 0 -54 5t-23 20l-84 143q-73 -25 -162 -25q-82 0 -152 25l-84 -143q-9 -15 -23 -20t-54 -5h-80q-74 0 -73 19zM459 731q0 -96 35 -148.5t102 -52.5q77 0 115.5 55t38.5 158q0 96 -35.5 148.5t-102.5 52.5q-153 0 -153 -213z" />
<glyph unicode="&#xa5;" horiz-adv-x="1320" d="M33 1440q-10 20 21 28q31 7 110 7h47q92 0 117.5 -5.5t36.5 -27.5l174 -332q99 -189 141 -293q53 130 135 299l162 324q11 24 32.5 29.5t106.5 5.5h62q102 0 109 -16q4 -6 -3 -19l-403 -733h184q12 0 17 -4t8.5 -24.5t3.5 -64.5v-2q0 -44 -3.5 -64t-8.5 -24t-17 -4h-258 v-125h258q12 0 17 -4t8.5 -24t3.5 -64v-2q0 -44 -3.5 -64t-8.5 -24t-17 -4h-258v-178q0 -21 -22.5 -26t-116.5 -5h-25q-94 0 -114.5 4.5t-20.5 26.5v178h-256q-12 0 -17 4t-8.5 24t-3.5 64v2q0 44 3.5 64t8.5 24t17 4h256v125h-256q-12 0 -17 4t-8.5 24t-3.5 64v2 q0 44 3.5 64.5t8.5 24.5t17 4h182z" />
<glyph unicode="&#xa6;" horiz-adv-x="559" d="M150 336q0 13 5.5 18.5t30.5 9t80 3.5h23q54 0 81.5 -4t33.5 -9.5t6 -17.5v-760q0 -12 -6 -17.5t-33.5 -9.5t-81.5 -4h-23q-55 0 -80 3.5t-30.5 9t-5.5 18.5v760zM150 778v760q0 13 5.5 18.5t30.5 9t80 3.5h23q54 0 81.5 -4t33.5 -9.5t6 -17.5v-760q0 -11 -6.5 -17 t-33 -9.5t-81.5 -3.5h-23q-55 0 -79.5 3t-30.5 8.5t-6 18.5z" />
<glyph unicode="&#xa7;" horiz-adv-x="1107" d="M102 680q0 172 140 266q-76 76 -76 203q0 158 120 252t304 94q205 0 338 -102q15 -10 10.5 -29.5t-35.5 -71.5l-18 -28q-28 -47 -42.5 -59t-31.5 -1q-106 66 -209 66q-92 0 -133 -35q-29 -26 -29 -59q0 -31 31 -53.5t81 -37.5t110.5 -31t121 -40.5t110.5 -58t81 -90.5 t31 -132q0 -88 -38.5 -156t-103.5 -110q78 -78 78 -203q0 -158 -120 -252t-304 -94q-205 0 -338 102q-15 10 -10.5 29.5t35.5 71.5l18 29q27 47 42 58.5t32 0.5q106 -66 209 -66q92 0 133 35q29 26 29 60q0 27 -24.5 48t-64 34t-90.5 28.5t-104 30t-104 40.5t-90.5 58 t-64 84.5t-24.5 118.5zM377 727q0 -25 14 -44t46.5 -34t60 -24t80 -23.5t81.5 -23.5q72 42 72 108q0 21 -12 38t-29.5 29t-49 24t-57 19t-68 19t-69.5 21q-69 -45 -69 -109z" />
<glyph unicode="&#xa8;" horiz-adv-x="716" d="M-14 1391q0 61 42.5 103t106.5 42q65 0 107.5 -42t42.5 -103q0 -59 -42.5 -100.5t-107.5 -41.5q-64 0 -106.5 41.5t-42.5 100.5zM432 1391q0 61 41 103t105 42q67 0 110 -42t43 -103q0 -59 -43.5 -100.5t-109.5 -41.5q-64 0 -105 41.5t-41 100.5z" />
<glyph unicode="&#xa9;" horiz-adv-x="1638" d="M74 737q0 169 58 311.5t158.5 240t237 152t291.5 54.5t292 -54.5t237.5 -152t158.5 -240.5t58 -311q0 -224 -100 -398t-269 -266.5t-377 -92.5t-377 92.5t-268.5 266.5t-99.5 398zM258 737q0 -174 75 -310.5t202 -210t282 -73.5q114 0 216 43t177 120t118.5 188.5 t43.5 242.5q0 174 -75 310.5t-202 210t-282 73.5q-114 0 -216 -43t-177 -120t-118.5 -188.5t-43.5 -242.5zM475 729q0 197 98.5 316.5t268.5 119.5q132 0 219 -69q15 -11 14 -23t-18 -43l-13 -22q-16 -29 -22.5 -35t-17.5 0q-71 47 -150 47q-98 0 -149.5 -73t-51.5 -214 q0 -276 201 -276q87 0 156 35q11 8 20.5 1.5t20.5 -34.5l10 -25q16 -41 12 -49q-2 -5 -12 -10q-40 -28 -105.5 -47t-126.5 -19q-168 0 -261 112t-93 308z" />
<glyph unicode="&#xaa;" horiz-adv-x="837" d="M82 1110q0 179 86 282t213 103q54 0 100 -22.5t70 -57.5l6 49q1 7 5 10t21.5 5t53.5 2h29q49 0 63 -4t14 -15q0 -14 -1 -121t-1 -172v-82q0 -129 9 -296q1 -10 -2.5 -14t-19.5 -6.5t-54 -2.5h-29q-49 0 -63 2.5t-19 13.5q-3 6 -8 45q-30 -35 -81 -55t-105 -20 q-132 0 -209.5 95.5t-77.5 260.5zM293 1116q0 -96 30 -146t99 -50q50 0 80 30q33 33 33 105v205q-40 63 -107 63q-70 0 -102.5 -51t-32.5 -156z" />
<glyph unicode="&#xab;" horiz-adv-x="1110" d="M90 612v13q0 34 23 67l262 381q11 20 32.5 18.5t65.5 -26.5l33 -18q45 -26 58.5 -43.5t2.5 -36.5l-215 -349l215 -348q11 -19 -2.5 -36.5t-58.5 -43.5l-33 -18q-44 -25 -65.5 -26.5t-32.5 18.5l-262 381q-23 33 -23 67zM541 612v13q0 36 22 67l262 381q11 20 33 18.5 t66 -26.5l32 -18q46 -26 59.5 -43.5t2.5 -36.5l-215 -349l215 -348q11 -19 -2.5 -36.5t-59.5 -43.5l-32 -18q-44 -25 -66 -26.5t-33 18.5l-262 381q-22 31 -22 67z" />
<glyph unicode="&#xac;" d="M139 942v29q0 64 6.5 83t22.5 19h879q12 0 16 -3t4 -15v-676q0 -16 -19 -22.5t-83 -6.5h-29q-64 0 -83 6.5t-19 22.5v461h-666q-16 0 -22.5 19t-6.5 83z" />
<glyph unicode="&#xad;" horiz-adv-x="798" d="M70 575v29q0 64 6 83.5t22 19.5h602q16 0 22.5 -19.5t6.5 -83.5v-29q0 -64 -6.5 -83t-22.5 -19h-602q-16 0 -22 19t-6 83z" />
<glyph unicode="&#xae;" horiz-adv-x="1638" d="M74 737q0 169 58 311.5t158.5 240t237 152t291.5 54.5t292 -54.5t237.5 -152t158.5 -240.5t58 -311q0 -224 -100 -398t-269 -266.5t-377 -92.5t-377 92.5t-268.5 266.5t-99.5 398zM262 737q0 -174 75 -310.5t202 -210t282 -73.5q114 0 216 43t177 120t118.5 188.5 t43.5 242.5q0 174 -75 310.5t-202 210t-282 73.5q-114 0 -216 -43t-177 -120t-118.5 -188.5t-43.5 -242.5zM510 365v772q0 11 8.5 13.5t42.5 2.5h250q69 0 122.5 -10.5t101.5 -36t74 -76t26 -123.5q0 -169 -160 -241q29 -25 51 -66l141 -229q10 -18 -19 -22l-26 -1h-65 q-62 0 -72 17l-143 235q-15 26 -29 33.5t-49 7.5h-84v-276q0 -10 -16 -13.5t-62 -3.5h-16q-47 0 -61.5 3t-14.5 14zM680 776h135q78 0 115 37q33 33 33 90q0 51 -29 80q-31 31 -123 31h-131v-238z" />
<glyph unicode="&#xaf;" horiz-adv-x="716" d="M55 1393v28q0 48 5 66t22 18h553q17 0 22 -18t5 -66v-28q0 -48 -5 -66t-22 -18h-553q-17 0 -22 18t-5 66z" />
<glyph unicode="&#xb0;" horiz-adv-x="722" d="M66 1198q0 134 83.5 215.5t219.5 81.5q130 0 209 -74.5t79 -210.5q0 -134 -83.5 -214.5t-219.5 -80.5q-130 0 -209 74t-79 209zM227 1202q0 -67 34 -105t95 -38q62 0 100 39.5t38 109.5q0 66 -35.5 105t-96.5 39t-98 -41t-37 -109z" />
<glyph unicode="&#xb1;" d="M98 102v29q0 64 6.5 83t22.5 19h952q16 0 22.5 -19t6.5 -83v-29q0 -64 -6.5 -83t-22.5 -19h-952q-16 0 -22.5 19t-6.5 83zM98 924v28q0 64 6.5 83.5t22.5 19.5h358v358q0 16 19.5 22.5t83.5 6.5h28q64 0 83.5 -6.5t19.5 -22.5v-358h360q16 0 22.5 -19.5t6.5 -83.5v-28 q0 -64 -6.5 -83.5t-22.5 -19.5h-360v-360q0 -16 -19.5 -22.5t-83.5 -6.5h-28q-64 0 -83.5 6.5t-19.5 22.5v360h-358q-16 0 -22.5 19.5t-6.5 83.5z" />
<glyph unicode="&#xb2;" horiz-adv-x="901" d="M173.5 1482.5q-3.5 19.5 12.5 28.5q54 37 124 61.5t136 24.5q125 0 206 -68t81 -190q0 -192 -233 -376h211q18 0 24 -19.5t6 -81.5v-8q0 -62 -6 -81t-24 -19h-500q-18 0 -24.5 15t-6.5 71v10q0 33 7 50.5t28 35.5q285 230 285 387q0 76 -84 76q-55 0 -135 -51 q-8 -4 -17 -3.5t-23.5 18t-35.5 52.5q-28 48 -31.5 67.5z" />
<glyph unicode="&#xb3;" horiz-adv-x="901" d="M152 1488q-2 20 14 28q51 37 124.5 59t147.5 22q134 0 214.5 -63t80.5 -174q0 -55 -30.5 -99t-77.5 -65q62 -18 99.5 -68t37.5 -120q0 -127 -98 -197t-246 -70q-139 0 -242 47q-18 8 -18 26t18 69q22 56 34.5 72t29.5 10q85 -29 170 -29q52 0 83 22t31 56q0 37 -33.5 55 t-107.5 18h-35q-19 0 -25 15.5t-6 75.5v8q0 56 6.5 71t24.5 15h25q59 0 92 18.5t33 52.5q0 30 -24 47t-68 17q-71 0 -148 -51q-9 -4 -17.5 -4t-23.5 17t-35 52q-28 47 -30 67z" />
<glyph unicode="&#xb4;" horiz-adv-x="716" d="M133 1251l217 334q8 14 28 19.5t75 5.5h98q64 0 65 -17q1 -6 -6 -16l-266 -334q-19 -22 -84 -22h-78q-36 0 -47.5 6t-1.5 24z" />
<glyph unicode="&#xb5;" horiz-adv-x="1220" d="M131 78v973q0 13 6.5 18.5t35.5 8.5t95 3h11q60 0 88.5 -3t36.5 -8.5t8 -18.5v-553q0 -106 8 -150t33 -72q41 -47 135 -47q82 0 135 33q30 19 42 44t15 65q4 47 4 200v480q0 13 6.5 18.5t36 8.5t95.5 3h10q60 0 88.5 -3t36.5 -8.5t8 -18.5v-777q0 -34 13.5 -45.5 t45.5 -11.5q18 0 22.5 -14t4.5 -70v-22q0 -53 -3.5 -71.5t-14.5 -23.5q-63 -24 -144 -24q-138 0 -184 117q-51 -60 -127.5 -94.5t-167.5 -34.5q-55 0 -96 8q9 -241 37 -414q2 -10 0 -15t-14.5 -9t-38.5 -5.5t-74 -1.5h-17q-62 0 -88 2.5t-36 8t-13 20.5q-15 65 -27 202 t-12 302z" />
<glyph unicode="&#xb6;" horiz-adv-x="1255" d="M74 1034q0 201 127.5 321t357.5 120h637q11 0 14.5 -12.5t3.5 -53.5v-70q0 -39 -3.5 -51t-14.5 -12h-147v-1536q0 -21 -78 -21h-68q-80 0 -80 21v1536h-110v-1536q0 -21 -78 -21h-68q-80 0 -80 21v872q-187 7 -300 125t-113 297z" />
<glyph unicode="&#xb7;" horiz-adv-x="489" d="M70 745q0 71 50 120.5t124 49.5q76 0 126 -49.5t50 -120.5q0 -70 -50 -118.5t-126 -48.5q-74 0 -124 48.5t-50 118.5z" />
<glyph unicode="&#xb8;" horiz-adv-x="716" d="M141.5 -445.5q-1.5 12.5 8.5 54.5l6 22q10 38 18 49t27 5q47 -13 94 -13q40 0 60 16.5t20 43.5q0 61 -92 61q-63 0 -123 -8l35 242q2 13 14.5 16.5t60.5 3.5h15q54 0 69 -6t13 -25l-9 -92q99 -3 158 -50.5t59 -141.5q0 -93 -67 -157t-193 -64q-96 0 -159 26 q-13 5 -14.5 17.5z" />
<glyph unicode="&#xb9;" horiz-adv-x="901" d="M151 1407q-3 18 13 25l225 120q45 25 94 25h90q41 0 41 -18v-621h86q18 0 24.5 -17t6.5 -77v-2q0 -60 -6.5 -77t-24.5 -17h-442q-18 0 -24.5 17t-6.5 77v2q0 60 6.5 77t24.5 17h123v393l-119 -63q-16 -9 -33 3.5t-45 63.5q-30 54 -33 72z" />
<glyph unicode="&#xba;" horiz-adv-x="837" d="M82 1110q0 185 90 285t258 100q154 0 240 -91.5t86 -264.5q0 -185 -90 -285t-258 -100q-154 0 -240 91.5t-86 264.5zM293 1118q0 -194 119 -194q133 0 133 206q0 195 -119 195q-133 0 -133 -207z" />
<glyph unicode="&#xbb;" horiz-adv-x="1110" d="M92 270l215 348l-215 349q-11 19 2.5 36.5t59.5 43.5l32 18q44 25 66 26.5t33 -18.5l262 -381q22 -31 22 -67v-13q0 -36 -22 -67l-262 -381q-11 -20 -33 -18.5t-66 26.5l-32 18q-46 26 -59.5 43.5t-2.5 36.5zM543 270l215 348l-215 349q-11 19 2.5 36.5t58.5 43.5l33 18 q44 25 65.5 26.5t32.5 -18.5l262 -381q23 -33 23 -67v-13q0 -34 -23 -67l-262 -381q-11 -20 -32.5 -18.5t-65.5 26.5l-33 18q-45 26 -58.5 43.5t-2.5 36.5z" />
<glyph unicode="&#xbc;" horiz-adv-x="2007" d="M149 1304.5q-3 17.5 13 24.5l225 121q45 25 94 25h90q41 0 41 -19v-620h86q18 0 24.5 -17.5t6.5 -77.5v-2q0 -60 -6.5 -77t-24.5 -17h-442q-18 0 -24.5 17t-6.5 77v2q0 60 6.5 77.5t24.5 17.5h123v393l-119 -64q-15 -9 -32.5 4t-45.5 64q-30 54 -33 71.5zM579 17 q-2 5 3 16l645 1407q11 23 32.5 29t100.5 6h18q99 0 104 -17q2 -5 -3 -16l-645 -1407q-7 -15 -16.5 -21.5t-36.5 -10t-81 -3.5h-18q-98 0 -103 17zM1204 262v4q0 50 31 121l168 412q7 19 30.5 24.5t90.5 5.5h8q104 0 106 -21l-2 -9l-176 -432h119v102q0 18 21 24.5t83 6.5h9 q62 0 83 -6.5t21 -24.5v-102h45q18 0 24.5 -19t6.5 -80v-6q0 -59 -6 -73.5t-25 -14.5h-45v-143q0 -18 -21 -24.5t-83 -6.5h-9q-62 0 -83 6.5t-21 24.5v143h-344q-19 0 -25 14.5t-6 73.5z" />
<glyph unicode="&#xbd;" horiz-adv-x="2007" d="M149 1304.5q-3 17.5 13 24.5l225 121q45 25 94 25h90q41 0 41 -19v-620h86q18 0 24.5 -17.5t6.5 -77.5v-2q0 -60 -6.5 -77t-24.5 -17h-442q-18 0 -24.5 17t-6.5 77v2q0 60 6.5 77.5t24.5 17.5h123v393l-119 -64q-15 -9 -32.5 4t-45.5 64q-30 54 -33 71.5zM579 17 q-2 5 3 16l645 1407q11 23 32.5 29t100.5 6h18q99 0 104 -17q2 -5 -3 -16l-645 -1407q-7 -15 -16.5 -21.5t-36.5 -10t-81 -3.5h-18q-98 0 -103 17zM1269 729.5q-3 19.5 13 28.5q54 37 124 61.5t136 24.5q125 0 206 -68t81 -190q0 -192 -234 -377h211q18 0 24.5 -19.5 t6.5 -80.5v-9q0 -61 -6.5 -80.5t-24.5 -19.5h-499q-18 0 -24.5 15t-6.5 71v10q0 33 7 50.5t28 35.5q284 229 284 387q0 76 -84 76q-55 0 -135 -51q-8 -4 -17 -3t-23.5 18.5t-35.5 52.5q-28 48 -31 67.5z" />
<glyph unicode="&#xbe;" horiz-adv-x="2007" d="M181 1385.5q-2 19.5 14 27.5q52 37 125 59.5t147 22.5q134 0 214.5 -63.5t80.5 -174.5q0 -54 -31 -98t-78 -65q62 -18 100 -68.5t38 -120.5q0 -85 -47.5 -146.5t-124.5 -90.5t-173 -29q-138 0 -241 47q-18 8 -18 25.5t18 68.5q22 57 34 72.5t29 9.5q82 -28 170 -28 q52 0 83.5 21.5t31.5 55.5q0 74 -141 74h-35q-19 0 -25 15t-6 75v8q0 56 6.5 71t24.5 15h24q59 0 92 19t33 53q0 30 -24 47t-68 17q-68 0 -147 -52q-9 -4 -17.5 -3.5t-23.5 17.5t-35 52q-28 47 -30 66.5zM579 17q-2 5 3 16l645 1407q11 23 32.5 29t100.5 6h18q99 0 104 -17 q2 -5 -3 -16l-645 -1407q-7 -15 -16.5 -21.5t-36.5 -10t-81 -3.5h-18q-98 0 -103 17zM1204 262v4q0 50 31 121l168 412q7 19 30.5 24.5t90.5 5.5h8q104 0 106 -21l-2 -9l-176 -432h119v102q0 18 21 24.5t83 6.5h9q62 0 83 -6.5t21 -24.5v-102h45q18 0 24.5 -19t6.5 -80v-6 q0 -59 -6 -73.5t-25 -14.5h-45v-143q0 -18 -21 -24.5t-83 -6.5h-9q-62 0 -83 6.5t-21 24.5v143h-344q-19 0 -25 14.5t-6 73.5z" />
<glyph unicode="&#xbf;" horiz-adv-x="935" d="M66 -43q0 69 19.5 128.5t51 102.5t69.5 81t76.5 72t70.5 67.5t52.5 74.5t22.5 86q0 16 20.5 21.5t86.5 5.5h38q66 0 86.5 -5.5t20.5 -23.5v-8q0 -66 -18 -122.5t-46 -97.5t-62.5 -77.5t-69 -69t-62.5 -64.5t-46 -71.5t-18 -83.5q0 -67 43 -107t127 -40q103 0 217 74 q18 13 34.5 1t41.5 -61l29 -53q20 -37 20 -55t-22 -33q-158 -113 -354 -113q-192 0 -309.5 99.5t-118.5 271.5zM377 934q0 70 49 119t123 49t124 -49t50 -119q0 -71 -49 -120.5t-123 -49.5q-75 0 -124.5 49t-49.5 121z" />
<glyph unicode="&#xc0;" horiz-adv-x="1462" d="M29 35l546 1407q6 16 14.5 22t34 8.5t87.5 2.5h20q66 0 90.5 -2t34 -8t16.5 -23l562 -1405q2 -8 3 -13.5t-4.5 -9.5t-13 -7t-24 -4.5t-37 -2t-51.5 -0.5h-29q-91 0 -119.5 6.5t-36.5 28.5l-129 340h-544l-123 -340q-11 -23 -36.5 -29t-117.5 -6h-22q-108 0 -120 9 q-8 6 -1 26zM424 1970q-17 25 17 30l42 3h99q55 0 74.5 -5.5t27.5 -19.5l217 -333q10 -18 -1.5 -24.5t-47.5 -6.5h-78q-65 0 -84 22zM532 600h377l-47 133q-103 291 -139 420q-12 -39 -141 -414z" />
<glyph unicode="&#xc1;" horiz-adv-x="1462" d="M29 35l546 1407q6 16 14.5 22t34 8.5t87.5 2.5h20q66 0 90.5 -2t34 -8t16.5 -23l562 -1405q2 -8 3 -13.5t-4.5 -9.5t-13 -7t-24 -4.5t-37 -2t-51.5 -0.5h-29q-91 0 -119.5 6.5t-36.5 28.5l-129 340h-544l-123 -340q-11 -23 -36.5 -29t-117.5 -6h-22q-108 0 -120 9 q-8 6 -1 26zM532 600h377l-47 133q-103 291 -139 420q-12 -39 -141 -414zM545 1645l217 333q8 14 27.5 19.5t74.5 5.5h99q64 0 65 -17q1 -6 -6 -16l-266 -334q-19 -22 -84 -22h-78q-36 0 -47.5 6.5t-1.5 24.5z" />
<glyph unicode="&#xc2;" horiz-adv-x="1462" d="M29 35l546 1407q6 16 14.5 22t34 8.5t87.5 2.5h20q66 0 90.5 -2t34 -8t16.5 -23l562 -1405q2 -8 3 -13.5t-4.5 -9.5t-13 -7t-24 -4.5t-37 -2t-51.5 -0.5h-29q-91 0 -119.5 6.5t-36.5 28.5l-129 340h-544l-123 -340q-11 -23 -36.5 -29t-117.5 -6h-22q-108 0 -120 9 q-8 6 -1 26zM386.5 1721q-5.5 14 8.5 30l187 199q18 20 43.5 26t83.5 6h28q58 0 83.5 -6t43.5 -26l187 -199q14 -16 8.5 -30t-33.5 -42l-20 -20q-32 -32 -45 -37.5t-31 6.5l-207 180l-207 -180q-18 -12 -31 -6.5t-45 37.5l-20 20q-28 28 -33.5 42zM532 600h377l-47 133 q-103 291 -139 420q-12 -39 -141 -414z" />
<glyph unicode="&#xc3;" horiz-adv-x="1462" d="M29 35l546 1407q6 16 14.5 22t34 8.5t87.5 2.5h20q66 0 90.5 -2t34 -8t16.5 -23l562 -1405q2 -8 3 -13.5t-4.5 -9.5t-13 -7t-24 -4.5t-37 -2t-51.5 -0.5h-29q-91 0 -119.5 6.5t-36.5 28.5l-129 340h-544l-123 -340q-11 -23 -36.5 -29t-117.5 -6h-22q-108 0 -120 9 q-8 6 -1 26zM364.5 1765q-6.5 15 4.5 31q110 137 235 137q36 0 72.5 -11.5t61.5 -26t53 -26t49 -11.5q56 0 121 65q6 5 12.5 6t22 -9.5t38.5 -33.5l8 -8q30 -30 37 -45t-4 -31q-110 -137 -235 -137q-44 0 -89 19t-83 38t-64 19q-55 0 -121 -66q-6 -5 -12.5 -6t-22 9.5 t-38.5 33.5l-9 8q-30 30 -36.5 45zM532 600h377l-47 133q-103 291 -139 420q-12 -39 -141 -414z" />
<glyph unicode="&#xc4;" horiz-adv-x="1462" d="M29 35l546 1407q6 16 14.5 22t34 8.5t87.5 2.5h20q66 0 90.5 -2t34 -8t16.5 -23l562 -1405q2 -8 3 -13.5t-4.5 -9.5t-13 -7t-24 -4.5t-37 -2t-51.5 -0.5h-29q-91 0 -119.5 6.5t-36.5 28.5l-129 340h-544l-123 -340q-11 -23 -36.5 -29t-117.5 -6h-22q-108 0 -120 9 q-8 6 -1 26zM350 1784q0 61 43 103t107 42q65 0 107 -42t42 -103q0 -60 -42 -101t-107 -41q-64 0 -107 41.5t-43 100.5zM532 600h377l-47 133q-103 291 -139 420q-12 -39 -141 -414zM797 1784q0 61 41 103t104 42q67 0 110.5 -42t43.5 -103q0 -59 -43.5 -100.5t-110.5 -41.5 q-63 0 -104 41t-41 101z" />
<glyph unicode="&#xc5;" horiz-adv-x="1462" d="M29 35l555 1431q-44 31 -69.5 79t-25.5 102q0 93 69 158t165 65t163.5 -64.5t67.5 -158.5q0 -112 -92 -181l572 -1429q2 -8 3 -13.5t-4.5 -9.5t-13 -7t-24 -4.5t-37 -2t-51.5 -0.5h-29q-91 0 -119.5 6.5t-36.5 28.5l-129 340h-544l-123 -340q-11 -23 -36.5 -29t-117.5 -6 h-22q-108 0 -120 9q-8 6 -1 26zM532 600h377l-47 133q-103 291 -139 420q-12 -39 -141 -414zM641 1647q0 -35 24 -58.5t58 -23.5q33 0 55.5 24t22.5 58q0 33 -22.5 56t-55.5 23q-34 0 -58 -22t-24 -57z" />
<glyph unicode="&#xc6;" horiz-adv-x="2127" d="M8 21q0 5 6 14l916 1407q13 22 33.5 27.5t83.5 5.5h927q23 0 29 -17t6 -92v-16q0 -72 -7 -92.5t-28 -20.5h-622v-373h528q23 0 29 -16.5t6 -91.5v-17q0 -72 -7 -92t-28 -20h-528v-389h630q23 0 29 -17t6 -92v-16q0 -71 -6.5 -92t-28.5 -21h-841q-61 0 -74.5 5.5 t-13.5 25.5v325h-525l-202 -321q-14 -21 -43 -28t-109 -7h-51q-115 0 -115 21zM672 580h381v614q-69 -124 -179 -293z" />
<glyph unicode="&#xc7;" horiz-adv-x="1290" d="M78 723q0 355 187.5 563.5t506.5 208.5q128 0 229 -29t195 -94q26 -18 25 -34.5t-35 -73.5l-29 -47q-29 -48 -44 -57.5t-32 3.5q-139 82 -284 82q-199 0 -305.5 -133t-106.5 -381q0 -247 105 -373.5t309 -126.5q130 0 299 68q25 9 36 0t33 -53l25 -51q25 -56 26 -73 t-22 -30q-87 -46 -198.5 -77t-221.5 -35l-4 -56q99 -3 158 -50.5t59 -141.5q0 -93 -67 -157t-193 -64q-97 0 -160 26q-13 5 -14.5 17.5t8.5 54.5l6 22q10 38 18 49t27 5q47 -13 95 -13q79 0 79 60q0 61 -92 61q-63 0 -123 -8l31 207q-251 43 -388.5 233.5t-137.5 497.5z" />
<glyph unicode="&#xc8;" horiz-adv-x="1234" d="M152 31v1413q0 20 13.5 25.5t74.5 5.5h841q23 0 29 -17t6 -92v-16q0 -72 -7 -92.5t-28 -20.5h-630v-373h536q23 0 29 -16.5t6 -91.5v-17q0 -72 -7 -92t-28 -20h-536v-389h639q23 0 28.5 -16.5t5.5 -92.5v-16q0 -72 -6 -92.5t-28 -20.5h-850q-61 0 -74.5 5.5t-13.5 25.5z M352 1970q-18 25 20 31q15 2 40 2h98q55 0 74.5 -5.5t27.5 -19.5l217 -333q10 -18 -1.5 -24.5t-47.5 -6.5h-78q-65 0 -84 22z" />
<glyph unicode="&#xc9;" horiz-adv-x="1234" d="M152 31v1413q0 20 13.5 25.5t74.5 5.5h841q23 0 29 -17t6 -92v-16q0 -72 -7 -92.5t-28 -20.5h-630v-373h536q23 0 29 -16.5t6 -91.5v-17q0 -72 -7 -92t-28 -20h-536v-389h639q23 0 28.5 -16.5t5.5 -92.5v-16q0 -72 -6 -92.5t-28 -20.5h-850q-61 0 -74.5 5.5t-13.5 25.5z M473 1645l217 333q8 14 28 19.5t75 5.5h98q64 0 65 -17q1 -6 -6 -16l-266 -334q-19 -22 -84 -22h-78q-36 0 -47.5 6.5t-1.5 24.5z" />
<glyph unicode="&#xca;" horiz-adv-x="1234" d="M152 31v1413q0 20 13.5 25.5t74.5 5.5h841q23 0 29 -17t6 -92v-16q0 -72 -7 -92.5t-28 -20.5h-630v-373h536q23 0 29 -16.5t6 -91.5v-17q0 -72 -7 -92t-28 -20h-536v-389h639q23 0 28.5 -16.5t5.5 -92.5v-16q0 -72 -6 -92.5t-28 -20.5h-850q-61 0 -74.5 5.5t-13.5 25.5z M315.5 1720.5q-5.5 14.5 8.5 30.5l186 199q18 20 43.5 26t83.5 6h29q58 0 83.5 -6t43.5 -26l186 -199q14 -16 8.5 -30t-33.5 -42l-20 -20q-32 -32 -45 -37.5t-31 6.5l-207 180l-207 -180q-19 -12 -31 -6.5t-44 37.5l-21 20q-27 27 -32.5 41.5z" />
<glyph unicode="&#xcb;" horiz-adv-x="1234" d="M152 31v1413q0 20 13.5 25.5t74.5 5.5h841q23 0 29 -17t6 -92v-16q0 -72 -7 -92.5t-28 -20.5h-630v-373h536q23 0 29 -16.5t6 -91.5v-17q0 -72 -7 -92t-28 -20h-536v-389h639q23 0 28.5 -16.5t5.5 -92.5v-16q0 -72 -6 -92.5t-28 -20.5h-850q-61 0 -74.5 5.5t-13.5 25.5z M279 1784q0 61 42.5 103t106.5 42q65 0 107.5 -42t42.5 -103q0 -59 -42.5 -100.5t-107.5 -41.5q-64 0 -106.5 41.5t-42.5 100.5zM725 1784q0 61 41 103t104 42q67 0 110.5 -42t43.5 -103q0 -59 -43.5 -100.5t-110.5 -41.5q-63 0 -104 41t-41 101z" />
<glyph unicode="&#xcc;" horiz-adv-x="614" d="M8 1970q-18 25 20 31q15 2 40 2h98q55 0 74.5 -5.5t27.5 -19.5l217 -333q10 -18 -1.5 -24.5t-47.5 -6.5h-78q-65 0 -84 22zM158 31v1413q0 22 20.5 26.5t114.5 4.5h24q94 0 117 -5t23 -26v-1413q0 -21 -23 -26t-117 -5h-24q-94 0 -114.5 4.5t-20.5 26.5z" />
<glyph unicode="&#xcd;" horiz-adv-x="614" d="M129 1645l217 333q8 14 28 19.5t75 5.5h98q64 0 65 -17q1 -6 -6 -16l-266 -334q-19 -22 -84 -22h-78q-36 0 -47.5 6.5t-1.5 24.5zM158 31v1413q0 22 20.5 26.5t114.5 4.5h24q94 0 117 -5t23 -26v-1413q0 -21 -23 -26t-117 -5h-24q-94 0 -114.5 4.5t-20.5 26.5z" />
<glyph unicode="&#xce;" horiz-adv-x="614" d="M-28.5 1720.5q-5.5 14.5 8.5 30.5l186 199q18 20 43.5 26t83.5 6h29q58 0 83.5 -6t43.5 -26l186 -199q14 -16 8.5 -30t-33.5 -42l-20 -20q-32 -32 -45 -37.5t-31 6.5l-207 180l-207 -180q-19 -12 -31 -6.5t-44 37.5l-21 20q-27 27 -32.5 41.5zM158 31v1413 q0 22 20.5 26.5t114.5 4.5h24q94 0 117 -5t23 -26v-1413q0 -21 -23 -26t-117 -5h-24q-94 0 -114.5 4.5t-20.5 26.5z" />
<glyph unicode="&#xcf;" horiz-adv-x="614" d="M-66 1784q0 61 43 103t107 42q65 0 107 -42t42 -103q0 -60 -42 -101t-107 -41q-64 0 -107 41.5t-43 100.5zM158 31v1413q0 22 20.5 26.5t114.5 4.5h24q94 0 117 -5t23 -26v-1413q0 -21 -23 -26t-117 -5h-24q-94 0 -114.5 4.5t-20.5 26.5zM381 1784q0 61 41 103t104 42 q67 0 110.5 -42t43.5 -103q0 -59 -43.5 -100.5t-110.5 -41.5q-63 0 -104 41t-41 101z" />
<glyph unicode="&#xd0;" horiz-adv-x="1488" d="M12 735v21q0 64 6.5 83t22.5 19h131v586q0 20 13.5 25.5t74.5 5.5h338q219 0 365.5 -44t244.5 -139t150.5 -237.5t52.5 -313.5q0 -191 -62.5 -343t-170.5 -244q-95 -81 -231 -117.5t-339 -36.5h-348q-61 0 -74.5 5.5t-13.5 25.5v602h-131q-16 0 -22.5 19t-6.5 83z M471 238h131q245 0 361 96q143 121 143 405q0 249 -111 369q-120 129 -385 129h-139v-379h197q16 0 22 -19t6 -83v-21q0 -64 -6 -83t-22 -19h-197v-395z" />
<glyph unicode="&#xd1;" horiz-adv-x="1536" d="M152 31v1413q0 22 16 26.5t98 4.5h13q87 0 107.5 -4.5t37.5 -28.5l405 -561q201 -279 289 -445q-10 212 -10 504v504q0 22 20 26.5t109 4.5h16q88 0 109.5 -5t21.5 -26v-1413q0 -12 -1.5 -16.5t-13.5 -9t-33.5 -5t-65.5 -0.5h-15q-81 0 -103.5 5.5t-37.5 27.5l-405 561 q-199 273 -289 426q10 -176 10 -485v-504q0 -22 -20 -26.5t-109 -4.5h-14q-95 0 -115 4.5t-20 26.5zM412 1765q-7 15 4 31q110 137 235 137q36 0 72.5 -11.5t61.5 -26t53 -26t49 -11.5q56 0 121 65q6 5 12.5 6t22 -9.5t38.5 -33.5l9 -8q30 -30 36.5 -45t-4.5 -31 q-110 -137 -235 -137q-44 0 -89 19t-83 38t-64 19q-55 0 -121 -66q-6 -5 -12.5 -6t-22 9.5t-38.5 33.5l-8 8q-30 30 -37 45z" />
<glyph unicode="&#xd2;" horiz-adv-x="1533" d="M78 717q0 239 79 412.5t240.5 269.5t393.5 96q324 0 494.5 -189t170.5 -548q0 -363 -183.5 -570.5t-529.5 -207.5q-324 0 -494.5 189t-170.5 548zM385 725q0 -251 90 -374.5t275 -123.5q195 0 297 134t102 389q0 251 -90.5 374t-274.5 123q-196 0 -297.5 -132.5 t-101.5 -389.5zM492 1970q-17 25 17 30l42 3h98q55 0 75 -5.5t28 -19.5l217 -333q10 -18 -1.5 -24.5t-47.5 -6.5h-78q-65 0 -84 22z" />
<glyph unicode="&#xd3;" horiz-adv-x="1533" d="M78 717q0 239 79 412.5t240.5 269.5t393.5 96q324 0 494.5 -189t170.5 -548q0 -363 -183.5 -570.5t-529.5 -207.5q-324 0 -494.5 189t-170.5 548zM385 725q0 -251 90 -374.5t275 -123.5q195 0 297 134t102 389q0 251 -90.5 374t-274.5 123q-196 0 -297.5 -132.5 t-101.5 -389.5zM612 1645l217 333q8 14 28 19.5t75 5.5h98q65 0 66 -17q0 -7 -6 -16l-267 -334q-19 -22 -84 -22h-77q-36 0 -48 6.5t-2 24.5z" />
<glyph unicode="&#xd4;" horiz-adv-x="1533" d="M78 717q0 239 79 412.5t240.5 269.5t393.5 96q324 0 494.5 -189t170.5 -548q0 -363 -183.5 -570.5t-529.5 -207.5q-324 0 -494.5 189t-170.5 548zM385 725q0 -251 90 -374.5t275 -123.5q195 0 297 134t102 389q0 251 -90.5 374t-274.5 123q-196 0 -297.5 -132.5 t-101.5 -389.5zM454.5 1720.5q-5.5 14.5 8.5 30.5l186 199q18 20 43.5 26t83.5 6h29q58 0 83.5 -6t43.5 -26l186 -199q14 -16 8.5 -30.5t-32.5 -41.5l-21 -20q-32 -32 -45 -37.5t-31 6.5l-206 180l-207 -180q-18 -12 -31 -6.5t-45 37.5l-21 20q-27 27 -32.5 41.5z" />
<glyph unicode="&#xd5;" horiz-adv-x="1533" d="M78 717q0 239 79 412.5t240.5 269.5t393.5 96q324 0 494.5 -189t170.5 -548q0 -363 -183.5 -570.5t-529.5 -207.5q-324 0 -494.5 189t-170.5 548zM385 725q0 -251 90 -374.5t275 -123.5q195 0 297 134t102 389q0 251 -90.5 374t-274.5 123q-196 0 -297.5 -132.5 t-101.5 -389.5zM432 1765q-7 15 4 31q110 137 236 137q45 0 90.5 -18.5t82.5 -37.5t62 -19q56 0 121 65q18 19 74 -37l8 -8q30 -30 37 -45t-4 -31q-110 -137 -236 -137q-44 0 -89 19t-82.5 38t-63.5 19q-55 0 -121 -66q-19 -19 -74 37l-8 8q-30 30 -37 45z" />
<glyph unicode="&#xd6;" horiz-adv-x="1533" d="M78 717q0 239 79 412.5t240.5 269.5t393.5 96q324 0 494.5 -189t170.5 -548q0 -363 -183.5 -570.5t-529.5 -207.5q-324 0 -494.5 189t-170.5 548zM385 725q0 -251 90 -374.5t275 -123.5q195 0 297 134t102 389q0 251 -90.5 374t-274.5 123q-196 0 -297.5 -132.5 t-101.5 -389.5zM418 1784q0 61 42.5 103t106.5 42q65 0 107.5 -42t42.5 -103q0 -59 -42.5 -100.5t-107.5 -41.5q-64 0 -106.5 41.5t-42.5 100.5zM864 1784q0 61 41 103t105 42q67 0 110 -42t43 -103q0 -59 -43.5 -100.5t-109.5 -41.5q-64 0 -105 41t-41 101z" />
<glyph unicode="&#xd7;" d="M182.5 431q-10.5 19 1.5 28l254 252l-254 254q-12 9 -1.5 28t55.5 64l20 20q31 32 49 46t27 14t16 -7l254 -253l254 256q9 12 28 1.5t64 -55.5l21 -20q32 -31 46 -49t14 -27t-7 -16l-256 -256l256 -254q7 -7 7 -16t-14 -27t-46 -49l-21 -21q-45 -45 -64.5 -55.5 t-27.5 2.5l-254 256l-254 -254q-7 -7 -16 -7t-27 14t-49 46l-20 21q-45 45 -55.5 64z" />
<glyph unicode="&#xd8;" horiz-adv-x="1533" d="M78 717q0 239 79 412.5t240.5 269.5t393.5 96q135 0 245 -35l64 117q12 22 33 22t67 -24l21 -10q56 -28 68 -42t-1 -32l-67 -125q235 -185 235 -608q0 -363 -183.5 -570.5t-529.5 -207.5q-149 0 -258 36l-65 -120q-12 -23 -31 -22.5t-70 26.5l-20 10q-53 27 -65 40t-3 32 l74 133q-227 186 -227 602zM385 725q0 -217 68 -338l458 842q-58 18 -127 18q-196 0 -297.5 -132.5t-101.5 -389.5zM612 248q58 -21 138 -21q195 0 297 134t102 389q0 226 -74 350z" />
<glyph unicode="&#xd9;" horiz-adv-x="1509" d="M145 555v889q0 11 3.5 16.5t19 9t40 4.5t73.5 1h24q88 0 112.5 -5.5t24.5 -25.5v-887q0 -171 75 -250.5t239 -79.5t240.5 80t76.5 250v887q0 21 22 26t113 5h19q88 0 112.5 -5.5t24.5 -25.5v-889q0 -297 -145.5 -436t-462.5 -139t-464 139t-147 436zM455 1970 q-17 25 17 30l42 3h98q55 0 75 -5.5t28 -19.5l217 -333q10 -18 -1.5 -24.5t-47.5 -6.5h-78q-65 0 -84 22z" />
<glyph unicode="&#xda;" horiz-adv-x="1509" d="M145 555v889q0 11 3.5 16.5t19 9t40 4.5t73.5 1h24q88 0 112.5 -5.5t24.5 -25.5v-887q0 -171 75 -250.5t239 -79.5t240.5 80t76.5 250v887q0 21 22 26t113 5h19q88 0 112.5 -5.5t24.5 -25.5v-889q0 -297 -145.5 -436t-462.5 -139t-464 139t-147 436zM575 1645l218 333 q8 14 27.5 19.5t74.5 5.5h98q65 0 66 -17q0 -7 -6 -16l-267 -334q-19 -22 -84 -22h-77q-36 0 -48 6.5t-2 24.5z" />
<glyph unicode="&#xdb;" horiz-adv-x="1509" d="M145 555v889q0 11 3.5 16.5t19 9t40 4.5t73.5 1h24q88 0 112.5 -5.5t24.5 -25.5v-887q0 -171 75 -250.5t239 -79.5t240.5 80t76.5 250v887q0 21 22 26t113 5h19q88 0 112.5 -5.5t24.5 -25.5v-889q0 -297 -145.5 -436t-462.5 -139t-464 139t-147 436zM417.5 1721 q-5.5 14 8.5 30l186 199q18 20 43.5 26t83.5 6h29q58 0 83.5 -6t43.5 -26l186 -199q14 -16 8.5 -30.5t-32.5 -41.5l-21 -20q-32 -32 -44 -37.5t-31 6.5l-207 180l-207 -180q-18 -12 -31 -6.5t-45 37.5l-20 20q-28 28 -33.5 42z" />
<glyph unicode="&#xdc;" horiz-adv-x="1509" d="M145 555v889q0 11 3.5 16.5t19 9t40 4.5t73.5 1h24q88 0 112.5 -5.5t24.5 -25.5v-887q0 -171 75 -250.5t239 -79.5t240.5 80t76.5 250v887q0 21 22 26t113 5h19q88 0 112.5 -5.5t24.5 -25.5v-889q0 -297 -145.5 -436t-462.5 -139t-464 139t-147 436zM381 1784 q0 61 42.5 103t106.5 42q65 0 107.5 -42t42.5 -103q0 -59 -42.5 -100.5t-107.5 -41.5q-64 0 -106.5 41.5t-42.5 100.5zM827 1784q0 61 41 103t105 42q67 0 110 -42t43 -103q0 -59 -43.5 -100.5t-109.5 -41.5q-63 0 -104.5 41t-41.5 101z" />
<glyph unicode="&#xdd;" horiz-adv-x="1320" d="M33 1440q-10 20 21 28q31 7 110 7h47q92 0 117.5 -5.5t36.5 -27.5l174 -332q99 -189 141 -293q53 130 135 299l162 324q11 24 32.5 29.5t106.5 5.5h62q102 0 109 -16q4 -6 -3 -19l-477 -867v-542q0 -21 -22.5 -26t-116.5 -5h-25q-94 0 -114.5 4.5t-20.5 26.5v542z M494 1645l217 333q8 14 27.5 19.5t74.5 5.5h98q65 0 66 -17q0 -7 -6 -16l-266 -334q-19 -22 -84 -22h-78q-36 0 -47.5 6.5t-1.5 24.5z" />
<glyph unicode="&#xde;" horiz-adv-x="1267" d="M152 31v1413q0 22 20.5 26.5t114.5 4.5h24q94 0 117 -5t23 -26v-240h67q132 0 232 -13t184 -44.5t137.5 -84t83 -133.5t29.5 -190q0 -233 -153 -361t-433 -128q-81 0 -147 4v-223q0 -21 -23 -26t-117 -5h-24q-94 0 -114.5 4.5t-20.5 26.5zM451 492q51 -7 129 -7 q150 0 227.5 64t77.5 190q0 116 -81.5 172t-246.5 56h-106v-475z" />
<glyph unicode="&#xdf;" horiz-adv-x="1409" d="M135 31v999q0 263 146 406q144 141 397 141q219 0 362.5 -103t143.5 -266q0 -69 -31.5 -128t-77 -99t-90.5 -74.5t-76.5 -68.5t-31.5 -66q0 -30 25.5 -52.5t66 -39t90 -33t99 -40.5t90 -56.5t66 -86.5t25.5 -124q0 -86 -36.5 -156t-98.5 -113.5t-139.5 -67t-163.5 -23.5 q-229 0 -371 122q-13 9 -9 29.5t28 63.5l20 36q27 47 43 61.5t33 2.5q133 -88 252 -88q82 0 125 26.5t43 69.5q0 30 -26 53t-68 39.5t-92.5 33.5t-100.5 41.5t-92 57t-68 85.5t-26 122q0 59 22.5 109.5t56 83t73 66t73 60.5t56 65t22.5 81q0 69 -59 110.5t-156 41.5 q-114 0 -182 -68q-82 -85 -82 -270v-983q0 -13 -8 -18.5t-36.5 -9t-88.5 -3.5h-11q-65 0 -94.5 3.5t-36 9t-6.5 18.5z" />
<glyph unicode="&#xe0;" horiz-adv-x="1181" d="M76 520q0 136 36 247.5t98 184t143.5 111.5t174.5 39q81 0 151.5 -34t106.5 -87l9 74q1 10 7.5 15t32.5 8t80 3h13q77 0 98 -5t21 -23q0 -21 -2.5 -184t-2.5 -259v-125q0 -240 15 -448q2 -24 -16 -30.5t-101 -6.5h-10q-75 0 -97 5t-28 22q-4 9 -14 69q-45 -52 -123.5 -84 t-157.5 -32q-201 0 -317.5 144t-116.5 396zM293 1577q-17 25 17 30l42 3h99q55 0 74.5 -5.5t27.5 -19.5l217 -334q10 -18 -1.5 -24t-47.5 -6h-78q-65 0 -84 22zM365 528q0 -149 49 -231t166 -82q49 0 90 16.5t63 44.5q29 37 29 115v369q-30 45 -77.5 71.5t-100.5 26.5 q-219 0 -219 -330z" />
<glyph unicode="&#xe1;" horiz-adv-x="1181" d="M76 520q0 136 36 247.5t98 184t143.5 111.5t174.5 39q81 0 151.5 -34t106.5 -87l9 74q1 10 7.5 15t32.5 8t80 3h13q77 0 98 -5t21 -23q0 -21 -2.5 -184t-2.5 -259v-125q0 -240 15 -448q2 -24 -16 -30.5t-101 -6.5h-10q-75 0 -97 5t-28 22q-4 9 -14 69q-45 -52 -123.5 -84 t-157.5 -32q-201 0 -317.5 144t-116.5 396zM365 528q0 -149 49 -231t166 -82q49 0 90 16.5t63 44.5q29 37 29 115v369q-30 45 -77.5 71.5t-100.5 26.5q-219 0 -219 -330zM373 1251l217 334q8 14 27.5 19.5t74.5 5.5h99q64 0 65 -17q1 -6 -6 -16l-266 -334q-19 -22 -84 -22 h-78q-36 0 -47.5 6t-1.5 24z" />
<glyph unicode="&#xe2;" horiz-adv-x="1181" d="M76 520q0 136 36 247.5t98 184t143.5 111.5t174.5 39q81 0 151.5 -34t106.5 -87l9 74q1 10 7.5 15t32.5 8t80 3h13q77 0 98 -5t21 -23q0 -21 -2.5 -184t-2.5 -259v-125q0 -240 15 -448q2 -24 -16 -30.5t-101 -6.5h-10q-75 0 -97 5t-28 22q-4 9 -14 69q-45 -52 -123.5 -84 t-157.5 -32q-201 0 -317.5 144t-116.5 396zM235.5 1327.5q-5.5 14.5 8.5 30.5l186 198q19 20 44 26.5t83 6.5h29q58 0 83 -6.5t44 -26.5l186 -198q14 -16 8.5 -30t-33.5 -42l-20 -20q-32 -32 -45 -37.5t-31 6.5l-207 180l-206 -180q-18 -12 -31 -6.5t-45 37.5l-21 20 q-27 27 -32.5 41.5zM365 528q0 -149 49 -231t166 -82q49 0 90 16.5t63 44.5q29 37 29 115v369q-30 45 -77.5 71.5t-100.5 26.5q-219 0 -219 -330z" />
<glyph unicode="&#xe3;" horiz-adv-x="1181" d="M76 520q0 136 36 247.5t98 184t143.5 111.5t174.5 39q81 0 151.5 -34t106.5 -87l9 74q1 10 7.5 15t32.5 8t80 3h13q77 0 98 -5t21 -23q0 -21 -2.5 -184t-2.5 -259v-125q0 -240 15 -448q2 -24 -16 -30.5t-101 -6.5h-10q-75 0 -97 5t-28 22q-4 9 -14 69q-45 -52 -123.5 -84 t-157.5 -32q-201 0 -317.5 144t-116.5 396zM213 1370q-7 15 4 31q110 137 236 137q45 0 90.5 -19t82.5 -38t62 -19q55 0 121 66q19 18 74 -37l8 -8q30 -30 37 -45t-4 -31q-110 -137 -236 -137q-44 0 -89 19t-82.5 38t-63.5 19q-55 0 -121 -66q-6 -4 -13 -5.5t-22.5 9 t-38.5 33.5l-8 8q-30 30 -37 45zM365 528q0 -149 49 -231t166 -82q49 0 90 16.5t63 44.5q29 37 29 115v369q-30 45 -77.5 71.5t-100.5 26.5q-219 0 -219 -330z" />
<glyph unicode="&#xe4;" horiz-adv-x="1181" d="M76 520q0 136 36 247.5t98 184t143.5 111.5t174.5 39q81 0 151.5 -34t106.5 -87l9 74q1 10 7.5 15t32.5 8t80 3h13q77 0 98 -5t21 -23q0 -21 -2.5 -184t-2.5 -259v-125q0 -240 15 -448q2 -24 -16 -30.5t-101 -6.5h-10q-75 0 -97 5t-28 22q-4 9 -14 69q-45 -52 -123.5 -84 t-157.5 -32q-201 0 -317.5 144t-116.5 396zM199 1391q0 61 42.5 103t106.5 42q65 0 107.5 -42t42.5 -103q0 -59 -42.5 -100.5t-107.5 -41.5q-64 0 -106.5 41.5t-42.5 100.5zM365 528q0 -149 49 -231t166 -82q49 0 90 16.5t63 44.5q29 37 29 115v369q-30 45 -77.5 71.5 t-100.5 26.5q-219 0 -219 -330zM645 1391q0 61 41 103t105 42q67 0 110 -42t43 -103q0 -59 -43.5 -100.5t-109.5 -41.5q-63 0 -104.5 41.5t-41.5 100.5z" />
<glyph unicode="&#xe5;" horiz-adv-x="1181" d="M76 520q0 136 36 247.5t98 184t143.5 111.5t174.5 39q81 0 151.5 -34t106.5 -87l9 74q1 10 7.5 15t32.5 8t80 3h13q77 0 98 -5t21 -23q0 -21 -2.5 -184t-2.5 -259v-125q0 -240 15 -448q2 -24 -16 -30.5t-101 -6.5h-10q-75 0 -97 5t-28 22q-4 9 -14 69q-45 -52 -123.5 -84 t-157.5 -32q-201 0 -317.5 144t-116.5 396zM338 1436q0 93 68.5 158t164.5 65t164 -64.5t68 -158.5q0 -95 -68 -160.5t-164 -65.5t-164.5 66.5t-68.5 159.5zM365 528q0 -149 49 -231t166 -82q49 0 90 16.5t63 44.5q29 37 29 115v369q-30 45 -77.5 71.5t-100.5 26.5 q-219 0 -219 -330zM489 1436q0 -35 24 -58.5t58 -23.5q33 0 55.5 24t22.5 58q0 33 -22.5 56.5t-55.5 23.5q-34 0 -58 -22.5t-24 -57.5z" />
<glyph unicode="&#xe6;" horiz-adv-x="1775" d="M70 330q0 170 118.5 260t319.5 90q98 0 203 -33v58q0 169 -195 169q-136 0 -280 -67q-21 -9 -35 3.5t-35 61.5l-12 29q-20 46 -22.5 63.5t11.5 26.5q81 51 192.5 81t209.5 30q231 0 342 -117q133 117 327 117q152 0 260 -72t161 -194.5t53 -284.5q0 -60 -4.5 -83.5 t-16.5 -23.5h-663q17 -110 85.5 -167.5t184.5 -57.5q133 0 289 66q17 8 27.5 -3.5t27.5 -56.5l18 -51q18 -53 17.5 -69t-19.5 -27q-79 -44 -185.5 -71t-211.5 -27q-249 0 -387 147q-74 -69 -176 -108t-219 -39q-177 0 -283 100q-102 95 -102 250zM350 338q0 -63 48.5 -95 t113.5 -32q68 0 130 24.5t103 65.5q-24 68 -30 145q-92 29 -174 29q-88 0 -139.5 -34t-51.5 -103zM1004 645h403q-9 100 -58 160.5t-132 60.5t-137.5 -58t-75.5 -163z" />
<glyph unicode="&#xe7;" horiz-adv-x="1021" d="M76 532q0 269 149 424q143 146 385 146q97 0 187.5 -32t160.5 -89q17 -14 14 -32t-30 -70l-20 -39q-19 -35 -32.5 -51.5t-23 -16t-18.5 5.5q-116 80 -227 80q-112 0 -184 -77.5t-72 -233.5q0 -157 68 -240.5t200 -83.5q101 0 227 60q19 9 29.5 -3t36.5 -73l12 -29 q22 -51 23.5 -70.5t-13.5 -25.5q-146 -96 -330 -102l-4 -56q99 -3 158 -50.5t59 -141.5q0 -93 -67 -157t-193 -64q-96 0 -159 26q-13 5 -14.5 17.5t8.5 54.5l6 22q10 38 18 49t27 5q47 -13 94 -13q40 0 60 16.5t20 43.5q0 61 -92 61q-63 0 -123 -8l30 211q-123 27 -208 106 q-162 150 -162 430z" />
<glyph unicode="&#xe8;" horiz-adv-x="1140" d="M76 528q0 168 60 297.5t175 203t269 73.5q152 0 260 -72t160.5 -194.5t52.5 -284.5q0 -60 -4.5 -83.5t-16.5 -23.5h-663q17 -110 85.5 -167.5t184.5 -57.5q133 0 289 66q17 8 27.5 -3.5t27.5 -56.5l18 -51q18 -53 17.5 -69t-19.5 -27q-79 -44 -185.5 -71t-211.5 -27 q-244 0 -385 144.5t-141 403.5zM303 1577q-17 25 17 30l42 3h99q55 0 74.5 -5.5t27.5 -19.5l217 -334q10 -18 -1.5 -24t-47.5 -6h-78q-65 0 -84 22zM369 645h403q-9 100 -58 160.5t-132 60.5t-137.5 -58t-75.5 -163z" />
<glyph unicode="&#xe9;" horiz-adv-x="1140" d="M76 528q0 168 60 297.5t175 203t269 73.5q152 0 260 -72t160.5 -194.5t52.5 -284.5q0 -60 -4.5 -83.5t-16.5 -23.5h-663q17 -110 85.5 -167.5t184.5 -57.5q133 0 289 66q17 8 27.5 -3.5t27.5 -56.5l18 -51q18 -53 17.5 -69t-19.5 -27q-79 -44 -185.5 -71t-211.5 -27 q-244 0 -385 144.5t-141 403.5zM369 645h403q-9 100 -58 160.5t-132 60.5t-137.5 -58t-75.5 -163zM383 1251l217 334q8 14 27.5 19.5t74.5 5.5h99q64 0 65 -17q1 -6 -6 -16l-266 -334q-19 -22 -84 -22h-78q-36 0 -47.5 6t-1.5 24z" />
<glyph unicode="&#xea;" horiz-adv-x="1140" d="M76 528q0 168 60 297.5t175 203t269 73.5q152 0 260 -72t160.5 -194.5t52.5 -284.5q0 -60 -4.5 -83.5t-16.5 -23.5h-663q17 -110 85.5 -167.5t184.5 -57.5q133 0 289 66q17 8 27.5 -3.5t27.5 -56.5l18 -51q18 -53 17.5 -69t-19.5 -27q-79 -44 -185.5 -71t-211.5 -27 q-244 0 -385 144.5t-141 403.5zM245.5 1328q-5.5 14 8.5 30l186 198q19 20 44 26.5t83 6.5h29q58 0 83 -6.5t44 -26.5l186 -198q14 -16 8.5 -30.5t-32.5 -41.5l-21 -20q-32 -32 -45 -37.5t-31 6.5l-206 180l-207 -180q-18 -12 -31 -6.5t-45 37.5l-20 20q-28 28 -33.5 42z M369 645h403q-9 100 -58 160.5t-132 60.5t-137.5 -58t-75.5 -163z" />
<glyph unicode="&#xeb;" horiz-adv-x="1140" d="M76 528q0 168 60 297.5t175 203t269 73.5q152 0 260 -72t160.5 -194.5t52.5 -284.5q0 -60 -4.5 -83.5t-16.5 -23.5h-663q17 -110 85.5 -167.5t184.5 -57.5q133 0 289 66q17 8 27.5 -3.5t27.5 -56.5l18 -51q18 -53 17.5 -69t-19.5 -27q-79 -44 -185.5 -71t-211.5 -27 q-244 0 -385 144.5t-141 403.5zM209 1391q0 61 42.5 103t106.5 42q65 0 107.5 -42t42.5 -103q0 -59 -42.5 -100.5t-107.5 -41.5q-64 0 -106.5 41.5t-42.5 100.5zM369 645h403q-9 100 -58 160.5t-132 60.5t-137.5 -58t-75.5 -163zM655 1391q0 61 41 103t105 42q67 0 110 -42 t43 -103q0 -59 -43.5 -100.5t-109.5 -41.5q-63 0 -104.5 41.5t-41.5 100.5z" />
<glyph unicode="&#xec;" horiz-adv-x="567" d="M6 1577q-18 25 20 31q15 2 40 2h98q55 0 74.5 -5.5t27.5 -19.5l217 -334q10 -18 -1.5 -24t-47.5 -6h-78q-65 0 -84 22zM143 31v1020q0 13 6.5 18.5t36 8.5t95.5 3h10q60 0 88.5 -3t36.5 -8.5t8 -18.5v-1020q0 -13 -8 -18.5t-36.5 -9t-88.5 -3.5h-10q-66 0 -95.5 3.5 t-36 9t-6.5 18.5z" />
<glyph unicode="&#xed;" horiz-adv-x="567" d="M86 1251l217 334q8 14 28 19.5t75 5.5h98q64 0 65 -17q1 -6 -6 -16l-266 -334q-19 -22 -84 -22h-78q-36 0 -47.5 6t-1.5 24zM143 31v1020q0 13 6.5 18.5t36 8.5t95.5 3h10q60 0 88.5 -3t36.5 -8.5t8 -18.5v-1020q0 -13 -8 -18.5t-36.5 -9t-88.5 -3.5h-10q-66 0 -95.5 3.5 t-36 9t-6.5 18.5z" />
<glyph unicode="&#xee;" horiz-adv-x="567" d="M-51.5 1328q-5.5 14 8.5 30l186 198q19 20 44 26.5t83 6.5h29q58 0 83 -6.5t44 -26.5l186 -198q14 -16 8.5 -30.5t-32.5 -41.5l-21 -20q-32 -32 -44 -37.5t-31 6.5l-207 180l-207 -180q-18 -12 -31 -6.5t-45 37.5l-20 20q-28 28 -33.5 42zM143 31v1020q0 13 6.5 18.5 t36 8.5t95.5 3h10q60 0 88.5 -3t36.5 -8.5t8 -18.5v-1020q0 -13 -8 -18.5t-36.5 -9t-88.5 -3.5h-10q-66 0 -95.5 3.5t-36 9t-6.5 18.5z" />
<glyph unicode="&#xef;" horiz-adv-x="567" d="M-88 1391q0 61 42.5 103t106.5 42q65 0 107.5 -42t42.5 -103q0 -59 -42.5 -100.5t-107.5 -41.5q-64 0 -106.5 41.5t-42.5 100.5zM143 31v1020q0 13 6.5 18.5t36 8.5t95.5 3h10q60 0 88.5 -3t36.5 -8.5t8 -18.5v-1020q0 -13 -8 -18.5t-36.5 -9t-88.5 -3.5h-10 q-66 0 -95.5 3.5t-36 9t-6.5 18.5zM358 1391q0 61 41 103t105 42q67 0 110 -42t43 -103q0 -59 -43.5 -100.5t-109.5 -41.5q-64 0 -105 41.5t-41 100.5z" />
<glyph unicode="&#xf0;" horiz-adv-x="1196" d="M76 512q0 122 38 222t102 165t147.5 100t175.5 35q114 0 200 -49q-44 95 -94 162l-215 -57q-12 -3 -19.5 7.5t-19.5 49.5l-8 29q-10 34 -9.5 46.5t13.5 16.5l141 39q-57 52 -145 104q-30 17 25 97l26 39q28 40 44.5 48.5t37.5 -3.5q173 -86 293 -209l240 65 q13 3 19.5 -6.5t18.5 -50.5l9 -29q9 -34 8.5 -47t-12.5 -16l-172 -47q182 -256 182 -588q0 -299 -138 -477t-403 -178q-223 0 -354 145.5t-131 386.5zM362 506q0 -143 56.5 -218t154.5 -75q126 0 181 102.5t55 333.5q0 43 -6 90q-98 72 -205 72q-112 0 -174 -78t-62 -227z " />
<glyph unicode="&#xf1;" horiz-adv-x="1206" d="M125 1044q-2 23 18.5 30t104.5 7h10q76 0 98.5 -4.5t28.5 -21.5t14 -82q51 59 128.5 94t168.5 35q188 0 285 -111q51 -57 73.5 -134.5t22.5 -194.5v-631q0 -13 -8 -18.5t-36.5 -9t-88.5 -3.5h-10q-65 0 -94.5 3.5t-36 9t-6.5 18.5v553q0 106 -8 149.5t-33 71.5 q-41 47 -138 47q-84 0 -137 -33q-30 -19 -42 -43.5t-15 -64.5q-4 -47 -4 -201v-479q0 -13 -8 -18.5t-36.5 -9t-88.5 -3.5h-11q-65 0 -94.5 3.5t-36 9t-6.5 18.5v565q0 254 -14 448zM299 1370q-7 15 4 31q110 137 236 137q45 0 90.5 -19t82.5 -38t62 -19q55 0 121 66 q19 18 74 -37l8 -8q30 -30 37 -45t-4 -31q-110 -137 -236 -137q-44 0 -89 19t-82.5 38t-63.5 19q-55 0 -121 -66q-6 -4 -13 -5.5t-22.5 9t-38.5 33.5l-8 8q-30 30 -37 45z" />
<glyph unicode="&#xf2;" horiz-adv-x="1169" d="M76 520q0 280 135.5 431t390.5 151q232 0 362 -139.5t130 -401.5q0 -279 -136 -430t-391 -151q-232 0 -361.5 139t-129.5 401zM319 1577q-18 25 20 31q15 2 40 2h98q55 0 75 -5.5t28 -19.5l217 -334q10 -18 -1.5 -24t-47.5 -6h-78q-65 0 -84 22zM365 532q0 -311 208 -311 q232 0 232 328q0 311 -209 311q-231 0 -231 -328z" />
<glyph unicode="&#xf3;" horiz-adv-x="1169" d="M76 520q0 280 135.5 431t390.5 151q232 0 362 -139.5t130 -401.5q0 -279 -136 -430t-391 -151q-232 0 -361.5 139t-129.5 401zM365 532q0 -311 208 -311q232 0 232 328q0 311 -209 311q-231 0 -231 -328zM399 1251l217 334q8 14 28 19.5t75 5.5h98q65 0 66 -17 q0 -7 -6 -16l-267 -334q-19 -22 -84 -22h-77q-36 0 -48 6t-2 24z" />
<glyph unicode="&#xf4;" horiz-adv-x="1169" d="M76 520q0 280 135.5 431t390.5 151q232 0 362 -139.5t130 -401.5q0 -279 -136 -430t-391 -151q-232 0 -361.5 139t-129.5 401zM261.5 1328q-5.5 14 8.5 30l187 198q19 20 44 26.5t83 6.5h28q58 0 83 -6.5t44 -26.5l187 -198q14 -16 8.5 -30t-33.5 -42l-20 -20 q-32 -32 -45 -37.5t-31 6.5l-207 180l-207 -180q-18 -12 -31 -6.5t-45 37.5l-20 20q-28 28 -33.5 42zM365 532q0 -311 208 -311q232 0 232 328q0 311 -209 311q-231 0 -231 -328z" />
<glyph unicode="&#xf5;" horiz-adv-x="1169" d="M76 520q0 280 135.5 431t390.5 151q232 0 362 -139.5t130 -401.5q0 -279 -136 -430t-391 -151q-232 0 -361.5 139t-129.5 401zM239.5 1370q-6.5 15 4.5 31q110 137 235 137q45 0 91 -19t83 -38t62 -19q55 0 121 66q6 5 12.5 6t22 -9.5t38.5 -33.5l9 -8q30 -30 36.5 -45 t-4.5 -31q-110 -137 -235 -137q-44 0 -89 19t-83 38t-64 19q-55 0 -121 -66q-6 -5 -12.5 -6t-22 9.5t-38.5 33.5l-9 8q-30 30 -36.5 45zM365 532q0 -311 208 -311q232 0 232 328q0 311 -209 311q-231 0 -231 -328z" />
<glyph unicode="&#xf6;" horiz-adv-x="1169" d="M76 520q0 280 135.5 431t390.5 151q232 0 362 -139.5t130 -401.5q0 -279 -136 -430t-391 -151q-232 0 -361.5 139t-129.5 401zM225 1391q0 61 43 103t107 42q65 0 107 -42t42 -103q0 -60 -42 -101t-107 -41q-64 0 -107 41.5t-43 100.5zM365 532q0 -311 208 -311 q232 0 232 328q0 311 -209 311q-231 0 -231 -328zM672 1391q0 61 41 103t104 42q67 0 110.5 -42t43.5 -103q0 -59 -43.5 -100.5t-110.5 -41.5q-63 0 -104 41t-41 101z" />
<glyph unicode="&#xf7;" d="M98 698v29q0 64 6.5 83t22.5 19h952q16 0 22.5 -19t6.5 -83v-29q0 -64 -6.5 -83t-22.5 -19h-952q-16 0 -22.5 19t-6.5 83zM424 262q0 71 50 120.5t124 49.5q76 0 126 -49.5t50 -120.5q0 -70 -50 -119t-126 -49q-74 0 -124 49t-50 119zM424 1161q0 71 50 120.5t124 49.5 q76 0 126 -49.5t50 -120.5q0 -70 -50 -119t-126 -49q-74 0 -124 49t-50 119z" />
<glyph unicode="&#xf8;" horiz-adv-x="1169" d="M76 520q0 280 135.5 431t390.5 151q74 0 160 -21l65 121q12 23 29 22.5t72 -26.5l26 -12q55 -25 67 -39t1 -35l-74 -135q146 -140 146 -416q0 -279 -136 -430t-391 -151q-73 0 -145 16l-66 -123q-12 -23 -28.5 -22.5t-71.5 26.5l-27 12q-53 24 -65.5 38.5t-1.5 35.5 l67 129q-153 141 -153 428zM365 532q0 -90 18 -155l256 479q-24 4 -43 4q-231 0 -231 -328zM545 223q8 -2 28 -2q232 0 232 328q0 78 -14 133z" />
<glyph unicode="&#xf9;" horiz-adv-x="1202" d="M129 420v631q0 13 6.5 18.5t35.5 8.5t95 3h10q60 0 88.5 -3t37 -8.5t8.5 -18.5v-553q0 -106 8 -150t33 -72q41 -47 135 -47q82 0 135 33q30 19 42 44t15 65q4 47 4 200v480q0 13 6.5 18.5t36 8.5t95.5 3h10q60 0 88.5 -3t36.5 -8.5t8 -18.5v-566q0 -254 14 -448 q2 -23 -18.5 -30t-104.5 -7h-10q-75 0 -98 5t-29 22t-14 82q-51 -60 -127.5 -94.5t-167.5 -34.5q-187 0 -283 110q-51 57 -73.5 135t-22.5 195zM322 1577q-17 25 17 30l42 3h98q55 0 75 -5.5t28 -19.5l217 -334q10 -18 -1.5 -24t-47.5 -6h-78q-65 0 -84 22z" />
<glyph unicode="&#xfa;" horiz-adv-x="1202" d="M129 420v631q0 13 6.5 18.5t35.5 8.5t95 3h10q60 0 88.5 -3t37 -8.5t8.5 -18.5v-553q0 -106 8 -150t33 -72q41 -47 135 -47q82 0 135 33q30 19 42 44t15 65q4 47 4 200v480q0 13 6.5 18.5t36 8.5t95.5 3h10q60 0 88.5 -3t36.5 -8.5t8 -18.5v-566q0 -254 14 -448 q2 -23 -18.5 -30t-104.5 -7h-10q-75 0 -98 5t-29 22t-14 82q-51 -60 -127.5 -94.5t-167.5 -34.5q-187 0 -283 110q-51 57 -73.5 135t-22.5 195zM401 1251l217 334q8 14 28 19.5t75 5.5h98q65 0 66 -17q0 -7 -6 -16l-267 -334q-19 -22 -84 -22h-77q-36 0 -48 6t-2 24z" />
<glyph unicode="&#xfb;" horiz-adv-x="1202" d="M129 420v631q0 13 6.5 18.5t35.5 8.5t95 3h10q60 0 88.5 -3t37 -8.5t8.5 -18.5v-553q0 -106 8 -150t33 -72q41 -47 135 -47q82 0 135 33q30 19 42 44t15 65q4 47 4 200v480q0 13 6.5 18.5t36 8.5t95.5 3h10q60 0 88.5 -3t36.5 -8.5t8 -18.5v-566q0 -254 14 -448 q2 -23 -18.5 -30t-104.5 -7h-10q-75 0 -98 5t-29 22t-14 82q-51 -60 -127.5 -94.5t-167.5 -34.5q-187 0 -283 110q-51 57 -73.5 135t-22.5 195zM263.5 1328q-5.5 14 8.5 30l187 198q19 20 44 26.5t83 6.5h28q58 0 83 -6.5t44 -26.5l187 -198q14 -16 8.5 -30t-33.5 -42 l-20 -20q-32 -32 -45 -37.5t-31 6.5l-207 180l-207 -180q-18 -12 -31 -6.5t-45 37.5l-20 20q-28 28 -33.5 42z" />
<glyph unicode="&#xfc;" horiz-adv-x="1202" d="M129 420v631q0 13 6.5 18.5t35.5 8.5t95 3h10q60 0 88.5 -3t37 -8.5t8.5 -18.5v-553q0 -106 8 -150t33 -72q41 -47 135 -47q82 0 135 33q30 19 42 44t15 65q4 47 4 200v480q0 13 6.5 18.5t36 8.5t95.5 3h10q60 0 88.5 -3t36.5 -8.5t8 -18.5v-566q0 -254 14 -448 q2 -23 -18.5 -30t-104.5 -7h-10q-75 0 -98 5t-29 22t-14 82q-51 -60 -127.5 -94.5t-167.5 -34.5q-187 0 -283 110q-51 57 -73.5 135t-22.5 195zM227 1391q0 61 43 103t107 42q65 0 107 -42t42 -103q0 -60 -42 -101t-107 -41q-64 0 -107 41.5t-43 100.5zM674 1391 q0 61 41 103t104 42q67 0 110.5 -42t43.5 -103q0 -59 -43.5 -100.5t-110.5 -41.5q-63 0 -104 41t-41 101z" />
<glyph unicode="&#xfd;" horiz-adv-x="1089" d="M-48.5 -398.5q1.5 15.5 15.5 68.5l8 29q15 54 27 69.5t35 8.5q69 -21 127 -21q87 0 144.5 50.5t109.5 187.5l-369 1050q-7 21 14 28q26 9 115 9h27q86 0 109.5 -6t29.5 -24l127 -402q67 -213 92 -368q28 147 90 364l119 406q6 18 28.5 24t100.5 6h27q117 0 126 -19 q3 -6 -1 -18l-351 -1026q-91 -267 -207 -381t-311 -114q-65 0 -126.5 14.5t-94.5 36.5q-13 12 -11.5 27.5zM371 1251l217 334q8 14 27.5 19.5t74.5 5.5h98q65 0 66 -17q0 -7 -6 -16l-266 -334q-19 -22 -84 -22h-78q-36 0 -47.5 6t-1.5 24z" />
<glyph unicode="&#xfe;" horiz-adv-x="1185" d="M135 -426v1952q0 13 6.5 18.5t35.5 8.5t95 3h11q60 0 88.5 -3t36.5 -8.5t8 -18.5v-531q110 107 270 107q193 0 308.5 -147.5t115.5 -397.5q0 -268 -124.5 -422.5t-328.5 -154.5q-147 0 -241 79v-485q0 -13 -8 -18.5t-36.5 -9t-88.5 -3.5h-11q-65 0 -94.5 3.5t-36 9 t-6.5 18.5zM416 297q75 -78 182 -78q111 0 167 86.5t56 251.5q0 169 -67 246q-51 59 -154 59q-44 0 -88.5 -14.5t-67.5 -38.5q-28 -30 -28 -111v-401z" />
<glyph unicode="&#xff;" horiz-adv-x="1089" d="M-48.5 -398.5q1.5 15.5 15.5 68.5l8 29q15 54 27 69.5t35 8.5q69 -21 127 -21q87 0 144.5 50.5t109.5 187.5l-369 1050q-7 21 14 28q26 9 115 9h27q86 0 109.5 -6t29.5 -24l127 -402q67 -213 92 -368q28 147 90 364l119 406q6 18 28.5 24t100.5 6h27q117 0 126 -19 q3 -6 -1 -18l-351 -1026q-91 -267 -207 -381t-311 -114q-65 0 -126.5 14.5t-94.5 36.5q-13 12 -11.5 27.5zM197 1391q0 61 42.5 103t106.5 42q65 0 107.5 -42t42.5 -103q0 -59 -42.5 -100.5t-107.5 -41.5q-64 0 -106.5 41.5t-42.5 100.5zM643 1391q0 61 41 103t104 42 q67 0 110.5 -42t43.5 -103q0 -59 -43.5 -100.5t-110.5 -41.5q-63 0 -104 41t-41 101z" />
<glyph unicode="&#x152;" horiz-adv-x="2097" d="M78 737q0 352 191 555t515 203q86 0 227 -10t224 -10h709q23 0 28.5 -16.5t5.5 -92.5v-16q0 -73 -6.5 -93t-27.5 -20h-623v-373h528q23 0 29 -16.5t6 -91.5v-17q0 -72 -7 -92t-28 -20h-528v-389h631q23 0 29 -17t6 -92v-16q0 -71 -6.5 -92t-28.5 -21h-717q-83 0 -224 -10 t-227 -10q-341 0 -523.5 200t-182.5 557zM383 725q0 -254 108 -376t334 -122q105 0 197 9v1003q-110 8 -197 8q-442 0 -442 -522z" />
<glyph unicode="&#x153;" horiz-adv-x="1869" d="M76 520q0 280 135.5 431t390.5 151q231 0 359 -137q137 137 348 137q152 0 260 -72t160.5 -194.5t52.5 -284.5q0 -60 -4.5 -83.5t-16.5 -23.5h-663q17 -110 85.5 -167.5t184.5 -57.5q133 0 289 66q17 8 27.5 -3.5t27.5 -56.5l19 -51q18 -53 17.5 -69t-19.5 -27 q-78 -44 -185.5 -71t-212.5 -27q-242 0 -383 141q-135 -141 -381 -141q-232 0 -361.5 139t-129.5 401zM365 532q0 -311 208 -311q232 0 232 328q0 311 -209 311q-231 0 -231 -328zM1098 645h403q-9 100 -58 160.5t-132 60.5t-137.5 -58t-75.5 -163z" />
<glyph unicode="&#x178;" horiz-adv-x="1320" d="M33 1440q-10 20 21 28q31 7 110 7h47q92 0 117.5 -5.5t36.5 -27.5l174 -332q99 -189 141 -293q53 130 135 299l162 324q11 24 32.5 29.5t106.5 5.5h62q102 0 109 -16q4 -6 -3 -19l-477 -867v-542q0 -21 -22.5 -26t-116.5 -5h-25q-94 0 -114.5 4.5t-20.5 26.5v542z M299 1784q0 61 43 103t107 42q65 0 107 -42t42 -103q0 -60 -42 -101t-107 -41q-64 0 -107 41.5t-43 100.5zM745 1784q0 61 41 103t105 42q67 0 110 -42t43 -103q0 -59 -43.5 -100.5t-109.5 -41.5q-63 0 -104.5 41t-41.5 101z" />
<glyph unicode="&#x2c6;" horiz-adv-x="716" d="M22.5 1327.5q-5.5 14.5 8.5 30.5l186 198q19 20 44 26.5t83 6.5h29q58 0 83 -6.5t44 -26.5l186 -198q14 -16 8.5 -30.5t-32.5 -41.5l-21 -20q-32 -32 -45 -37.5t-31 6.5l-207 180l-206 -180q-18 -12 -31 -6.5t-45 37.5l-21 20q-27 27 -32.5 41.5z" />
<glyph unicode="&#x2dc;" horiz-adv-x="716" d="M2 1370q-7 15 4 31q110 137 236 137q45 0 90.5 -19t82.5 -38t62 -19q55 0 121 66q6 4 13 5.5t22.5 -9t38.5 -33.5l8 -8q30 -30 37 -45t-4 -31q-110 -137 -236 -137q-44 0 -89 19t-82.5 38t-63.5 19q-55 0 -121 -66q-19 -18 -74 37l-8 8q-30 30 -37 45z" />
<glyph unicode="&#x2000;" horiz-adv-x="1001" />
<glyph unicode="&#x2001;" horiz-adv-x="2003" />
<glyph unicode="&#x2002;" horiz-adv-x="1001" />
<glyph unicode="&#x2003;" horiz-adv-x="2003" />
<glyph unicode="&#x2004;" horiz-adv-x="667" />
<glyph unicode="&#x2005;" horiz-adv-x="500" />
<glyph unicode="&#x2006;" horiz-adv-x="333" />
<glyph unicode="&#x2007;" horiz-adv-x="333" />
<glyph unicode="&#x2008;" horiz-adv-x="250" />
<glyph unicode="&#x2009;" horiz-adv-x="400" />
<glyph unicode="&#x200a;" horiz-adv-x="111" />
<glyph unicode="&#x2010;" horiz-adv-x="798" d="M70 575v29q0 64 6 83.5t22 19.5h602q16 0 22.5 -19.5t6.5 -83.5v-29q0 -64 -6.5 -83t-22.5 -19h-602q-16 0 -22 19t-6 83z" />
<glyph unicode="&#x2011;" horiz-adv-x="798" d="M70 575v29q0 64 6 83.5t22 19.5h602q16 0 22.5 -19.5t6.5 -83.5v-29q0 -64 -6.5 -83t-22.5 -19h-602q-16 0 -22 19t-6 83z" />
<glyph unicode="&#x2012;" horiz-adv-x="798" d="M70 575v29q0 64 6 83.5t22 19.5h602q16 0 22.5 -19.5t6.5 -83.5v-29q0 -64 -6.5 -83t-22.5 -19h-602q-16 0 -22 19t-6 83z" />
<glyph unicode="&#x2013;" horiz-adv-x="1024" d="M0 575v13q0 64 6.5 83t22.5 19h966q16 0 22.5 -19t6.5 -83v-13q0 -64 -6.5 -83t-22.5 -19h-966q-16 0 -22.5 19t-6.5 83z" />
<glyph unicode="&#x2014;" horiz-adv-x="2048" d="M0 575v13q0 64 6.5 83t22.5 19h1990q16 0 22.5 -19t6.5 -83v-13q0 -64 -6.5 -83t-22.5 -19h-1990q-16 0 -22.5 19t-6.5 83z" />
<glyph unicode="&#x2018;" horiz-adv-x="561" d="M90 991q0 124 67.5 249.5t188.5 236.5q28 26 60 -2l36 -33q18 -16 20 -25.5t-11 -27.5q-113 -145 -113 -248q0 -32 14.5 -58t31.5 -42t31.5 -43.5t14.5 -61.5q0 -58 -45 -103t-113 -45q-80 0 -131 56.5t-51 146.5z" />
<glyph unicode="&#x2019;" horiz-adv-x="561" d="M99.5 867q-1.5 10 11.5 28q112 144 112 248q0 32 -14.5 58t-31.5 42t-31.5 43.5t-14.5 61.5q0 58 45 102.5t113 44.5q80 0 131 -56.5t51 -146.5q0 -124 -67.5 -249t-188.5 -236q-28 -25 -59 2l-37 33q-18 15 -19.5 25z" />
<glyph unicode="&#x201a;" horiz-adv-x="561" d="M99.5 -444q-1.5 10 11.5 28q112 144 112 248q0 32 -14.5 58t-31.5 42t-31.5 43.5t-14.5 61.5q0 58 45 102.5t113 44.5q80 0 131 -56t51 -146q0 -124 -67.5 -249.5t-188.5 -236.5q-28 -25 -59 2l-37 33q-18 15 -19.5 25z" />
<glyph unicode="&#x201c;" horiz-adv-x="1001" d="M90 991q0 124 67.5 249.5t188.5 236.5q28 26 60 -2l36 -33q18 -16 20 -25.5t-11 -27.5q-113 -145 -113 -248q0 -32 14.5 -58t31.5 -42t31.5 -43.5t14.5 -61.5q0 -58 -45 -103t-113 -45q-80 0 -131 56.5t-51 146.5zM530 991q0 124 67.5 249.5t188.5 236.5q28 26 60 -2 l37 -33q18 -15 19.5 -25t-11.5 -28q-113 -145 -113 -248q0 -32 14.5 -58t31.5 -42t31.5 -43.5t14.5 -61.5q0 -58 -44.5 -103t-112.5 -45q-80 0 -131.5 56.5t-51.5 146.5z" />
<glyph unicode="&#x201d;" horiz-adv-x="1001" d="M99.5 867q-1.5 10 11.5 28q112 144 112 248q0 32 -14.5 58t-31.5 42t-31.5 43.5t-14.5 61.5q0 58 45 102.5t113 44.5q80 0 131 -56.5t51 -146.5q0 -124 -67.5 -249t-188.5 -236q-28 -25 -59 2l-37 33q-18 15 -19.5 25zM539.5 867q-1.5 10 11.5 28q113 145 113 248 q0 32 -14.5 58t-32 42t-32 43.5t-14.5 61.5q0 58 45 102.5t113 44.5q80 0 131 -56.5t51 -146.5q0 -124 -67.5 -249t-188.5 -236q-28 -25 -59 2l-37 33q-18 15 -19.5 25z" />
<glyph unicode="&#x201e;" horiz-adv-x="1001" d="M99.5 -444q-1.5 10 11.5 28q112 144 112 248q0 32 -14.5 58t-31.5 42t-31.5 43.5t-14.5 61.5q0 58 45 102.5t113 44.5q80 0 131 -56t51 -146q0 -124 -67.5 -249.5t-188.5 -236.5q-28 -25 -59 2l-37 33q-18 15 -19.5 25zM539.5 -444q-1.5 10 11.5 28q113 145 113 248 q0 32 -14.5 58t-32 42t-32 43.5t-14.5 61.5q0 58 45 102.5t113 44.5q80 0 131 -56t51 -146q0 -124 -67.5 -249.5t-188.5 -236.5q-28 -25 -59 2l-37 33q-18 15 -19.5 25z" />
<glyph unicode="&#x2022;" horiz-adv-x="727" d="M82 754q0 118 81 201t197 83q119 0 202 -83t83 -201q0 -116 -83.5 -197.5t-201.5 -81.5q-115 0 -196.5 81.5t-81.5 197.5z" />
<glyph unicode="&#x2026;" horiz-adv-x="1468" d="M70 147q0 71 50 120.5t124 49.5q76 0 126 -49.5t50 -120.5q0 -70 -50 -118.5t-126 -48.5q-74 0 -124 48.5t-50 118.5zM559 147q0 71 50 120.5t124 49.5q76 0 126 -49.5t50 -120.5q0 -70 -50 -118.5t-126 -48.5q-74 0 -124 48.5t-50 118.5zM1049 147q0 71 50 120.5 t124 49.5q76 0 126 -49.5t50 -120.5q0 -70 -50 -118.5t-126 -48.5q-74 0 -124 48.5t-50 118.5z" />
<glyph unicode="&#x202f;" horiz-adv-x="400" />
<glyph unicode="&#x2039;" horiz-adv-x="659" d="M90 612v13q0 34 23 67l262 381q11 20 32.5 18.5t65.5 -26.5l33 -18q45 -26 58.5 -43.5t2.5 -36.5l-215 -349l215 -348q11 -19 -2.5 -36.5t-58.5 -43.5l-33 -18q-44 -25 -65.5 -26.5t-32.5 18.5l-262 381q-23 33 -23 67z" />
<glyph unicode="&#x203a;" horiz-adv-x="659" d="M92 270l215 348l-215 349q-11 19 2.5 36.5t59.5 43.5l32 18q44 25 66 26.5t33 -18.5l262 -381q22 -31 22 -67v-13q0 -36 -22 -67l-262 -381q-11 -20 -33 -18.5t-66 26.5l-32 18q-46 26 -59.5 43.5t-2.5 36.5z" />
<glyph unicode="&#x205f;" horiz-adv-x="500" />
<glyph unicode="&#x20ac;" horiz-adv-x="1427" d="M70 578v2q0 44 3.5 64t8 24t16.5 4h119q-2 16 -2 51q0 49 2 72h-86q-12 0 -17 4t-8.5 24t-3.5 64v2q0 44 3.5 64t8.5 24t17 4h115q62 243 235 378.5t428 135.5q128 0 229 -29t195 -94q26 -18 25 -34.5t-35 -73.5l-29 -47q-29 -49 -43.5 -58t-31.5 4q-139 82 -285 82 q-141 0 -236.5 -67.5t-138.5 -196.5h455q12 0 16.5 -4t8 -24t3.5 -64v-2q0 -44 -3.5 -64t-8 -24t-16.5 -4h-490q-2 -20 -2 -64q0 -41 2 -59h457q12 0 17 -4t8.5 -24t3.5 -64v-2q0 -44 -3.5 -64.5t-8.5 -24.5t-17 -4h-424q86 -254 379 -254q130 0 299 68q25 9 36.5 0 t33.5 -53l24 -51q25 -56 26 -73t-22 -30q-92 -50 -211.5 -81t-234.5 -31q-257 0 -424 131.5t-223 373.5h-142q-12 0 -17 4t-8 24.5t-3 64.5z" />
<glyph unicode="&#x2122;" horiz-adv-x="1744" d="M33 1364v49q0 43 3.5 52.5t16.5 9.5h588q11 0 14.5 -10t3.5 -52v-49q0 -40 -3.5 -52t-14.5 -12h-190v-636q0 -10 -16.5 -13.5t-61.5 -3.5h-54q-49 0 -62 3t-13 14v636h-191q-13 0 -16.5 10.5t-3.5 53.5zM756 666v790q0 12 12.5 15.5t62.5 3.5h105q46 0 60.5 -4t19.5 -17 l108 -260q49 -118 72 -197q32 111 66 193l108 264q4 8 8 12t21 6.5t51 2.5h102q51 0 66.5 -4t15.5 -15v-790q0 -8 -3.5 -11.5t-20 -5.5t-51.5 -2h-39q-32 0 -48.5 2t-21 5t-4.5 10v299q0 215 2 249q-18 -61 -92 -247l-62 -154q-5 -12 -16 -15t-55 -3h-54q-42 0 -54 3.5 t-17 14.5l-66 150q-64 155 -94 249q6 -105 6 -270v-276q0 -11 -13.5 -14t-58.5 -3h-43q-34 0 -50 2t-19.5 5.5t-3.5 11.5z" />
<glyph unicode="&#x25fc;" horiz-adv-x="1085" d="M0 0v1085h1085v-1085h-1085z" />
</font>
</defs>
</svg>
