<?xml version="1.0" standalone="no"?>
<!DOCTYPE svg PUBLIC "-//W3C//DTD SVG 1.1//EN" "http://www.w3.org/Graphics/SVG/1.1/DTD/svg11.dtd" >
<svg xmlns="http://www.w3.org/2000/svg">
<metadata></metadata>
<defs>
<font id="tim_sanslight" horiz-adv-x="1159" >
<font-face units-per-em="2048" ascent="1536" descent="-512" />
<missing-glyph horiz-adv-x="512" />
<glyph unicode="&#xfb01;" horiz-adv-x="1122" d="M66 1016v14q0 30 3.5 40.5t14.5 10.5h143v84q0 218 97.5 315t306.5 97q74 0 158.5 -21t150.5 -53q11 -4 10.5 -14t-12.5 -39l-4 -10q-12 -30 -19 -36.5t-20 -0.5q-138 63 -266 63q-150 0 -209.5 -69t-59.5 -236v-80h252q11 0 15 -10.5t4 -40.5v-14q0 -29 -4 -39t-15 -10 h-252v-947q0 -20 -57 -20h-16q-60 0 -60 20v947h-143q-11 0 -14.5 10t-3.5 39zM829 20v1043q0 10 12.5 14t45.5 4h16q35 0 47.5 -3.5t12.5 -14.5v-1043q0 -20 -58 -20h-16q-35 0 -47.5 4.5t-12.5 15.5z" />
<glyph unicode="&#xfb02;" horiz-adv-x="1204" d="M66 1016v14q0 30 3.5 40.5t14.5 10.5h143v84q0 437 408 437q150 0 287 -60q40 -17 43 -51q16 -177 16 -549v-713q0 -71 14.5 -98t59.5 -27q11 0 41 5q8 2 11.5 -5t6.5 -32l2 -15q3 -24 0 -32.5t-18 -12.5q-40 -12 -84 -12q-95 0 -135 57q-31 47 -31 213v719 q0 244 -14 463q-87 41 -199 41q-81 0 -136 -23.5t-84.5 -69.5t-42 -103t-12.5 -136v-80h252q11 0 15 -10.5t4 -40.5v-14q0 -29 -4 -39t-15 -10h-252v-947q0 -20 -57 -20h-16q-60 0 -60 20v947h-143q-11 0 -14.5 10t-3.5 39z" />
<glyph horiz-adv-x="0" />
<glyph horiz-adv-x="682" />
<glyph unicode="&#xd;" horiz-adv-x="512" />
<glyph unicode=" "  horiz-adv-x="512" />
<glyph unicode="&#x09;" horiz-adv-x="512" />
<glyph unicode="&#xa0;" horiz-adv-x="512" />
<glyph unicode="!" horiz-adv-x="628" d="M207 88q0 46 30.5 78.5t73.5 32.5q46 0 77.5 -32.5t31.5 -78.5t-31.5 -77t-77.5 -31q-43 0 -73.5 31.5t-30.5 76.5zM219 1450q0 13 15 19t61 6h29q46 0 60.5 -6t14.5 -19l-34 -1032q0 -15 -43 -15h-21q-43 0 -43 15z" />
<glyph unicode="&#x22;" horiz-adv-x="876" d="M186 1454q0 12 12 16.5t48 4.5h26q36 0 48 -4.5t12 -16.5l-19 -520q0 -8 -9 -11t-38 -3h-14q-29 0 -38 3t-9 11zM545 1454q0 12 11.5 16.5t47.5 4.5h27q36 0 47.5 -4.5t11.5 -16.5l-18 -520q0 -8 -9 -11t-38 -3h-15q-29 0 -38 3t-9 11z" />
<glyph unicode="#" horiz-adv-x="1286" d="M53 473v16q0 22 4 28.5t15 6.5h202l93 437h-201q-11 0 -15 6t-4 28v17q0 22 4 28.5t15 6.5h219l86 407q3 12 11 16.5t28 4.5h31q22 0 28 -4.5t4 -16.5l-86 -407h424l86 407q3 12 11 16.5t28 4.5h29q22 0 28.5 -5t4.5 -16l-86 -407h202q11 0 15 -6.5t4 -28.5v-17 q0 -22 -4 -28t-15 -6h-221l-92 -437h219q11 0 15 -6.5t4 -28.5v-16q0 -22 -4 -28.5t-15 -6.5h-237l-88 -418q-3 -12 -11 -16t-28 -4h-29q-22 0 -28.5 4.5t-4.5 15.5l88 418h-424l-88 -418q-3 -12 -11 -16t-28 -4h-30q-22 0 -28.5 4.5t-4.5 15.5l88 418h-184q-11 0 -15 6.5 t-4 28.5zM377 524h424l92 437h-424z" />
<glyph unicode="$" horiz-adv-x="1132" d="M87.5 116q1.5 12 16.5 40l7 10q15 25 24 32t19 1q173 -103 364 -103q167 0 273 78t106 199q0 40 -12 74t-39 65t-55 54.5t-77.5 51.5t-87 46.5t-102.5 48.5q-98 46 -160.5 83.5t-114.5 85.5t-75.5 105.5t-23.5 130.5q0 157 114.5 258t284.5 117v178q0 11 9 14t38 3h18 q29 0 40.5 -3.5t11.5 -13.5v-178q173 -16 307 -98q11 -9 9.5 -18.5t-15.5 -35.5l-6 -10q-14 -27 -23.5 -33.5t-19.5 0.5q-160 80 -306 80q-140 0 -230.5 -67t-90.5 -178q0 -47 20 -89t46 -70.5t76.5 -61t86 -51t98.5 -48.5q58 -27 95.5 -45.5t86.5 -46.5t79.5 -51.5 t64 -56.5t52 -66t30.5 -75.5t12 -90.5q0 -159 -113.5 -266.5t-303.5 -130.5v-177q0 -10 -11 -13t-41 -3h-18q-30 0 -38.5 3t-8.5 13v173q-115 3 -225 34t-183 82q-10 8 -8.5 20z" />
<glyph unicode="%" horiz-adv-x="1814" d="M102 1063q0 209 90 320.5t252 111.5q151 0 235.5 -99t84.5 -298q0 -206 -90.5 -319t-251.5 -113q-150 0 -235 100.5t-85 296.5zM231 1071q0 -150 50 -228.5t147 -78.5t151 86t54 244q0 149 -50 227t-145 78t-151 -84.5t-56 -243.5zM495 -31q-7 6 1 21l704 1497 q6 13 17 17.5t43 4.5h20q32 0 39 -4.5t0 -21.5l-707 -1497q-6 -13 -18 -18t-41 -5h-21q-30 0 -37 6zM1051 377q0 209 90 320.5t252 111.5q151 0 235 -99t84 -298q0 -206 -90.5 -319t-251.5 -113q-150 0 -234.5 100.5t-84.5 296.5zM1180 385q0 -150 50 -228.5t146 -78.5 q97 0 151 86t54 244q0 149 -50 227t-145 78t-150.5 -84.5t-55.5 -243.5z" />
<glyph unicode="&#x26;" horiz-adv-x="1425" d="M57 391q0 147 90 252t265 178q-80 89 -121 168t-41 166q0 142 102 241t262 99q155 0 256 -89t101 -235q0 -123 -82 -216t-252 -171l395 -366q87 155 115 370q1 7 4 10.5t16 6t37 2.5h10q25 0 37.5 -2.5t16 -6t2.5 -10.5q-35 -254 -150 -452l264 -244q16 -16 -22 -53 l-6 -6q-28 -29 -40.5 -34.5t-19.5 3.5l-245 227q-86 -109 -217.5 -179t-284.5 -70q-220 0 -356 118.5t-136 292.5zM197 412q0 -141 102 -228.5t258 -87.5q241 0 408 213l-469 436q-158 -66 -228.5 -146.5t-70.5 -186.5zM385 1157q0 -74 40.5 -142t125.5 -153 q150 62 220.5 138t70.5 171q0 97 -64.5 154t-161.5 57q-100 0 -165.5 -61t-65.5 -164z" />
<glyph unicode="'" horiz-adv-x="518" d="M186 1454q0 12 12 16.5t48 4.5h26q36 0 48 -4.5t12 -16.5l-19 -520q0 -8 -9 -11t-38 -3h-14q-29 0 -38 3t-9 11z" />
<glyph unicode="(" horiz-adv-x="675" d="M188 639q0 151 25 292t68.5 255t92.5 203t107 165q11 14 45 -6l23 -14q21 -13 25 -22t-3 -17q-249 -374 -249 -856t249 -856q7 -8 3 -17t-25 -22l-23 -14q-34 -20 -45 -6q-58 76 -107 165t-92.5 203t-68.5 255t-25 292z" />
<glyph unicode=")" horiz-adv-x="675" d="M101.5 -234q-4.5 9 2.5 17q250 376 250 856t-250 856q-7 8 -2.5 17t25.5 22l23 14q34 20 45 6q58 -76 106.5 -165t92 -203t68.5 -255t25 -292t-25 -292t-68.5 -255t-92 -203t-106.5 -165q-11 -14 -45 6l-23 14q-21 13 -25.5 22z" />
<glyph unicode="*" horiz-adv-x="821" d="M92 1247l8 23q8 22 15 29.5t20 3.5l246 -97l-25 271q0 10 8 14t35 4h21q28 0 35.5 -4t7.5 -14l-23 -271l246 97q11 4 18 -3.5t15 -29.5l8 -23q15 -40 -8 -45l-260 -47l151 -223q7 -6 2 -14.5t-30 -22.5l-19 -10q-23 -14 -31.5 -14.5t-11.5 8.5l-110 239l-115 -239 q-3 -9 -12 -8.5t-33 14.5l-19 10q-25 14 -29.5 22.5t3.5 14.5l157 223l-262 47q-23 5 -8 45z" />
<glyph unicode="+" horiz-adv-x="1175" d="M84 743v7q0 27 3 36t13 9h439v438q0 10 9 13t36 3h6q26 0 35.5 -3t9.5 -13v-438h440q10 0 13.5 -9t3.5 -36v-7q0 -26 -3.5 -35.5t-13.5 -9.5h-440v-440q0 -10 -9.5 -13t-35.5 -3h-6q-27 0 -36 3t-9 13v440h-439q-10 0 -13 9.5t-3 35.5z" />
<glyph unicode="," horiz-adv-x="493" d="M82 -305q51 51 90 114.5t39 114.5q0 26 -9.5 47.5t-23.5 37.5t-28 31t-23.5 35t-9.5 44q0 43 31 70.5t75 27.5q58 0 92.5 -40.5t34.5 -100.5q0 -119 -60.5 -236.5t-160.5 -197.5q-15 -12 -35 10l-8 10q-16 21 -4 33z" />
<glyph unicode="-" horiz-adv-x="782" d="M106 623v6q0 29 3 38t14 9h536q11 0 14 -9t3 -38v-6q0 -29 -3.5 -40.5t-13.5 -11.5h-536q-10 0 -13.5 11.5t-3.5 40.5z" />
<glyph unicode="." horiz-adv-x="493" d="M131 98q0 50 34 84.5t81 34.5q48 0 82 -34.5t34 -84.5q0 -51 -34 -84.5t-82 -33.5q-47 0 -81 33.5t-34 84.5z" />
<glyph unicode="/" horiz-adv-x="684" d="M51 -8l451 1497q3 12 15.5 17t49.5 5h8q39 0 51 -5.5t7 -20.5l-451 -1497q-3 -12 -15.5 -17.5t-49.5 -5.5h-8q-39 0 -51 6t-7 21z" />
<glyph unicode="0" horiz-adv-x="1173" d="M96 707q0 385 132 586.5t374 201.5q227 0 351 -177t124 -546q0 -383 -132 -587.5t-376 -204.5q-226 0 -349.5 181t-123.5 546zM244 721q0 -309 84 -466t250 -157q173 0 263.5 169.5t90.5 494.5q0 614 -338 614q-169 0 -259.5 -165t-90.5 -490z" />
<glyph unicode="1" horiz-adv-x="970" d="M70 1210.5q0 9.5 14 18.5l365 221q45 25 86 25h26q41 0 41 -15v-1349h221q11 0 15 -9.5t4 -40.5v-14q0 -29 -4 -38t-15 -9h-602q-11 0 -14.5 8.5t-3.5 38.5v14q0 31 3.5 40.5t14.5 9.5h240v1214l-322 -195q-13 -8 -22.5 -2.5t-22.5 29.5l-10 19q-14 25 -14 34.5z" />
<glyph unicode="2" horiz-adv-x="1075" d="M103.5 1363.5q-0.5 10.5 9.5 18.5q80 50 178 81.5t196 31.5q179 0 294.5 -105t115.5 -286q0 -153 -87 -308.5t-278 -375.5l-260 -301h633q11 0 15 -10t4 -41v-17q0 -30 -4 -40.5t-15 -10.5h-774q-11 0 -14.5 10.5t-3.5 40.5v6q0 19 1 27.5t5 19.5t14 23l297 350 q173 204 250.5 349t77.5 270q0 135 -77.5 207.5t-201.5 72.5q-143 0 -309 -88q-13 -8 -23 -3.5t-22 26.5l-10 20q-11 22 -11.5 32.5z" />
<glyph unicode="3" horiz-adv-x="1079" d="M112 63.5q-1 10.5 9 38.5l8 21q10 23 17 29t24 0q137 -54 270 -54q183 0 283 92q86 83 86 218q0 128 -84 206q-116 107 -338 107h-43q-11 0 -14.5 8.5t-3.5 38.5v12q0 31 3.5 40t14.5 9h35q207 0 303 93q74 74 74 190q0 109 -64 180q-77 86 -221 86q-126 0 -270 -61 q-17 -8 -25.5 -3.5t-17.5 25.5l-8 21q-14 39 -10 47q2 3 7 6q66 36 157 59t175 23q201 0 320 -119q96 -99 96 -250q0 -124 -73 -216t-191 -126q60 -14 115 -43.5t101 -74t73.5 -110t27.5 -142.5q0 -106 -40 -190t-108 -136.5t-155.5 -80t-185.5 -27.5q-86 0 -178 18.5 t-156 48.5q-12 6 -13 16.5z" />
<glyph unicode="4" horiz-adv-x="1134" d="M61 412v43q0 56 23 104l420 893q5 12 17 17.5t48 5.5h15q20 0 32.5 -1.5t19.5 -4.5t7.5 -8t-2.5 -13l-440 -936h501v352q0 19 60 19h14q66 0 66 -19v-352h196q12 0 15.5 -10t3.5 -47v-4q0 -36 -3.5 -46t-15.5 -10h-196v-377q0 -18 -66 -18h-14q-60 0 -60 18v377h-575 q-66 0 -66 17z" />
<glyph unicode="5" horiz-adv-x="1075" d="M104 60.5q-1 11.5 9 39.5l8 21q8 20 16.5 26t24.5 0q128 -49 258 -49q185 0 285 97q98 95 98 264q0 154 -84 241q-91 99 -291 99q-126 0 -258 -37v713h704q11 0 15 -10.5t4 -41.5v-16q0 -30 -4 -40.5t-15 -10.5h-567v-463q66 16 152 16q228 0 360 -129q123 -120 123 -313 q0 -217 -140.5 -352t-375.5 -135q-89 0 -177 19t-132 44q-12 6 -13 17.5z" />
<glyph unicode="6" horiz-adv-x="1116" d="M96 614q0 128 21.5 251t68.5 238t114.5 201.5t167.5 138.5t220 52q142 0 248 -53q10 -9 9 -17.5t-11 -35.5l-8 -21q-9 -21 -17.5 -25t-25.5 3q-87 34 -195 34q-79 0 -145 -31.5t-113.5 -84.5t-84.5 -128t-59.5 -157t-35.5 -176q158 108 336 108q207 0 318.5 -126.5 t111.5 -329.5q0 -136 -51.5 -242.5t-154.5 -169.5t-243 -63q-160 0 -266.5 79t-155.5 218.5t-49 336.5zM240 688q0 -303 76 -448.5t253 -145.5q145 0 225 94.5t80 253.5q0 70 -15 130t-48 113t-95 83.5t-147 30.5q-154 0 -329 -111z" />
<glyph unicode="7" horiz-adv-x="942" d="M41 1407v16q0 32 3.5 42t14.5 10h801q45 0 45 -13v-69q0 -39 -16 -80l-533 -1290q-5 -12 -17 -17.5t-48 -5.5h-17q-39 0 -51 6t-6 21l557 1329h-715q-11 0 -14.5 10.5t-3.5 40.5z" />
<glyph unicode="8" horiz-adv-x="1153" d="M109 373q0 138 89.5 247.5t237.5 161.5q-122 64 -190 145.5t-68 205.5q0 110 58.5 194t151 126t200.5 42q167 0 284 -96.5t117 -251.5q0 -116 -83.5 -204t-215.5 -148q64 -31 106 -54t94 -60.5t82 -75t51 -90.5t21 -114q0 -190 -138.5 -305.5t-344.5 -115.5 q-121 0 -222 43t-165.5 134t-64.5 216zM250 381q0 -131 91.5 -209t229.5 -78q146 0 241 81.5t95 211.5q0 36 -10.5 69t-24.5 57.5t-43.5 50.5t-50.5 42.5t-64 39.5t-66 34.5t-73 34.5q-23 11 -34 16q-139 -51 -215 -142.5t-76 -207.5zM315 1145q0 -54 20.5 -99t62 -81.5 t84.5 -63t106 -57.5q121 54 192.5 130.5t71.5 168.5q0 106 -74.5 172.5t-193.5 66.5q-122 0 -195.5 -67.5t-73.5 -169.5z" />
<glyph unicode="9" horiz-adv-x="1116" d="M100 1018q0 134 51 241.5t152.5 171.5t239.5 64q237 0 357 -170.5t120 -466.5q0 -531 -225 -749q-135 -129 -338 -129q-73 0 -153.5 18.5t-131.5 46.5q-10 9 -9 17.5t11 35.5l8 21q9 21 17.5 25.5t25.5 -3.5q110 -47 221 -47q84 0 143 22t109 72q130 130 170 484 q-161 -109 -338 -109q-207 0 -318.5 126t-111.5 329zM242 1030q0 -70 15 -129.5t48 -112t95 -82.5t147 -30q158 0 332 110q0 297 -79.5 445.5t-256.5 148.5q-142 0 -221.5 -95t-79.5 -255z" />
<glyph unicode=":" horiz-adv-x="491" d="M131 98q0 49 34.5 83t80.5 34t80 -34t34 -83q0 -51 -33.5 -84.5t-80.5 -33.5t-81 33.5t-34 84.5zM131 897q0 49 34.5 84t80.5 35t80 -35t34 -84q0 -50 -34 -84.5t-80 -34.5q-47 0 -81 34.5t-34 84.5z" />
<glyph unicode=";" horiz-adv-x="491" d="M96 -305q51 51 90 114.5t39 114.5q0 26 -9.5 47.5t-23.5 37.5t-28 31t-23.5 35t-9.5 44q0 43 31.5 70.5t75.5 27.5q58 0 92.5 -40.5t34.5 -100.5q0 -119 -60.5 -236.5t-161.5 -197.5q-15 -12 -34 10l-9 10q-16 21 -4 33zM131 897q0 49 34.5 84t80.5 35t80 -35t34 -84 q0 -50 -34 -84.5t-80 -34.5q-47 0 -81 34.5t-34 84.5z" />
<glyph unicode="&#x3c;" horiz-adv-x="1175" d="M86 750v16q0 41 18 51l920 514q12 6 20.5 1t20.5 -27l8 -15q13 -23 14.5 -31.5t-8.5 -15.5l-870 -485l870 -486q10 -7 8.5 -15.5t-14.5 -31.5l-8 -14q-12 -22 -20.5 -27.5t-20.5 0.5l-920 514q-18 10 -18 52z" />
<glyph unicode="=" horiz-adv-x="1175" d="M84 535v6q0 27 3 36t13 9h975q10 0 13.5 -9t3.5 -36v-6q0 -26 -3.5 -36t-13.5 -10h-975q-10 0 -13 10t-3 36zM84 950v6q0 27 3 36t13 9h975q10 0 13.5 -9t3.5 -36v-6q0 -26 -3.5 -35.5t-13.5 -9.5h-975q-10 0 -13 9.5t-3 35.5z" />
<glyph unicode="&#x3e;" horiz-adv-x="1175" d="M87.5 256.5q-1.5 8.5 8.5 15.5l871 486l-871 485q-10 7 -8.5 15.5t14.5 31.5l9 15q12 22 20.5 27t20.5 -1l919 -514q19 -11 19 -51v-16q0 -41 -19 -52l-919 -514q-12 -6 -20.5 -0.5t-20.5 27.5l-9 14q-13 23 -14.5 31.5z" />
<glyph unicode="?" horiz-adv-x="858" d="M66 1392.5q0 9.5 12 18.5q53 33 145.5 57.5t179.5 24.5q200 0 312 -109q102 -94 102 -251q0 -50 -13 -94t-30.5 -74.5t-49 -61.5t-56 -49.5t-62.5 -44.5q-64 -42 -94 -64.5t-60 -55t-40.5 -67t-10.5 -83.5v-123q0 -17 -59 -17h-20q-60 0 -60 17v135q0 115 50 183t188 159 q94 61 131 113t37 127q0 97 -60 163q-73 76 -211 76q-130 0 -270 -65q-12 -6 -20 1t-19 29l-10 21q-12 25 -12 34.5zM227 86q0 46 31.5 78.5t75.5 32.5q46 0 78 -32.5t32 -78.5t-32 -77.5t-78 -31.5q-44 0 -75.5 31.5t-31.5 77.5z" />
<glyph unicode="@" horiz-adv-x="1996" d="M133 506q0 176 49 332t137.5 275t207.5 205.5t262.5 131.5t297.5 45q226 0 403.5 -90.5t280.5 -266t103 -409.5q0 -291 -121.5 -458t-312.5 -167q-102 0 -168 53t-80 140q-53 -94 -133.5 -144.5t-173.5 -50.5q-139 0 -220 100t-81 261q0 114 34.5 222t94.5 185 t142.5 120.5t174.5 43.5q67 0 130.5 -27t109.5 -71l20 63q3 10 13.5 13.5t44.5 3.5h32q27 0 36 -4t7 -13l-108 -512q-12 -62 -12 -104q0 -78 39.5 -124t113.5 -46q90 0 156 68t98.5 181t32.5 257q0 298 -178.5 476.5t-481.5 178.5q-129 0 -249.5 -38.5t-222.5 -113.5 t-178.5 -178.5t-119.5 -242t-43 -295.5q0 -224 97 -390t271 -252.5t402 -86.5q179 0 385 59q15 5 22.5 -1.5t14.5 -31.5l4 -12q9 -29 7 -39t-17 -16q-75 -29 -196 -50.5t-234 -21.5q-204 0 -371.5 61.5t-282 172t-177 266.5t-62.5 342zM729 469q0 -117 43.5 -185.5 t134.5 -68.5q105 0 177.5 89t105.5 247l57 278q-36 45 -93.5 72t-113.5 27q-132 0 -217 -123q-94 -136 -94 -336z" />
<glyph unicode="A" horiz-adv-x="1374" d="M39 16q0 3 2 7l547 1425q6 17 21.5 22t66.5 5h4q55 0 71 -4.5t23 -22.5l553 -1425q1 -3 1 -6q0 -11 -20 -14l-44 -3h-19q-45 0 -58.5 3.5t-19.5 16.5l-137 377h-702l-140 -377q-5 -12 -19 -16t-54 -4h-15q-14 0 -24.5 0.5t-17.5 2t-11 3t-6 4.5t-2 6zM367 512h624 l-73 197q-121 315 -236 653q-111 -306 -240 -647z" />
<glyph unicode="B" horiz-adv-x="1257" d="M162 0v1475h418q499 0 499 -371q0 -125 -73 -209t-177 -117q69 -15 128.5 -45t106 -74.5t73 -107.5t26.5 -137q0 -109 -40.5 -189.5t-115.5 -129t-172.5 -72t-218.5 -23.5h-454zM305 115h293q418 0 418 295q0 80 -30.5 138.5t-86.5 92.5t-127.5 50t-161.5 16h-305v-592z M305 813h254q175 0 275 67.5t100 209.5q0 64 -17.5 111.5t-47.5 77.5t-76.5 48.5t-98.5 25.5t-119 7h-270v-547z" />
<glyph unicode="C" horiz-adv-x="1230" d="M92 717q0 191 51.5 341t143 244.5t214 143.5t267.5 49q213 0 371 -90q11 -7 11 -16q0 -8 -13 -37l-11 -23q-10 -21 -17 -26.5t-17 -2.5q-176 74 -314 74q-258 0 -397 -168t-139 -477q0 -308 135.5 -468.5t394.5 -160.5q174 0 326 68q12 6 20 -1t17 -30l8 -20q9 -21 9 -34 q0 -15 -11 -20q-174 -83 -406 -83q-303 0 -473 199.5t-170 537.5z" />
<glyph unicode="D" horiz-adv-x="1404" d="M162 0v1475h358q410 0 604 -191q191 -188 191 -541q0 -371 -207 -563q-195 -180 -584 -180h-362zM305 115h205q324 0 481 139q174 152 174 483q0 320 -172 480q-77 73 -192 108t-295 35h-201v-1245z" />
<glyph unicode="E" d="M162 0v1475h860q11 0 14.5 -11t3.5 -43v-8q0 -33 -3.5 -44t-14.5 -11h-717v-553h608q11 0 15 -11t4 -42v-9q0 -33 -4 -44t-15 -11h-608v-571h725q11 0 15 -11t4 -43v-8q0 -33 -4 -44t-15 -11h-868z" />
<glyph unicode="F" horiz-adv-x="1085" d="M162 23v1452h842q11 0 14.5 -11t3.5 -43v-8q0 -33 -3.5 -44t-14.5 -11h-699v-553h590q11 0 14.5 -10.5t3.5 -42.5v-9q0 -33 -3.5 -44t-14.5 -11h-590v-665q0 -14 -11.5 -18.5t-51.5 -4.5h-11q-43 0 -56 4.5t-13 18.5z" />
<glyph unicode="G" horiz-adv-x="1394" d="M92 725q0 229 79 401.5t237 270.5t378 98q248 0 431 -115q8 -7 7 -15.5t-12 -33.5l-10 -22q-11 -23 -18 -29t-19 0q-180 94 -379 94q-258 0 -401 -168.5t-143 -470.5q0 -310 144.5 -473.5t416.5 -163.5q166 0 321 56v497h-370q-11 0 -15 11t-4 43v8q0 33 4 44t15 11h508 v-690q-241 -98 -469 -98q-173 0 -307.5 54.5t-220 153.5t-129.5 234.5t-44 302.5z" />
<glyph unicode="H" horiz-adv-x="1419" d="M162 18v1438q0 11 11.5 15t47.5 4h19q39 0 52 -3.5t13 -15.5v-651h809v651q0 11 11 15t46 4h21q39 0 52 -3.5t13 -15.5v-1438q0 -12 -12.5 -15t-52.5 -3h-21q-36 0 -46.5 3.5t-10.5 14.5v670h-809v-670q0 -12 -12.5 -15t-52.5 -3h-19q-36 0 -47.5 3.5t-11.5 14.5z" />
<glyph unicode="I" horiz-adv-x="491" d="M174 18v1438q0 11 11.5 15t47.5 4h19q39 0 52 -3.5t13 -15.5v-1438q0 -12 -12.5 -15t-52.5 -3h-19q-36 0 -47.5 3.5t-11.5 14.5z" />
<glyph unicode="J" horiz-adv-x="897" d="M49 85q0 10 12 34l11 20q12 23 21 28.5t24 -1.5q136 -68 237 -68q60 0 110 20.5t79 55.5q61 75 61 258v1024q0 19 60 19h16q65 0 65 -19v-1057q0 -211 -100 -317q-45 -49 -118 -75.5t-160 -26.5q-174 0 -304 86q-14 9 -14 19z" />
<glyph unicode="K" horiz-adv-x="1253" d="M162 18v1438q0 11 11.5 15t47.5 4h19q39 0 52 -3.5t13 -15.5v-776l242 233q323 311 450 545q5 10 15.5 13.5t42.5 3.5h32q21 0 31 -2.5t11.5 -7t-1.5 -11.5q-55 -119 -181 -274t-302 -320l551 -833q5 -7 5 -12q0 -12 -29 -14q-10 -1 -23 -1h-35q-47 0 -60 3t-22 17 l-483 746l-244 -227v-521q0 -12 -12.5 -15t-52.5 -3h-19q-36 0 -47.5 3.5t-11.5 14.5z" />
<glyph unicode="L" horiz-adv-x="1069" d="M162 23v1433q0 11 11.5 15t47.5 4h19q39 0 52 -3.5t13 -15.5v-1339h672q11 0 14.5 -11t3.5 -43v-8q0 -33 -3.5 -44t-14.5 -11h-758q-36 0 -46.5 4.5t-10.5 18.5z" />
<glyph unicode="M" horiz-adv-x="1650" d="M162 18v1436q0 13 13.5 17t66.5 4h6q43 0 57.5 -4t20.5 -17l336 -682q79 -162 172 -371q105 248 163 371l322 682q6 13 20.5 17t63.5 4h12q48 0 61 -4t13 -17v-1436q0 -12 -13 -15t-53 -3h-12q-36 0 -46.5 3.5t-10.5 14.5v744q0 374 4 495q-103 -246 -174 -391l-291 -592 q-5 -11 -16 -14.5t-46 -3.5h-6q-36 0 -47 3.5t-16 14.5l-295 592q-84 169 -176 389q6 -200 6 -497v-740q0 -12 -13 -15t-53 -3h-12q-36 0 -46.5 3.5t-10.5 14.5z" />
<glyph unicode="N" horiz-adv-x="1476" d="M162 18v1438q0 12 10.5 15.5t48.5 3.5h17q55 0 71 -3.5t25 -17.5l559 -833q54 -83 156.5 -234.5t138.5 -206.5v1276q0 12 9 15.5t44 3.5h16q37 0 47.5 -3.5t10.5 -15.5v-1438q0 -12 -10.5 -15t-49.5 -3h-16q-54 0 -69.5 3.5t-24.5 16.5l-557 834q-50 74 -149.5 222.5 t-149.5 221.5v-1280q0 -12 -10 -15t-48 -3h-14q-37 0 -46 3t-9 15z" />
<glyph unicode="O" horiz-adv-x="1519" d="M92 717q0 358 186 568t504 210q305 0 476.5 -194t171.5 -541q0 -358 -186.5 -569t-504.5 -211q-303 0 -475 195t-172 542zM242 725q0 -299 131.5 -462t371.5 -163q249 0 391 173.5t142 478.5q0 298 -131.5 460t-372.5 162q-249 0 -390.5 -172t-141.5 -477z" />
<glyph unicode="P" horiz-adv-x="1157" d="M162 18v1457h334q140 0 247 -22.5t189 -72.5t125 -136t43 -206q0 -225 -144.5 -346t-396.5 -121q-94 0 -254 19v-572q0 -12 -12.5 -15t-52.5 -3h-19q-36 0 -47.5 3.5t-11.5 14.5zM305 702q117 -16 227 -16q420 0 420 342q0 96 -32.5 162t-96.5 102.5t-144.5 52 t-189.5 15.5h-184v-658z" />
<glyph unicode="Q" horiz-adv-x="1519" d="M92 717q0 358 186 568t504 210q305 0 476.5 -194t171.5 -541q0 -310 -140.5 -511.5t-388.5 -252.5q47 -27 117 -88l176 -158q10 -9 7.5 -16.5t-23.5 -28.5l-23 -22q-21 -21 -31 -23h-3q-7 0 -15 8l-322 285q-18 16 -34 21t-58 8q-282 15 -441 209t-159 526zM242 725 q0 -299 131.5 -462t371.5 -163q249 0 391 173.5t142 478.5q0 298 -131.5 460t-372.5 162q-249 0 -390.5 -172t-141.5 -477z" />
<glyph unicode="R" horiz-adv-x="1206" d="M162 18v1457h360q142 0 247.5 -21.5t183.5 -68t117.5 -125.5t39.5 -189q0 -335 -373 -432q30 -22 58 -59t75 -113l267 -440q3 -5 3 -9q0 -12 -27 -16q-14 -2 -34 -2h-18q-45 0 -61 4t-25 19l-248 417q-38 66 -62 98t-59 54t-74 27.5t-110 5.5h-117v-607q0 -12 -12.5 -15 t-52.5 -3h-19q-36 0 -47.5 3.5t-11.5 14.5zM305 735h244q409 0 409 328q0 163 -103.5 231t-322.5 68h-227v-627z" />
<glyph unicode="S" horiz-adv-x="1132" d="M104 156l7 10q15 25 24 32t19 1q173 -103 364 -103q167 0 273 78t106 199q0 40 -12 74t-39 65t-55 54.5t-77.5 51.5t-87 46.5t-102.5 48.5q-98 46 -160.5 83.5t-114.5 85.5t-75.5 105.5t-23.5 130.5q0 114 63.5 201.5t166 131.5t224.5 44q97 0 195 -26.5t174 -73.5 q11 -9 9.5 -18.5t-15.5 -35.5l-6 -10q-14 -27 -23.5 -33.5t-19.5 0.5q-160 80 -306 80q-140 0 -230.5 -67t-90.5 -178q0 -47 20 -89t46 -70.5t76.5 -61t86 -51t98.5 -48.5q58 -27 95.5 -45.5t86.5 -46.5t79.5 -51.5t64 -56.5t52 -66t30.5 -75.5t12 -90.5q0 -179 -140.5 -290 t-367.5 -111q-121 0 -239 31t-195 85q-9 7 -9 17q0 12 17 43z" />
<glyph unicode="T" d="M33 1413v8q0 54 18 54h1057q18 0 18 -56v-8q0 -53 -18 -53h-457v-1340q0 -12 -13 -15t-54 -3h-17q-35 0 -47 3.5t-12 14.5v1340h-457q-10 0 -14 12t-4 43z" />
<glyph unicode="U" horiz-adv-x="1468" d="M156 545v911q0 11 11 15t46 4h18q39 0 52.5 -3.5t13.5 -15.5v-893q0 -234 105.5 -349.5t334.5 -115.5q227 0 332 116.5t105 348.5v893q0 11 11.5 15t47.5 4h14q41 0 54.5 -3.5t13.5 -15.5v-909q0 -567 -578 -567q-298 0 -439.5 139.5t-141.5 425.5z" />
<glyph unicode="V" horiz-adv-x="1325" d="M45 1448q-2 6 -2 10q0 8 7 12q10 4 54 5h21q37 0 50 -4.5t18 -18.5l286 -784q169 -456 201 -545q21 62 87.5 257.5t102.5 299.5l271 774q5 14 14.5 17.5t48.5 3.5h21q57 0 57 -14q0 -4 -2 -9l-506 -1423q-6 -19 -22.5 -24t-73.5 -5h-10q-55 0 -72 5t-25 24z" />
<glyph unicode="W" horiz-adv-x="2125" d="M59 1448q-2 5 -2 9q0 9 8 13q11 6 54 5h20q39 0 52.5 -4t17.5 -19l229 -766q26 -91 88.5 -296.5t83.5 -278.5q27 96 87.5 297t82.5 276l228 770q3 12 14.5 16.5t44.5 4.5h18q33 0 45 -5t15 -16l229 -772q26 -90 87.5 -291t82.5 -272q143 486 168 575l221 760 q5 14 15 17.5t49 3.5h16q36 0 49 -5q10 -4 10 -12q0 -3 -1 -6l-435 -1423q-6 -19 -23.5 -24t-72.5 -5h-10q-55 0 -73 5.5t-23 23.5l-197 653l-168 555q-96 -331 -166 -557l-196 -651q-5 -17 -23.5 -23t-71.5 -6h-12q-55 0 -71.5 5t-22.5 24z" />
<glyph unicode="X" horiz-adv-x="1212" d="M43 31l389 590l103 153q-18 28 -55 84.5t-48 73.5l-334 514q-10 17 3.5 23t52.5 6h26q36 0 49.5 -3.5t20.5 -15.5l242 -375q79 -122 124 -198q70 100 132 200l231 371q9 14 23 17.5t59 3.5h10q40 0 51.5 -6t-0.5 -25l-329 -498q-46 -75 -111 -168q44 -68 96 -147 l391 -602q5 -8 5 -13q0 -10 -15 -13q-14 -3 -47 -3h-27q-34 0 -47 3t-20 15l-299 463q-46 72 -123 189l-133 -211l-279 -439q-7 -13 -21.5 -16.5t-60.5 -3.5h-10q-54 0 -54 17q0 7 5 14z" />
<glyph unicode="Y" horiz-adv-x="1169" d="M33 1450q-2 4 -2 7q0 12 24 16q14 2 37 2h14q45 0 58.5 -4t21.5 -19l242 -459q6 -12 71 -132.5t95 -178.5l160 309l241 465q6 11 19 15t53 4h18q53 0 53 -15l-3 -10l-484 -881v-549q0 -12 -13.5 -16t-51.5 -4h-19q-35 0 -46 4.5t-11 15.5v549z" />
<glyph unicode="Z" horiz-adv-x="1193" d="M90 20v41q0 31 8 52t31 57l791 1188h-768q-19 0 -19 55v8q0 54 19 54h895q30 0 36.5 -3.5t6.5 -17.5v-31q0 -32 -8.5 -53t-32.5 -55l-793 -1198h834q18 0 18 -56v-8q0 -53 -18 -53h-955q-31 0 -38 3t-7 17z" />
<glyph unicode="[" horiz-adv-x="675" d="M221 -270v1812h385q11 0 15 -8t4 -37v-18q0 -28 -4 -35.5t-15 -7.5h-254v-1600h254q11 0 15 -8t4 -37v-18q0 -28 -4 -35.5t-15 -7.5h-385z" />
<glyph unicode="\" horiz-adv-x="684" d="M51 1485q-5 15 7 20.5t51 5.5h8q37 0 49.5 -5t15.5 -17l451 -1497q5 -15 -7 -21t-51 -6h-8q-37 0 -49.5 5.5t-15.5 17.5z" />
<glyph unicode="]" horiz-adv-x="675" d="M51 -209q0 29 4 37t15 8h254v1600h-254q-11 0 -15 7.5t-4 35.5v18q0 29 4 37t15 8h385v-1812h-385q-11 0 -15 7.5t-4 35.5v18z" />
<glyph unicode="^" horiz-adv-x="1175" d="M154 698q-1 4 2 9l362 768q6 12 19 16t49 4h4q36 0 48.5 -4t18.5 -16l363 -768q9 -18 -21 -22q-11 -1 -28 -1h-19q-56 0 -65 18l-299 666l-299 -666q-9 -18 -66 -18h-18q-51 0 -51 14z" />
<glyph unicode="_" horiz-adv-x="1032" d="M-2 -379q0 27 3 35t13 8h1004q10 0 13 -8t3 -35v-2q0 -27 -3 -37t-13 -10h-1004q-10 0 -13 10t-3 37v2z" />
<glyph unicode="`" horiz-adv-x="724" d="M221 1456q-12 16 15 20q10 1 28 1h31q39 0 53 -4.5t21 -16.5l137 -242q5 -9 -11 -12l-30 -2h-8q-46 0 -56 12z" />
<glyph unicode="a" horiz-adv-x="1153" d="M96 522q0 260 131.5 420t337.5 160q201 0 303 -150l11 109q1 12 13 16t44 4h14q31 0 38 -4t7 -20q0 -9 -1 -32.5t-1 -33.5q-2 -63 -2 -235v-299q0 -224 15 -441q0 -9 -11 -12.5t-41 -3.5h-6q-34 0 -43.5 3.5t-11.5 14.5l-16 127q-47 -79 -134.5 -122t-195.5 -43 q-113 0 -201 42.5t-141.5 117.5t-81 171.5t-27.5 210.5zM240 532q0 -68 9.5 -128t33 -116.5t59 -97.5t91 -65.5t126.5 -24.5q150 0 225 84q44 50 59 114t15 206v307q-110 168 -285 168q-154 0 -243.5 -121t-89.5 -326z" />
<glyph unicode="b" horiz-adv-x="1140" d="M156 72v1466q0 18 57 18h16q60 0 60 -18v-582q118 146 315 146q94 0 170 -30t125.5 -80.5t82.5 -120t47.5 -144.5t14.5 -158q0 -274 -136.5 -431.5t-383.5 -157.5q-190 0 -342 57q-16 6 -21 13t-5 22zM289 135q98 -37 229 -37q192 0 287.5 119.5t95.5 337.5 q0 207 -77 315.5t-228 108.5t-234 -92q-60 -67 -67 -172q-6 -89 -6 -293v-287z" />
<glyph unicode="c" horiz-adv-x="989" d="M96 524q0 138 38 248t105 182t157.5 110t197.5 38q180 0 319 -92q10 -6 10 -16t-14 -42l-8 -16q-13 -27 -23.5 -33t-23.5 2q-120 72 -250 72q-166 0 -265 -115.5t-99 -324.5q0 -90 18.5 -166t57.5 -138.5t107 -97.5t159 -35q153 0 268 62q14 7 22 0t19 -35l8 -23 q9 -25 8.5 -34t-10.5 -15q-132 -75 -330 -75q-154 0 -262 73t-158.5 193.5t-50.5 277.5z" />
<glyph unicode="d" horiz-adv-x="1189" d="M96 518q0 93 19 178.5t59.5 159.5t97.5 128.5t138.5 86t177.5 31.5q73 0 146 -23t126 -63v522q0 18 58 18h16q59 0 59 -18v-1302q0 -86 17 -110t69 -24q10 0 12.5 -7t2.5 -36v-8q0 -29 -2 -36.5t-11 -10.5q-28 -8 -69 -8q-62 0 -98 34.5t-42 100.5q-91 -151 -321 -151 q-217 0 -336 141.5t-119 396.5zM240 524q0 -207 87 -315.5t240 -108.5q69 0 129.5 22t98.5 62q40 42 52.5 106t12.5 210v381q-116 96 -260 96q-164 0 -262 -123.5t-98 -329.5z" />
<glyph unicode="e" horiz-adv-x="1107" d="M96 516q0 168 56.5 300t168 209t261.5 77q128 0 219.5 -58t144.5 -163q70 -143 70 -332q0 -33 -6 -42t-23 -9h-747q9 -221 116 -312q91 -82 258 -82q157 0 281 62q14 9 24 2.5t21 -35.5l8 -20q17 -43 -2 -54q-152 -79 -354 -79q-236 0 -366 142.5t-130 393.5zM242 604 h637q-2 73 -20 138t-53 118.5t-93 85t-133 31.5q-140 0 -228.5 -89.5t-109.5 -283.5z" />
<glyph unicode="f" horiz-adv-x="675" d="M66 1016v14q0 30 3.5 40.5t14.5 10.5h143v84q0 437 363 437q99 0 186 -35q10 -4 10 -23q0 -13 -4 -31l-4 -14q-8 -27 -15 -36t-20 -5q-77 25 -147 25q-134 0 -185 -78t-51 -244v-80h252q11 0 15 -10.5t4 -40.5v-14q0 -29 -4 -39t-15 -10h-252v-947q0 -20 -57 -20h-16 q-60 0 -60 20v947h-143q-11 0 -14.5 10t-3.5 39z" />
<glyph unicode="g" horiz-adv-x="1148" d="M96 528q1 263 132.5 418.5t338.5 155.5q201 0 297 -137l2 98q0 11 11.5 14.5t46.5 3.5h8q38 0 48.5 -3.5t10.5 -14.5q8 -218 8 -516v-357q0 -265 -41 -397q-45 -144 -161.5 -219.5t-286.5 -75.5q-76 0 -155 15t-130 38q-20 10 -4 58l4 12q12 35 19 42t22 1 q104 -43 244 -43q292 0 344 262q12 80 12 252q-129 -135 -338 -135q-140 0 -239 70t-146 187.5t-47 270.5zM240 537q0 -202 81 -308t242 -106q87 0 166.5 39.5t136.5 107.5v312q0 113 -7 167.5t-28 94.5q-29 58 -92 93.5t-153 35.5q-168 0 -257 -116.5t-89 -319.5z" />
<glyph unicode="h" horiz-adv-x="1187" d="M160 23v1515q0 18 57 18h16q60 0 60 -18v-602q119 166 354 166q189 0 293 -107q52 -54 76 -136.5t24 -207.5v-628q0 -23 -57 -23h-16q-60 0 -60 23v536q0 144 -12.5 215t-52.5 119q-66 78 -228 78q-161 0 -254 -101q-51 -57 -61 -147q-6 -59 -6 -297v-403q0 -23 -57 -23 h-17q-59 0 -59 23z" />
<glyph unicode="i" horiz-adv-x="452" d="M121 1454q0 46 31.5 78.5t74.5 32.5t75 -33t32 -78q0 -46 -31.5 -77t-75.5 -31t-75 31t-31 77zM160 20v1043q0 10 12 14t45 4h16q35 0 47.5 -3.5t12.5 -14.5v-1043q0 -11 -12 -15.5t-45 -4.5h-17q-35 0 -47 4.5t-12 15.5z" />
<glyph unicode="j" horiz-adv-x="503" d="M-164 -430l2 12q5 28 9.5 37t13.5 6q51 -14 102 -14q136 0 191 83.5t55 282.5v1086q0 18 57 18h17q35 0 47 -3.5t12 -14.5v-1081q0 -256 -91.5 -370t-275.5 -114q-74 0 -133 23q-8 4 -8 23q0 11 2 26zM170 1454q0 46 31.5 78.5t74.5 32.5t75 -33t32 -78q0 -46 -31.5 -77 t-75.5 -31t-75 31t-31 77z" />
<glyph unicode="k" horiz-adv-x="978" d="M160 18v1520q0 18 57 18h16q60 0 60 -18v-946l119 102q188 159 340 367q14 20 73 20h11q57 0 58 -11q0 -4 -5 -11q-55 -82 -147.5 -189.5t-200.5 -207.5l389 -633q5 -8 5 -14q1 -7 -7 -9q-14 -6 -54 -6h-8q-49 0 -61.5 4t-22.5 19l-340 555l-149 -129v-431q0 -18 -57 -18 h-17q-59 0 -59 18z" />
<glyph unicode="l" horiz-adv-x="501" d="M137 1538q0 10 12.5 14t45.5 4h16q35 0 47 -3.5t12 -14.5q9 -178 9 -596v-713q0 -71 14 -98t59 -27q11 0 41 5q8 2 12 -5t7 -32l2 -15q1 -11 1 -18q1 -9 -1 -14q-4 -9 -19 -13q-41 -12 -84 -12q-95 0 -135 57q-31 47 -31 213v719q0 333 -8 549z" />
<glyph unicode="m" horiz-adv-x="1892" d="M158 1063q0 12 10.5 15t42.5 3h16q35 0 47.5 -3.5t12.5 -14.5l6 -125q112 164 346 164q177 0 281 -107q41 -44 59 -92q125 199 373 199q189 0 293 -107q52 -54 76 -136.5t24 -207.5v-633q0 -18 -57 -18h-17q-59 0 -59 18v541q0 143 -12.5 214.5t-53.5 119.5 q-66 78 -217 78q-173 0 -256 -113q-38 -49 -47 -135q-6 -53 -6 -148v-557q0 -18 -57 -18h-17q-59 0 -59 18v541q0 143 -12.5 214.5t-53.5 119.5q-66 78 -217 78q-173 0 -256 -113q-38 -49 -47 -135q-6 -59 -6 -297v-408q0 -18 -57 -18h-17q-59 0 -59 18v775q0 190 -4 270z " />
<glyph unicode="n" horiz-adv-x="1189" d="M158 1063q0 18 55 18h14q56 0 56 -18l6 -131q122 170 360 170q189 0 293 -107q52 -54 76 -136.5t24 -207.5v-628q0 -23 -57 -23h-16q-60 0 -60 23v536q0 144 -12.5 215t-52.5 119q-66 78 -228 78q-161 0 -254 -101q-51 -57 -61 -147q-6 -59 -6 -297v-403q0 -23 -57 -23 h-17q-59 0 -59 23v770q0 178 -4 270z" />
<glyph unicode="o" d="M96 516q0 284 135 435t369 151q188 0 301 -101q162 -146 162 -436q0 -284 -135 -434.5t-369 -150.5q-190 0 -301 100q-162 146 -162 436zM240 530q0 -66 9 -124.5t32.5 -116t59 -98.5t93 -66t131.5 -25q73 0 135 25.5t112.5 77.5t79 141t28.5 207q0 66 -9.5 124.5 t-33 116t-59.5 98.5t-94 66t-132 25q-72 0 -134 -25.5t-111.5 -77.5t-78 -141.5t-28.5 -206.5z" />
<glyph unicode="p" horiz-adv-x="1146" d="M158 -459v1522q0 11 11.5 14.5t43.5 3.5h16q54 0 54 -18l6 -102q111 141 321 141q206 0 323.5 -139t117.5 -400q0 -157 -54.5 -287.5t-166 -213t-261.5 -82.5q-166 0 -278 98v-537q0 -18 -60 -18h-16q-33 0 -45 4t-12 14zM291 209q50 -48 123.5 -78.5t154.5 -30.5 q159 0 248.5 124t89.5 333q0 217 -82 319.5t-233 102.5q-160 0 -236 -92q-34 -42 -49.5 -111.5t-15.5 -232.5v-334z" />
<glyph unicode="q" horiz-adv-x="1146" d="M96 512q0 271 147 430.5t398 159.5q166 0 320 -60q28 -9 28 -38v-891q0 -381 12 -574q0 -16 -61 -16h-12q-35 0 -47.5 3.5t-12.5 12.5q-12 242 -12 619q-98 -178 -330 -178q-210 0 -320 146.5t-110 385.5zM240 526q0 -210 78 -318t231 -108q126 0 219 93q50 50 69 138.5 t19 286.5v324q-105 43 -215 43q-191 0 -296 -124.5t-105 -334.5z" />
<glyph unicode="r" horiz-adv-x="710" d="M158 1067q0 14 57 14h10q60 0 60 -14l6 -238q43 124 126.5 194.5t176.5 70.5q36 0 61 -7q15 -3 15 -43v-16q0 -34 -4 -48.5t-17 -14.5q-155 0 -252 -123q-86 -111 -96 -277q-6 -89 -6 -317v-230q0 -11 -12.5 -14.5t-49.5 -3.5h-12q-36 0 -47.5 3.5t-11.5 14.5v713 q0 110 -4 336z" />
<glyph unicode="s" horiz-adv-x="919" d="M109 127l6 12q17 31 26.5 37.5t20.5 -2.5q136 -84 272 -84q128 0 198 49t70 152q0 38 -12 66.5t-32 48t-57 36.5t-73.5 28t-95.5 26q-172 43 -239 102q-84 74 -84 197q0 146 99 226.5t261 80.5q90 0 175 -28.5t149 -78.5q9 -8 6.5 -19t-17.5 -34l-8 -12q-17 -24 -27 -29 t-20 4q-124 82 -262 82q-105 0 -165 -46t-60 -130q0 -97 82 -142q40 -22 163 -55q48 -12 81 -22.5t71.5 -25.5t64 -30.5t51 -38.5t40 -49.5t23.5 -62t9 -78.5q0 -156 -105.5 -241.5t-281.5 -85.5q-189 0 -336 96q-8 5 -8 13q0 9 15 38z" />
<glyph unicode="t" horiz-adv-x="747" d="M14 1008v10q0 28 15 33q54 15 91 35.5t60 44t38 62.5t22.5 77t15.5 102q2 8 8 10t29 2h14q23 0 30 -2t7 -10v-291h289q9 0 11.5 -9.5t2.5 -39.5v-6q0 -30 -2.5 -38.5t-11.5 -8.5h-289v-657q0 -82 7 -123t30 -64q41 -41 125 -41q86 0 156 25q13 4 16.5 -1.5t11.5 -35.5 l4 -14q6 -25 6 -35q0 -12 -10 -15q-93 -38 -215 -38q-123 0 -192 63q-40 39 -56 99.5t-16 164.5v672h-184q-13 0 -13 29z" />
<glyph unicode="u" horiz-adv-x="1183" d="M145 430v631q0 11 11.5 15.5t46.5 4.5h16q35 0 47.5 -4.5t12.5 -15.5v-541q0 -148 10 -218t47 -114q70 -82 227 -82q147 0 234 87q46 46 67 124t21 234v510q0 11 11 15.5t46 4.5h16q35 0 47.5 -4.5t12.5 -15.5v-711l6 -328q0 -14 -8 -18q-9 -4 -41 -4h-17q-34 0 -43 3.5 t-10 16.5l-10 142q-106 -182 -350 -182q-209 0 -303 104q-52 53 -74.5 135.5t-22.5 210.5z" />
<glyph unicode="v" horiz-adv-x="1009" d="M39 1055q-2 5 -2 8q-1 8 7 12q10 6 48 6h25q37 0 49.5 -4t17.5 -18l330 -950q188 479 303 950q3 13 14.5 17.5t42.5 4.5h19q35 1 49 -5q10 -4 11 -15q0 -3 -1 -6q-149 -562 -348 -1024q-8 -19 -25 -25t-67 -6h-16q-48 0 -63 7t-23 28z" />
<glyph unicode="w" horiz-adv-x="1613" d="M53 1055q-1 4 -1 8q0 9 8 13q12 4 53 5h16q40 0 51.5 -4.5t16.5 -19.5l266 -948l246 950q3 14 17 18t58 4h19q48 0 61.5 -4t16.5 -16l270 -952q93 269 152.5 483.5t107.5 464.5q3 16 12.5 20t49.5 4h10q35 1 47 -3q9 -3 9 -11q0 -2 -1 -4q-74 -332 -139 -550.5 t-160 -469.5q-10 -25 -26.5 -34t-61.5 -9h-16q-45 0 -63 8.5t-23 26.5l-136 481q-49 171 -118 445q-60 -268 -109 -447l-131 -473q-6 -22 -25.5 -31.5t-64.5 -9.5h-16q-42 0 -61.5 8t-25.5 27z" />
<glyph unicode="x" horiz-adv-x="1015" d="M80 19l2 4l352 540l-311 492q-12 19 20 24l45 2h13q43 0 58 -4t22 -14l235 -389l234 389q8 12 20 15t53 3h15q63 0 63 -16q0 -4 -4 -10l-307 -477l354 -547q3 -6 3 -10q-1 -8 -9 -13q-14 -8 -47 -8h-19q-44 0 -60.5 5.5t-25.5 21.5l-278 436l-281 -447q-11 -16 -75 -16 h-11q-62 0 -62 16q0 1 1 3z" />
<glyph unicode="y" horiz-adv-x="1042" d="M-20 -459.5q0 9.5 8 35.5l6 18q9 28 15 36t16 5q59 -18 108 -18q125 0 205 81.5t145 272.5l-422 1086q-3 9 0.5 13.5t18 7.5t43.5 3h16q39 0 54.5 -4t19.5 -16l193 -520q66 -176 145 -424q72 226 137 409l189 535q5 12 16 16t47 4h10q33 0 48 -5q13 -3 13 -11q0 -2 -1 -4 l-394 -1104q-89 -238 -178 -334q-112 -123 -297 -123q-89 0 -151 27q-10 4 -10 13.5z" />
<glyph unicode="z" horiz-adv-x="931" d="M86 45v10q0 39 12 56l557 856h-528q-9 0 -12.5 9.5t-3.5 43.5v6q0 35 3 45t13 10h676q12 0 15 -7t3 -38v-8q0 -42 -14 -63l-555 -850h582q9 0 12.5 -10.5t3.5 -45.5v-6q0 -34 -3.5 -43.5t-12.5 -9.5h-730q-11 0 -14.5 9t-3.5 36z" />
<glyph unicode="{" horiz-adv-x="675" d="M106 623v26q0 27 4 35t15 10q79 11 114 65.5t35 184.5v293q0 156 83.5 230.5t228.5 74.5h41q11 0 14.5 -7.5t3.5 -37.5v-18q0 -28 -3.5 -35.5t-14.5 -7.5h-29q-101 0 -146.5 -48t-45.5 -165v-291q0 -123 -36 -189.5t-120 -105.5q84 -39 120 -105.5t36 -189.5v-293 q0 -117 45.5 -165t146.5 -48h29q11 0 14.5 -7.5t3.5 -35.5v-18q0 -30 -3.5 -37.5t-14.5 -7.5h-41q-145 0 -228.5 74.5t-83.5 230.5v293q0 130 -35 184.5t-114 65.5q-11 2 -15 10t-4 35z" />
<glyph unicode="|" horiz-adv-x="565" d="M219 -539v2192q0 11 11 15.5t42 4.5h17q32 0 43.5 -4.5t11.5 -15.5v-2192q0 -11 -11.5 -15.5t-43.5 -4.5h-17q-31 0 -42 4.5t-11 15.5z" />
<glyph unicode="}" horiz-adv-x="675" d="M31 -207q0 28 3.5 35.5t14.5 7.5h29q101 0 146.5 48t45.5 165v293q0 123 36 189.5t120 105.5q-84 39 -120 105.5t-36 189.5v291q0 117 -45.5 165t-146.5 48h-29q-11 0 -14.5 7.5t-3.5 35.5v18q0 30 3.5 37.5t14.5 7.5h41q145 0 228 -74.5t83 -230.5v-293 q0 -129 35.5 -184t114.5 -66q11 -2 14.5 -10t3.5 -35v-26q0 -27 -3.5 -35t-14.5 -10q-79 -11 -114.5 -66t-35.5 -184v-293q0 -156 -83 -230.5t-228 -74.5h-41q-11 0 -14.5 7.5t-3.5 37.5v18z" />
<glyph unicode="~" horiz-adv-x="1175" d="M35 684q27 127 108.5 193.5t200.5 66.5q59 0 115 -20t100.5 -49t88.5 -58t95.5 -49t104.5 -20q77 0 123.5 43.5t75.5 130.5q3 10 9 11.5t31 -5.5l29 -8q16 -5 21 -10t4 -15q-27 -127 -109 -193.5t-201 -66.5q-59 0 -115 20t-100.5 49t-88 58t-95 49t-104.5 20 q-77 0 -123.5 -43.5t-75.5 -130.5q-3 -10 -9.5 -11.5t-31.5 5.5l-29 8q-15 5 -20 10t-4 15z" />
<glyph unicode="&#xa1;" horiz-adv-x="628" d="M207 993q0 46 30.5 77.5t73.5 31.5q46 0 77.5 -31.5t31.5 -77.5t-31.5 -78t-77.5 -32q-43 0 -73.5 32t-30.5 78zM219 -369l39 1033q0 14 43 14h21q43 0 43 -14l34 -1033q0 -13 -14.5 -18.5t-60.5 -5.5h-29q-47 0 -61.5 5.5t-14.5 18.5z" />
<glyph unicode="&#xa2;" horiz-adv-x="1015" d="M96 512q0 220 118 369.5t323 169.5v204q0 11 9 14t38 3h6q29 0 40 -3.5t11 -13.5v-202q158 -12 277 -97q10 -7 11 -14.5t-1 -12t-13 -24.5l-12 -20q-22 -40 -41 -27q-124 82 -258 82q-175 0 -269.5 -112t-94.5 -302q0 -88 20.5 -161t62 -131t111.5 -90.5t162 -32.5 q138 0 258 63q11 8 21.5 4t21.5 -28l8 -19q11 -28 10 -36.5t-14 -16.5q-129 -78 -283 -86v-199q0 -10 -11 -13t-40 -3h-6q-30 0 -38.5 3t-8.5 13v201q-105 11 -187 59.5t-131 121t-74.5 158.5t-25.5 179z" />
<glyph unicode="&#xa3;" horiz-adv-x="1175" d="M125 741v2q0 30 3 39t13 9h203v241q0 219 111.5 350t326.5 131q152 0 279 -71q18 -10 -2 -51l-10 -21q-11 -22 -21.5 -26t-23.5 4q-111 51 -218 51q-299 0 -299 -367v-241h420q10 0 13.5 -9.5t3.5 -38.5v-2q0 -29 -3.5 -40t-13.5 -11h-420v-172q0 -153 -34 -238 t-123 -159h745q10 0 13.5 -11.5t3.5 -41.5v-11q0 -57 -17 -57h-899q-16 0 -16 57v11q0 48 14 59q95 70 132.5 156.5t37.5 214.5v192h-203q-10 0 -13 11t-3 40z" />
<glyph unicode="&#xa4;" horiz-adv-x="1175" d="M166 179q0 4 4 9l139 234q-90 113 -90 295q0 214 109 332l-140 233q-11 17 18 22q18 3 52 3q35 0 48.5 -5.5t23.5 -19.5l94 -160q77 41 180 41q95 0 168 -39l92 158q9 15 23.5 20t54.5 5q68 -2 68 -17q-1 -3 -4 -8l-140 -233q90 -113 90 -295q0 -215 -108 -332l139 -234 q10 -16 -14 -21q-17 -3 -55 -3q-35 0 -49 5t-23 19l-94 160q-77 -41 -181 -41q-95 0 -168 39l-92 -158q-9 -15 -23 -19.5t-55 -4.5q-66 2 -67 15zM346 727q0 -59 11 -110.5t36.5 -98.5t73 -74.5t113.5 -27.5q108 0 178.5 81.5t70.5 245.5q0 59 -11 110.5t-36 99t-72.5 75 t-113.5 27.5q-108 0 -179 -82t-71 -246z" />
<glyph unicode="&#xa5;" horiz-adv-x="1169" d="M33 1450q-9 18 22 23q14 2 37 2h14q45 0 58.5 -4t21.5 -19l242 -459q6 -12 71 -132.5t95 -178.5l160 309l241 465q6 11 19 15t53 4h18q53 0 53 -15l-3 -10l-447 -813h262q11 0 14 -9t3 -38v-6q0 -29 -3.5 -40.5t-13.5 -11.5h-299v-124h299q10 0 13.5 -9.5t3.5 -38.5v-6 q0 -29 -3.5 -40t-13.5 -11h-299v-283q0 -12 -13.5 -16t-51.5 -4h-19q-35 0 -46 4.5t-11 15.5v283h-299q-10 0 -13 11t-3 40v6q0 30 3 39t13 9h299v124h-299q-10 0 -13 11t-3 41v6q0 30 3 38.5t13 8.5h262z" />
<glyph unicode="&#xa6;" horiz-adv-x="565" d="M219 348q0 11 11 16t42 5h17q32 0 43.5 -5t11.5 -16v-782q0 -11 -11.5 -16t-43.5 -5h-17q-31 0 -42 5t-11 16v782zM219 768v782q0 11 11 16t42 5h17q32 0 43.5 -5t11.5 -16v-782q0 -11 -11.5 -15.5t-43.5 -4.5h-17q-31 0 -42 4.5t-11 15.5z" />
<glyph unicode="&#xa7;" horiz-adv-x="1026" d="M90 731q0 88 40 161.5t110 121.5q-68 71 -68 182q0 129 103.5 213t275.5 84q179 0 315 -92q12 -10 -8 -45l-8 -15q-14 -24 -22.5 -29.5t-14.5 1.5q-126 76 -260 76q-115 0 -184.5 -49.5t-69.5 -133.5q0 -48 27.5 -84t72 -56.5t101.5 -41t116.5 -35.5t116.5 -41t101.5 -58 t72 -86t27.5 -124q0 -88 -41 -162t-111 -121q70 -73 70 -182q0 -129 -103.5 -213t-275.5 -84q-179 0 -315 92q-12 10 8 45l8 15q14 24 22.5 29.5t14.5 -1.5q124 -75 260 -75q115 0 184.5 49t69.5 133q0 48 -27.5 84t-72 56.5t-101.5 41t-116.5 35.5t-116.5 41t-101.5 58 t-72 86t-27.5 124zM211 745q0 -56 32.5 -95.5t89.5 -63.5t117 -41t134.5 -41t122.5 -51q106 86 106 213q0 56 -32.5 95.5t-89.5 63.5t-117.5 40.5t-135 40t-123.5 50.5q-104 -87 -104 -211z" />
<glyph unicode="&#xa8;" horiz-adv-x="724" d="M57 1339q0 40 28.5 69.5t68.5 29.5t69 -29.5t29 -69.5t-29 -68t-69 -28t-68.5 28t-28.5 68zM471 1339q0 40 28.5 69.5t67.5 29.5q40 0 69.5 -29.5t29.5 -69.5q0 -39 -29.5 -67.5t-69.5 -28.5t-68 28t-28 68z" />
<glyph unicode="&#xa9;" horiz-adv-x="1656" d="M88 739q0 209 98 383t268.5 274.5t376.5 100.5q153 0 290 -59t234.5 -160.5t154.5 -241.5t57 -297q0 -156 -58 -297t-156.5 -242t-235 -160.5t-288.5 -59.5q-153 0 -290 59.5t-236 160.5t-157 242t-58 297zM195 739q0 -139 49 -263.5t132.5 -214.5t201 -142.5 t249.5 -52.5t250 51.5t203 141t134.5 214.5t49.5 266q0 185 -83 339t-228.5 243.5t-321.5 89.5q-131 0 -249 -52.5t-203 -142.5t-134.5 -214.5t-49.5 -262.5zM494 745q0 87 23.5 163t69 136.5t121.5 96t173 35.5q105 0 186 -48q12 -6 0 -34l-10 -23q-11 -24 -25 -18 q-82 32 -151 32q-93 0 -156.5 -46.5t-91 -119.5t-27.5 -169q0 -69 15 -126.5t46.5 -103.5t85.5 -72t126 -26q80 0 153 33q7 4 12.5 0.5t12.5 -19.5l10 -22q13 -29 0 -35q-87 -49 -211 -49q-170 0 -266 118.5t-96 296.5z" />
<glyph unicode="&#xaa;" horiz-adv-x="886" d="M111 1139q0 75 19.5 141.5t57 119t98 83t136.5 30.5q62 0 116 -23.5t89 -66.5l10 66q2 8 12 11t45 3q49 0 49 -12q0 -11 -3 -122t-3 -159v-114q0 -48 3 -159t3 -122q0 -12 -49 -12q-35 0 -45 3t-12 11l-12 92q-33 -54 -90 -85t-132 -31q-130 0 -206 86q-86 99 -86 260z M231 1147q0 -123 50.5 -193.5t150.5 -70.5q85 0 135 63q54 66 54 209v172q-70 98 -181 98q-101 0 -155 -74t-54 -204z" />
<glyph unicode="&#xab;" horiz-adv-x="1054" d="M147 618v11q0 24 11 39l274 397q8 11 16.5 11t28.5 -11l15 -8q33 -18 22 -37l-240 -397l240 -396q11 -19 -22 -37l-15 -8q-20 -10 -28.5 -10t-16.5 10l-274 398q-11 15 -11 38zM569 618v11q0 24 11 39l274 397q8 11 16.5 11t28.5 -11l14 -8q34 -19 23 -37l-240 -397 l240 -396q11 -18 -23 -37l-14 -8q-20 -10 -28.5 -10t-16.5 10l-274 398q-11 15 -11 38z" />
<glyph unicode="&#xac;" horiz-adv-x="1175" d="M84 948v6q0 27 3 36t13 9h992v-493q0 -10 -9.5 -13.5t-35.5 -3.5h-7q-27 0 -36 3.5t-9 13.5v397h-895q-10 0 -13 9.5t-3 35.5z" />
<glyph unicode="&#xad;" horiz-adv-x="782" d="M106 623v6q0 29 3 38t14 9h536q11 0 14 -9t3 -38v-6q0 -29 -3.5 -40.5t-13.5 -11.5h-536q-10 0 -13.5 11.5t-3.5 40.5z" />
<glyph unicode="&#xae;" horiz-adv-x="1656" d="M88 739q0 209 98 383t268.5 274.5t376.5 100.5q153 0 290 -59t234.5 -160.5t154.5 -241.5t57 -297q0 -156 -58 -297t-156.5 -242t-235 -160.5t-288.5 -59.5q-153 0 -290 59.5t-236 160.5t-157 242t-58 297zM195 739q0 -139 49 -263.5t132.5 -214.5t201 -142.5 t249.5 -52.5t250 51.5t203 141t134.5 214.5t49.5 266q0 185 -83 339t-228.5 243.5t-321.5 89.5q-131 0 -249 -52.5t-203 -142.5t-134.5 -214.5t-49.5 -262.5zM559 362v793h254q185 0 266 -78q64 -61 64 -159q0 -104 -76 -170q-40 -38 -125 -62q33 -26 76 -98l131 -219 q11 -16 -19 -20q-10 -1 -24 -1h-14q-31 0 -43 3.5t-21 15.5l-102 176q-52 88 -81 109.5t-100 21.5h-75v-312q0 -14 -52 -14h-12q-47 0 -47 14zM670 756h131q123 0 178 49q47 44 47 113q0 75 -57 114q-52 35 -178 35h-121v-311z" />
<glyph unicode="&#xaf;" horiz-adv-x="724" d="M78 1348v6q0 30 3 38.5t13 8.5h537q10 0 13 -8.5t3 -38.5v-6q0 -30 -3 -41t-13 -11h-537q-10 0 -13 11t-3 41z" />
<glyph unicode="&#xb0;" horiz-adv-x="731" d="M84 1208q0 132 78.5 209.5t210.5 77.5q127 0 200.5 -69t73.5 -203q0 -131 -78.5 -209t-210.5 -78q-126 0 -200 70t-74 202zM178 1212q0 -95 46.5 -144.5t135.5 -49.5t140 53t51 150q0 94 -45.5 144t-134.5 50t-141 -53.5t-52 -149.5z" />
<glyph unicode="&#xb1;" horiz-adv-x="1175" d="M84 45v6q0 27 3 36t13 9h975q10 0 13.5 -9t3.5 -36v-6q0 -26 -3.5 -35.5t-13.5 -9.5h-975q-10 0 -13 9.5t-3 35.5zM84 907v6q0 27 3 36t13 9h439v439q0 10 9.5 13t37.5 3h2q27 0 37 -3t10 -13v-439h440q10 0 13.5 -9t3.5 -36v-6q0 -26 -3.5 -35.5t-13.5 -9.5h-440v-440 q0 -10 -10 -13t-37 -3h-2q-28 0 -37.5 3t-9.5 13v440h-439q-10 0 -13 9.5t-3 35.5z" />
<glyph unicode="&#xb2;" horiz-adv-x="827" d="M146 1516q0 7 8 12q95 63 235 63q117 0 186.5 -57.5t69.5 -161.5q0 -85 -39.5 -156.5t-142.5 -179.5l-170 -178h354q11 0 14 -7.5t3 -33.5v-8q0 -25 -3.5 -32t-13.5 -7h-479q-9 0 -11.5 7t-2.5 26v10q0 27 16 43l162 174q118 127 160.5 196t42.5 138q0 139 -160 139 q-89 0 -178 -47q-11 -6 -16.5 -2t-16.5 23l-8 14q-10 18 -10 25z" />
<glyph unicode="&#xb3;" horiz-adv-x="827" d="M144.5 804.5q-0.5 6.5 7.5 26.5l4 11q9 21 13.5 25t14.5 1q78 -30 178 -30q93 0 142 41.5t49 117.5q0 83 -56 118.5t-169 35.5h-58q-14 0 -14 39v8q0 24 3 31.5t11 7.5h64q207 0 207 147q0 125 -152 125q-94 0 -182 -45q-18 -9 -31 23l-6 14q-8 19 -8 25t8 10 q102 55 229 55q119 0 185.5 -51.5t66.5 -146.5q0 -157 -145 -199q75 -14 119.5 -64t44.5 -124q0 -121 -79.5 -185.5t-219.5 -64.5q-125 0 -217 39q-9 3 -9.5 9.5z" />
<glyph unicode="&#xb4;" horiz-adv-x="724" d="M216 1210q0 2 1 4l137 242q7 12 21 16.5t53 4.5h31q47 0 47 -12q0 -3 -4 -9l-180 -244q-10 -12 -56 -12h-8q-43 0 -42 10z" />
<glyph unicode="&#xb5;" horiz-adv-x="1206" d="M158 -109v1170q0 11 11 15.5t46 4.5h16q35 0 47.5 -4.5t12.5 -15.5v-539q0 -137 11.5 -211t47.5 -118q74 -84 213 -84q162 0 244 88q33 34 49.5 76t22.5 110q6 89 6 276v402q0 11 11 15.5t46 4.5h16q35 0 47.5 -4.5t12.5 -15.5v-817q0 -91 17 -116.5t71 -25.5 q9 0 11.5 -6.5t2.5 -36.5v-8q0 -30 -1.5 -37t-10.5 -10q-28 -8 -70 -8q-70 0 -107.5 40t-39.5 111q-55 -82 -135 -124.5t-201 -42.5q-84 0 -155.5 30.5t-108.5 81.5v-176q0 -200 18 -369q2 -14 -11.5 -19t-49.5 -5h-12q-40 0 -53 4t-15 16q-10 141 -10 348z" />
<glyph unicode="&#xb6;" horiz-adv-x="1263" d="M86 1049q0 197 122.5 311.5t348.5 114.5h590q10 0 13 -9t3 -39v-16q0 -29 -3 -40t-13 -11h-127v-1622q0 -19 -64 -19h-12q-57 0 -57 19v1624h-242v-1624q0 -19 -63 -19h-13q-57 0 -57 19v903q-196 7 -311 119t-115 289z" />
<glyph unicode="&#xb7;" horiz-adv-x="493" d="M131 721q0 50 34 84.5t81 34.5q48 0 82 -34.5t34 -84.5q0 -52 -34 -85.5t-82 -33.5q-47 0 -81 34t-34 85z" />
<glyph unicode="&#xb8;" horiz-adv-x="724" d="M176 -416l2 10q4 19 8.5 25t12.5 4q65 -14 112 -14q127 0 127 90q0 88 -125 88q-60 0 -108 -10l26 209q2 12 39 12h25q14 0 22 -1.5t11 -4t2 -6.5l-17 -123q36 4 56 4q82 0 133 -44t51 -116q0 -78 -56.5 -131t-168.5 -53q-94 0 -148 24q-9 5 -4 37z" />
<glyph unicode="&#xb9;" horiz-adv-x="827" d="M149.5 1428.5q-0.5 7.5 8.5 13.5l196 114q35 21 72 21h37q31 0 31 -14v-715h122q8 0 10.5 -7t2.5 -30v-6q0 -35 -13 -35h-366q-12 0 -12 35v6q0 23 2 30t10 7h131v622l-182 -104q-17 -10 -35 25l-4 8q-10 22 -10.5 29.5z" />
<glyph unicode="&#xba;" horiz-adv-x="886" d="M111 1141q0 181 93 276.5t253 95.5q152 0 235.5 -93t83.5 -255q0 -181 -93 -276.5t-253 -95.5q-152 0 -235.5 93t-83.5 255zM231 1149q0 -40 5 -75t19.5 -69.5t36.5 -59t59 -39.5t85 -15q101 0 160 67t59 199q0 51 -9 94t-30.5 82t-63.5 61.5t-101 22.5 q-101 0 -160.5 -68t-59.5 -200z" />
<glyph unicode="&#xbb;" horiz-adv-x="1054" d="M119 227l239 396l-239 397q-11 19 22 37l15 8q20 11 29 11t16 -11l274 -397q10 -13 10 -39v-11q0 -25 -10 -38l-274 -398q-7 -10 -16 -10t-29 10l-15 8q-33 18 -22 37zM541 227l239 396l-239 397q-11 19 22 37l15 8q20 11 28.5 11t16.5 -11l274 -397q10 -13 10 -39v-11 q0 -25 -10 -38l-274 -398q-7 -10 -16 -10t-29 10l-15 8q-33 18 -22 37z" />
<glyph unicode="&#xbc;" horiz-adv-x="1851" d="M169.5 1325.5q-0.5 7.5 8.5 13.5l197 115q35 21 71 21h37q31 0 31 -15v-715h123q8 0 10 -6.5t2 -29.5v-7q0 -34 -12 -34h-367q-12 0 -12 34v7q0 23 2 29.5t10 6.5h131v623l-182 -104q-17 -10 -35 24l-4 8q-10 22 -10.5 29.5zM542.5 -31q-7.5 6 0.5 21l704 1497 q6 13 17 17.5t43 4.5h12q32 0 39 -4.5t0 -21.5l-707 -1497q-6 -13 -18 -18t-41 -5h-12q-30 0 -37.5 6zM1092 233v7q0 37 28 92l223 442q8 14 17 17.5t39 3.5h20q29 0 35 -3.5t-2 -17.5l-254 -498h283v170q0 9 10.5 12t40.5 3h6q30 0 40.5 -3t10.5 -12v-170h78 q11 0 13.5 -5.5t2.5 -30.5v-11q0 -39 -16 -39h-78v-176q0 -9 -10.5 -11.5t-40.5 -2.5h-6q-30 0 -40.5 2.5t-10.5 11.5v176h-375q-8 0 -11 8t-3 35z" />
<glyph unicode="&#xbd;" horiz-adv-x="1851" d="M141.5 1344.5q-0.5 7.5 8.5 13.5l196 115q33 20 72 20h37q30 0 30 -14v-715h123q8 0 10.5 -7t2.5 -30v-6q0 -35 -13 -35h-366q-13 0 -13 35v6q0 23 2.5 30t10.5 7h131v622l-183 -104q-16 -10 -34 25l-4 8q-10 22 -10.5 29.5zM497.5 -31q-7.5 6 0.5 21l704 1497 q6 13 17 17.5t43 4.5h12q32 0 39 -4.5t0 -21.5l-707 -1497q-6 -13 -18 -18t-41 -5h-12q-30 0 -37.5 6zM1141 746q0 7 8 12q95 63 235 63q117 0 186.5 -57.5t69.5 -161.5q0 -85 -39.5 -156.5t-142.5 -179.5l-170 -178h354q11 0 14 -7.5t3 -33.5v-8q0 -25 -3.5 -32t-13.5 -7 h-479q-9 0 -11.5 7t-2.5 26v10q0 27 16 43l162 174q118 127 160.5 196t42.5 138q0 139 -160 139q-89 0 -178 -47q-11 -6 -16.5 -2t-16.5 23l-8 14q-10 18 -10 25z" />
<glyph unicode="&#xbe;" horiz-adv-x="1851" d="M160.5 721q-0.5 7 7.5 27l4 10q9 21 14 25t15 1q78 -30 178 -30q93 0 141.5 41.5t48.5 117.5q0 83 -56 118.5t-169 35.5h-57q-15 0 -15 39v8q0 39 15 39h63q207 0 207 147q0 125 -151 125q-95 0 -183 -45q-17 -9 -30 23l-7 14q-8 19 -8 25t8 10q102 55 230 55 q119 0 185.5 -51.5t66.5 -146.5q0 -157 -146 -199q75 -14 119.5 -64t44.5 -124q0 -121 -79.5 -185.5t-219.5 -64.5q-125 0 -217 39q-9 3 -9.5 10zM529.5 -31q-7.5 6 0.5 21l705 1497q7 13 17 17.5t42 4.5h13q32 0 39 -4.5t0 -21.5l-707 -1497q-6 -13 -18 -18t-41 -5h-13 q-30 0 -37.5 6zM1108 233v7q0 24 6 41.5t23 50.5l223 442q8 14 16.5 17.5t38.5 3.5h21q29 0 34.5 -3.5t-2.5 -17.5l-254 -498h283v170q0 9 10.5 12t40.5 3h6q52 0 52 -15v-170h77q11 0 14 -5.5t3 -30.5v-11q0 -39 -17 -39h-77v-176q0 -9 -11 -11.5t-41 -2.5h-6 q-30 0 -40.5 2.5t-10.5 11.5v176h-375q-8 0 -11 8t-3 35z" />
<glyph unicode="&#xbf;" horiz-adv-x="858" d="M41 -53q0 50 13 94t30.5 74.5t49 61.5t55.5 49t63 44q63 41 94 64.5t60.5 56t40 67t10.5 83.5v123q0 16 59 16h21q59 0 59 -16v-136q0 -115 -50 -183t-188 -159q-94 -61 -131 -112.5t-37 -126.5q0 -98 60 -164q73 -76 211 -76q128 0 270 66q12 6 20 -1t19 -30l10 -21 q12 -25 12 -34.5t-12 -18.5q-53 -33 -145.5 -57.5t-179.5 -24.5q-200 0 -312 109q-102 94 -102 252zM414 993q0 46 32 77.5t78 31.5q44 0 75.5 -31.5t31.5 -77.5t-31.5 -78t-75.5 -32q-46 0 -78 32t-32 78z" />
<glyph unicode="&#xc0;" horiz-adv-x="1374" d="M39 16q0 3 2 7l547 1425q6 17 21.5 22t66.5 5h4q55 0 71 -4.5t23 -22.5l553 -1425q6 -16 -19 -20l-44 -3h-19q-45 0 -58.5 3.5t-19.5 16.5l-137 377h-702l-140 -377q-5 -12 -19 -16t-54 -4h-15q-14 0 -24.5 0.5t-17.5 2t-11 3t-6 4.5t-2 6zM367 512h624l-73 197 q-121 315 -236 653q-111 -306 -240 -647zM500 1849q-12 16 15 20q10 1 28 1h30q39 0 53 -4.5t21 -16.5l137 -241q9 -15 -41 -15h-8q-45 0 -55 13z" />
<glyph unicode="&#xc1;" horiz-adv-x="1374" d="M39 16q0 3 2 7l547 1425q6 17 21.5 22t66.5 5h4q55 0 71 -4.5t23 -22.5l553 -1425q6 -16 -19 -20l-44 -3h-19q-45 0 -58.5 3.5t-19.5 16.5l-137 377h-702l-140 -377q-5 -12 -19 -16t-54 -4h-15q-14 0 -24.5 0.5t-17.5 2t-11 3t-6 4.5t-2 6zM367 512h624l-73 197 q-121 315 -236 653q-111 -306 -240 -647zM559 1608l137 241q7 12 21 16.5t53 4.5h31q47 0 47 -12q0 -3 -4 -9l-180 -243q-10 -13 -56 -13h-8q-50 0 -41 15z" />
<glyph unicode="&#xc2;" horiz-adv-x="1374" d="M39 16q0 3 2 7l547 1425q6 17 21.5 22t66.5 5h4q55 0 71 -4.5t23 -22.5l553 -1425q6 -16 -19 -20l-44 -3h-19q-45 0 -58.5 3.5t-19.5 16.5l-137 377h-702l-140 -377q-5 -12 -19 -16t-54 -4h-15q-14 0 -24.5 0.5t-17.5 2t-11 3t-6 4.5t-2 6zM367 512h624l-73 197 q-121 315 -236 653q-111 -306 -240 -647zM393 1661l193 205q20 20 69 20h54q49 0 69 -20l193 -205q11 -11 -8 -33l-11 -12q-19 -22 -32 -12l-238 198l-238 -198q-13 -10 -32 12l-11 12q-19 22 -8 33z" />
<glyph unicode="&#xc3;" horiz-adv-x="1374" d="M39 16q0 3 2 7l547 1425q6 17 21.5 22t66.5 5h4q55 0 71 -4.5t23 -22.5l553 -1425q6 -16 -19 -20l-44 -3h-19q-45 0 -58.5 3.5t-19.5 16.5l-137 377h-702l-140 -377q-5 -12 -19 -16t-54 -4h-15q-14 0 -24.5 0.5t-17.5 2t-11 3t-6 4.5t-2 6zM367 512h624l-73 197 q-121 315 -236 653q-111 -306 -240 -647zM375 1751q29 37 79.5 63.5t100.5 26.5q48 0 94 -19.5t88 -39t80 -19.5q31 0 57.5 14t61.5 48q12 9 33 -17l16 -20q14 -20 4 -33q-29 -37 -79.5 -63.5t-100.5 -26.5q-48 0 -94 19.5t-88 39t-80 19.5q-31 0 -57.5 -14t-61.5 -48 q-12 -9 -33 17l-16 20q-14 20 -4 33z" />
<glyph unicode="&#xc4;" horiz-adv-x="1374" d="M39 16q0 3 2 7l547 1425q6 17 21.5 22t66.5 5h4q55 0 71 -4.5t23 -22.5l553 -1425q6 -16 -19 -20l-44 -3h-19q-45 0 -58.5 3.5t-19.5 16.5l-137 377h-702l-140 -377q-5 -12 -19 -16t-54 -4h-15q-14 0 -24.5 0.5t-17.5 2t-11 3t-6 4.5t-2 6zM367 512h624l-73 197 q-121 315 -236 653q-111 -306 -240 -647zM377 1733q0 40 28 69t68 29t69 -29t29 -69t-29 -68.5t-69 -28.5t-68 28.5t-28 68.5zM791 1733q0 40 28 69t68 29t69 -29t29 -69t-29 -68.5t-69 -28.5t-68 28.5t-28 68.5z" />
<glyph unicode="&#xc5;" horiz-adv-x="1374" d="M39 16q0 3 2 7l545 1421q-42 24 -68 66t-26 92q0 76 57 130t135 54q79 0 136 -53.5t57 -130.5q0 -53 -27.5 -95.5t-73.5 -66.5l551 -1417q6 -16 -19 -20l-44 -3h-19q-45 0 -58.5 3.5t-19.5 16.5l-137 377h-702l-140 -377q-5 -12 -19 -16t-54 -4h-15q-14 0 -24.5 0.5 t-17.5 2t-11 3t-6 4.5t-2 6zM367 512h624l-73 197q-121 315 -236 653q-111 -306 -240 -647zM580 1602q0 -46 30 -75.5t74 -29.5q45 0 72.5 30.5t27.5 74.5t-27.5 74t-72.5 30q-44 0 -74 -29t-30 -75z" />
<glyph unicode="&#xc6;" horiz-adv-x="1990" d="M9 15q0 3 3 8l920 1429q9 15 20 19t41 4h860q11 0 15 -11t4 -43v-8q0 -33 -4 -44t-15 -11h-716v-553h608q11 0 14.5 -10.5t3.5 -42.5v-9q0 -33 -3.5 -44t-14.5 -11h-608v-571h725q11 0 14.5 -11t3.5 -43v-8q0 -33 -3.5 -44t-14.5 -11h-869v408h-587l-248 -388 q-9 -12 -22 -16t-52 -4h-12q-64 0 -63 15zM479 524h514v826q-92 -170 -225 -375z" />
<glyph unicode="&#xc7;" horiz-adv-x="1230" d="M92 717q0 191 51.5 341t143 244.5t214 143.5t267.5 49q213 0 371 -90q10 -7 10.5 -15t-12.5 -38l-11 -23q-10 -21 -17 -26.5t-17 -2.5q-176 74 -314 74q-258 0 -397 -168t-139 -477q0 -308 135.5 -468.5t394.5 -160.5q174 0 326 68q12 6 20 -1t17 -30l8 -20 q19 -44 -2 -54q-157 -77 -383 -83l-15 -115q36 4 56 4q82 0 133 -44t51 -116q0 -78 -56.5 -131t-168.5 -53q-94 0 -148 24q-9 5 -4 37l2 11q4 19 8.5 24.5t12.5 3.5q65 -14 112 -14q127 0 127 90q0 88 -125 88q-60 0 -108 -10l27 205q-271 24 -420.5 220t-149.5 513z" />
<glyph unicode="&#xc8;" d="M162 0v1475h860q11 0 14.5 -11t3.5 -43v-8q0 -33 -3.5 -44t-14.5 -11h-717v-553h608q11 0 15 -11t4 -42v-9q0 -33 -4 -44t-15 -11h-608v-571h725q11 0 15 -11t4 -43v-8q0 -33 -4 -44t-15 -11h-868zM444 1849q-12 16 15 20q10 1 28 1h31q39 0 53 -4.5t21 -16.5l137 -241 q9 -15 -41 -15h-8q-45 0 -55 13z" />
<glyph unicode="&#xc9;" d="M162 0v1475h860q11 0 14.5 -11t3.5 -43v-8q0 -33 -3.5 -44t-14.5 -11h-717v-553h608q11 0 15 -11t4 -42v-9q0 -33 -4 -44t-15 -11h-608v-571h725q11 0 15 -11t4 -43v-8q0 -33 -4 -44t-15 -11h-868zM483 1608l138 241q7 12 20.5 16.5t52.5 4.5h31q47 0 47 -12q0 -3 -4 -9 l-180 -243q-10 -13 -56 -13h-8q-50 0 -41 15z" />
<glyph unicode="&#xca;" d="M162 0v1475h860q11 0 14.5 -11t3.5 -43v-8q0 -33 -3.5 -44t-14.5 -11h-717v-553h608q11 0 15 -11t4 -42v-9q0 -33 -4 -44t-15 -11h-608v-571h725q11 0 15 -11t4 -43v-8q0 -33 -4 -44t-15 -11h-868zM317 1661l193 205q20 20 70 20h53q49 0 69 -20l193 -205q11 -11 -8 -33 l-10 -12q-20 -23 -33 -12l-238 198l-237 -198q-13 -11 -33 12l-10 12q-20 22 -9 33z" />
<glyph unicode="&#xcb;" d="M162 0v1475h860q11 0 14.5 -11t3.5 -43v-8q0 -33 -3.5 -44t-14.5 -11h-717v-553h608q11 0 15 -11t4 -42v-9q0 -33 -4 -44t-15 -11h-608v-571h725q11 0 15 -11t4 -43v-8q0 -33 -4 -44t-15 -11h-868zM301 1733q0 40 28 69t68 29t69.5 -29t29.5 -69t-29.5 -68.5t-69.5 -28.5 t-68 28.5t-28 68.5zM715 1733q0 40 28 69t68 29t69 -29t29 -69t-29 -68.5t-69 -28.5t-68 28.5t-28 68.5z" />
<glyph unicode="&#xcc;" horiz-adv-x="491" d="M82 1849q-12 16 15 20q10 1 28 1h31q39 0 52.5 -4.5t20.5 -16.5l138 -241q9 -15 -41 -15h-9q-45 0 -55 13zM174 18v1438q0 11 11.5 15t47.5 4h19q39 0 52 -3.5t13 -15.5v-1438q0 -12 -12.5 -15t-52.5 -3h-19q-36 0 -47.5 3.5t-11.5 14.5z" />
<glyph unicode="&#xcd;" horiz-adv-x="491" d="M121 1608l137 241q7 12 21 16.5t53 4.5h30q48 0 48 -12q0 -3 -4 -9l-181 -243q-10 -13 -55 -13h-8q-50 0 -41 15zM174 18v1438q0 11 11.5 15t47.5 4h19q39 0 52 -3.5t13 -15.5v-1438q0 -12 -12.5 -15t-52.5 -3h-19q-36 0 -47.5 3.5t-11.5 14.5z" />
<glyph unicode="&#xce;" horiz-adv-x="491" d="M-45 1661l192 205q20 20 70 20h53q50 0 70 -20l192 -205q11 -11 -8 -33l-10 -12q-20 -23 -33 -12l-237 198l-238 -198q-13 -11 -33 12l-10 12q-19 22 -8 33zM174 18v1438q0 11 11.5 15t47.5 4h19q39 0 52 -3.5t13 -15.5v-1438q0 -12 -12.5 -15t-52.5 -3h-19 q-36 0 -47.5 3.5t-11.5 14.5z" />
<glyph unicode="&#xcf;" horiz-adv-x="491" d="M-61 1733q0 40 28 69t68 29t69 -29t29 -69t-29 -68.5t-69 -28.5t-68 28.5t-28 68.5zM174 18v1438q0 11 11.5 15t47.5 4h19q39 0 52 -3.5t13 -15.5v-1438q0 -12 -12.5 -15t-52.5 -3h-19q-36 0 -47.5 3.5t-11.5 14.5zM352 1733q0 40 28.5 69t68.5 29t69 -29t29 -69 t-29 -68.5t-69 -28.5t-68.5 28.5t-28.5 68.5z" />
<glyph unicode="&#xd0;" horiz-adv-x="1404" d="M45 745v7q0 30 3 38.5t13 8.5h101v676h358q410 0 604 -191q191 -188 191 -541q0 -371 -207 -563q-195 -180 -584 -180h-362v694h-101q-10 0 -13 11t-3 40zM305 115h205q324 0 481 139q174 152 174 483q0 320 -172 480q-77 73 -192 108t-295 35h-201v-561h363 q10 0 13 -8.5t3 -38.5v-7q0 -29 -3 -40t-13 -11h-363v-579z" />
<glyph unicode="&#xd1;" horiz-adv-x="1476" d="M162 18v1438q0 12 10.5 15.5t48.5 3.5h17q55 0 71 -3.5t25 -17.5l559 -833q54 -83 156.5 -234.5t138.5 -206.5v1276q0 12 9 15.5t44 3.5h16q37 0 47.5 -3.5t10.5 -15.5v-1438q0 -12 -10.5 -15t-49.5 -3h-16q-54 0 -69.5 3.5t-24.5 16.5l-557 834q-50 74 -149.5 222.5 t-149.5 221.5v-1280q0 -12 -10 -15t-48 -3h-14q-37 0 -46 3t-9 15zM455 1751q29 37 79.5 63.5t100.5 26.5q48 0 94 -19.5t88 -39t80 -19.5q31 0 57.5 14t61.5 48q12 9 33 -17l16 -20q14 -20 4 -33q-29 -37 -79.5 -63.5t-100.5 -26.5q-48 0 -94 19.5t-88 39t-80 19.5 q-31 0 -57.5 -14t-61.5 -48q-12 -9 -33 17l-16 20q-14 20 -4 33z" />
<glyph unicode="&#xd2;" horiz-adv-x="1519" d="M92 717q0 358 186 568t504 210q305 0 476.5 -194t171.5 -541q0 -358 -186.5 -569t-504.5 -211q-303 0 -475 195t-172 542zM242 725q0 -299 131.5 -462t371.5 -163q249 0 391 173.5t142 478.5q0 298 -131.5 460t-372.5 162q-249 0 -390.5 -172t-141.5 -477zM623 1849 q-12 16 15 20q10 1 28 1h30q39 0 53 -4.5t21 -16.5l137 -241q9 -15 -41 -15h-8q-45 0 -55 13z" />
<glyph unicode="&#xd3;" horiz-adv-x="1519" d="M92 717q0 358 186 568t504 210q305 0 476.5 -194t171.5 -541q0 -358 -186.5 -569t-504.5 -211q-303 0 -475 195t-172 542zM242 725q0 -299 131.5 -462t371.5 -163q249 0 391 173.5t142 478.5q0 298 -131.5 460t-372.5 162q-249 0 -390.5 -172t-141.5 -477zM661 1605 q0 1 1 3l137 241q7 12 20.5 16.5t52.5 4.5h31q47 0 47 -12q0 -3 -4 -9l-180 -243q-10 -13 -55 -13h-9q-44 0 -41 12z" />
<glyph unicode="&#xd4;" horiz-adv-x="1519" d="M92 717q0 358 186 568t504 210q305 0 476.5 -194t171.5 -541q0 -358 -186.5 -569t-504.5 -211q-303 0 -475 195t-172 542zM242 725q0 -299 131.5 -462t371.5 -163q249 0 391 173.5t142 478.5q0 298 -131.5 460t-372.5 162q-249 0 -390.5 -172t-141.5 -477zM496 1661 l192 205q20 20 70 20h53q50 0 70 -20l192 -205q11 -11 -8 -33l-10 -12q-20 -23 -33 -12l-238 198l-237 -198q-13 -11 -33 12l-10 12q-19 22 -8 33z" />
<glyph unicode="&#xd5;" horiz-adv-x="1519" d="M92 717q0 358 186 568t504 210q305 0 476.5 -194t171.5 -541q0 -358 -186.5 -569t-504.5 -211q-303 0 -475 195t-172 542zM242 725q0 -299 131.5 -462t371.5 -163q249 0 391 173.5t142 478.5q0 298 -131.5 460t-372.5 162q-249 0 -390.5 -172t-141.5 -477zM477 1751 q29 37 79.5 63.5t100.5 26.5q59 0 139.5 -39t123.5 -39q31 0 57 14t61 48q12 9 33 -17l16 -20q15 -21 5 -33q-29 -37 -80 -63.5t-101 -26.5q-48 0 -94 19.5t-88 39t-80 19.5q-31 0 -57.5 -14t-61.5 -48q-12 -9 -32 17l-17 20q-14 20 -4 33z" />
<glyph unicode="&#xd6;" horiz-adv-x="1519" d="M92 717q0 358 186 568t504 210q305 0 476.5 -194t171.5 -541q0 -358 -186.5 -569t-504.5 -211q-303 0 -475 195t-172 542zM242 725q0 -299 131.5 -462t371.5 -163q249 0 391 173.5t142 478.5q0 298 -131.5 460t-372.5 162q-249 0 -390.5 -172t-141.5 -477zM479 1733 q0 40 28 69t68 29t69.5 -29t29.5 -69t-29.5 -68.5t-69.5 -28.5t-68 28.5t-28 68.5zM893 1733q0 40 28 69t68 29t69 -29t29 -69t-29 -68.5t-69 -28.5t-68 28.5t-28 68.5z" />
<glyph unicode="&#xd7;" horiz-adv-x="1175" d="M209 436l309 309l-309 310q-13 13 20 45l4 4q31 32 43 20l310 -311l311 311q8 7 17 3t28 -23l4 -4q19 -19 23 -26.5t-2 -16.5l-312 -312l312 -311q6 -9 2 -16.5t-23 -26.5l-4 -4q-32 -33 -45 -20l-311 311l-310 -311q-8 -7 -16.5 -2.5t-26.5 22.5l-4 4q-33 33 -20 45z " />
<glyph unicode="&#xd8;" horiz-adv-x="1519" d="M92 717q0 358 186 568t504 210q205 0 355 -92l106 147q13 20 53 -10l25 -18q23 -18 28.5 -28.5t-1.5 -18.5l-109 -152q191 -197 191 -563q0 -358 -186.5 -569t-504.5 -211q-229 0 -383 112l-116 -164q-13 -20 -54 11l-24 18q-23 18 -28.5 28.5t1.5 18.5l125 174 q-168 196 -168 539zM242 725q0 -267 104 -426l713 995q-119 80 -285 80q-249 0 -390.5 -172t-141.5 -477zM434 201q125 -101 311 -101q249 0 391 173.5t142 478.5q0 290 -125 452z" />
<glyph unicode="&#xd9;" horiz-adv-x="1468" d="M156 545v911q0 11 11 15t46 4h18q39 0 52.5 -3.5t13.5 -15.5v-893q0 -234 105.5 -349.5t334.5 -115.5q227 0 332 116.5t105 348.5v893q0 11 11.5 15t47.5 4h14q41 0 54.5 -3.5t13.5 -15.5v-909q0 -567 -578 -567q-298 0 -439.5 139.5t-141.5 425.5zM571 1849 q-12 16 15 20q10 1 28 1h31q39 0 53 -4.5t21 -16.5l137 -241q9 -15 -41 -15h-8q-45 0 -55 13z" />
<glyph unicode="&#xda;" horiz-adv-x="1468" d="M156 545v911q0 11 11 15t46 4h18q39 0 52.5 -3.5t13.5 -15.5v-893q0 -234 105.5 -349.5t334.5 -115.5q227 0 332 116.5t105 348.5v893q0 11 11.5 15t47.5 4h14q41 0 54.5 -3.5t13.5 -15.5v-909q0 -567 -578 -567q-298 0 -439.5 139.5t-141.5 425.5zM610 1608l138 241 q7 12 20.5 16.5t52.5 4.5h31q47 0 47 -12q0 -3 -4 -9l-180 -243q-10 -13 -56 -13h-8q-50 0 -41 15z" />
<glyph unicode="&#xdb;" horiz-adv-x="1468" d="M156 545v911q0 11 11 15t46 4h18q39 0 52.5 -3.5t13.5 -15.5v-893q0 -234 105.5 -349.5t334.5 -115.5q227 0 332 116.5t105 348.5v893q0 11 11.5 15t47.5 4h14q41 0 54.5 -3.5t13.5 -15.5v-909q0 -567 -578 -567q-298 0 -439.5 139.5t-141.5 425.5zM444 1661l193 205 q20 20 70 20h53q49 0 69 -20l193 -205q11 -11 -8 -33l-10 -12q-20 -23 -33 -12l-238 198l-237 -198q-13 -11 -33 12l-10 12q-20 22 -9 33z" />
<glyph unicode="&#xdc;" horiz-adv-x="1468" d="M156 545v911q0 11 11 15t46 4h18q39 0 52.5 -3.5t13.5 -15.5v-893q0 -234 105.5 -349.5t334.5 -115.5q227 0 332 116.5t105 348.5v893q0 11 11.5 15t47.5 4h14q41 0 54.5 -3.5t13.5 -15.5v-909q0 -567 -578 -567q-298 0 -439.5 139.5t-141.5 425.5zM428 1733q0 40 28 69 t68 29t69.5 -29t29.5 -69t-29.5 -68.5t-69.5 -28.5t-68 28.5t-28 68.5zM842 1733q0 40 28 69t68 29t69 -29t29 -69t-29 -68.5t-69 -28.5t-68 28.5t-28 68.5z" />
<glyph unicode="&#xdd;" horiz-adv-x="1169" d="M33 1450q-9 18 22 23q14 2 37 2h14q45 0 58.5 -4t21.5 -19l242 -459q6 -12 71 -132.5t95 -178.5l160 309l241 465q6 11 19 15t53 4h18q53 0 53 -15l-3 -10l-484 -881v-549q0 -12 -13.5 -16t-51.5 -4h-19q-35 0 -46 4.5t-11 15.5v549zM465 1608l137 241q7 12 21 16.5 t53 4.5h31q47 0 47 -12q0 -3 -4 -9l-181 -243q-10 -13 -55 -13h-8q-50 0 -41 15z" />
<glyph unicode="&#xde;" horiz-adv-x="1177" d="M162 18v1438q0 11 11.5 15t47.5 4h19q39 0 52 -3.5t13 -15.5v-311q134 20 264 20q260 0 395.5 -102t135.5 -297q0 -197 -136 -302.5t-395 -105.5q-121 0 -264 21v-361q0 -12 -12.5 -15t-52.5 -3h-19q-36 0 -47.5 3.5t-11.5 14.5zM305 492q139 -19 258 -19q389 0 389 291 q0 287 -389 287q-102 0 -258 -19v-540z" />
<glyph unicode="&#xdf;" horiz-adv-x="1239" d="M160 20v1057q0 256 102.5 378t308.5 122q143 0 238.5 -79.5t95.5 -213.5q0 -76 -28 -137t-93 -127q-55 -57 -73.5 -93.5t-18.5 -82.5q0 -59 42.5 -101.5t154.5 -85.5q70 -28 116 -54.5t84.5 -65.5t56 -93t17.5 -127q0 -168 -100.5 -252.5t-267.5 -84.5q-161 0 -291 73 q-14 8 8 53l4 9q15 30 24.5 38.5t20.5 2.5q105 -60 232 -60q115 0 180 55t65 162q0 53 -14 90.5t-46.5 64.5t-65 43.5t-89.5 39.5q-128 50 -192 120t-64 167q0 70 28 125t101 131q47 51 66.5 92t19.5 92q0 86 -56 137t-163 51q-133 0 -201.5 -88.5t-68.5 -296.5v-1061 q0 -11 -12 -15.5t-45 -4.5h-17q-35 0 -47 4.5t-12 15.5z" />
<glyph unicode="&#xe0;" horiz-adv-x="1153" d="M96 522q0 260 131.5 420t337.5 160q201 0 303 -150l11 109q1 12 13 16t44 4h14q31 0 38 -4t7 -20q0 -9 -1 -32.5t-1 -33.5q-2 -63 -2 -235v-299q0 -224 15 -441q0 -9 -11 -12.5t-41 -3.5h-6q-34 0 -43.5 3.5t-11.5 14.5l-16 127q-47 -79 -134.5 -122t-195.5 -43 q-113 0 -201 42.5t-141.5 117.5t-81 171.5t-27.5 210.5zM240 532q0 -68 9.5 -128t33 -116.5t59 -97.5t91 -65.5t126.5 -24.5q150 0 225 84q44 50 59 114t15 206v307q-110 168 -285 168q-154 0 -243.5 -121t-89.5 -326zM412 1456q-12 16 15 20q10 1 28 1h30q39 0 53 -4.5 t21 -16.5l137 -242q5 -9 -11 -12l-30 -2h-8q-29 0 -39 2t-16 10z" />
<glyph unicode="&#xe1;" horiz-adv-x="1153" d="M96 522q0 260 131.5 420t337.5 160q201 0 303 -150l11 109q1 12 13 16t44 4h14q31 0 38 -4t7 -20q0 -9 -1 -32.5t-1 -33.5q-2 -63 -2 -235v-299q0 -224 15 -441q0 -9 -11 -12.5t-41 -3.5h-6q-34 0 -43.5 3.5t-11.5 14.5l-16 127q-47 -79 -134.5 -122t-195.5 -43 q-113 0 -201 42.5t-141.5 117.5t-81 171.5t-27.5 210.5zM240 532q0 -68 9.5 -128t33 -116.5t59 -97.5t91 -65.5t126.5 -24.5q150 0 225 84q44 50 59 114t15 206v307q-110 168 -285 168q-154 0 -243.5 -121t-89.5 -326zM462 1210q0 2 1 4l137 242q7 12 21 16.5t53 4.5h31 q47 0 47 -12q0 -3 -4 -9l-181 -244q-6 -8 -16 -10t-39 -2h-8q-43 0 -42 10z" />
<glyph unicode="&#xe2;" horiz-adv-x="1153" d="M96 522q0 260 131.5 420t337.5 160q201 0 303 -150l11 109q1 12 13 16t44 4h14q31 0 38 -4t7 -20q0 -9 -1 -32.5t-1 -33.5q-2 -63 -2 -235v-299q0 -224 15 -441q0 -9 -11 -12.5t-41 -3.5h-6q-34 0 -43.5 3.5t-11.5 14.5l-16 127q-47 -79 -134.5 -122t-195.5 -43 q-113 0 -201 42.5t-141.5 117.5t-81 171.5t-27.5 210.5zM240 532q0 -68 9.5 -128t33 -116.5t59 -97.5t91 -65.5t126.5 -24.5q150 0 225 84q44 50 59 114t15 206v307q-110 168 -285 168q-154 0 -243.5 -121t-89.5 -326zM285 1268l192 205q20 20 70 20h53q50 0 70 -20 l192 -205q11 -11 -8 -33l-10 -12q-20 -23 -33 -13l-238 199l-237 -199q-13 -10 -33 13l-10 12q-19 22 -8 33z" />
<glyph unicode="&#xe3;" horiz-adv-x="1153" d="M96 522q0 260 131.5 420t337.5 160q201 0 303 -150l11 109q1 12 13 16t44 4h14q31 0 38 -4t7 -20q0 -9 -1 -32.5t-1 -33.5q-2 -63 -2 -235v-299q0 -224 15 -441q0 -9 -11 -12.5t-41 -3.5h-6q-34 0 -43.5 3.5t-11.5 14.5l-16 127q-47 -79 -134.5 -122t-195.5 -43 q-113 0 -201 42.5t-141.5 117.5t-81 171.5t-27.5 210.5zM240 532q0 -68 9.5 -128t33 -116.5t59 -97.5t91 -65.5t126.5 -24.5q150 0 225 84q44 50 59 114t15 206v307q-110 168 -285 168q-154 0 -243.5 -121t-89.5 -326zM266 1358q29 37 79.5 63.5t100.5 26.5q59 0 139.5 -39 t123.5 -39q31 0 57 14t61 48q12 9 33 -17l17 -20q14 -20 4 -33q-29 -37 -80 -63.5t-101 -26.5q-48 0 -94 19.5t-88 39t-80 19.5q-31 0 -57.5 -14t-61.5 -48q-11 -9 -32 17l-17 20q-14 20 -4 33z" />
<glyph unicode="&#xe4;" horiz-adv-x="1153" d="M96 522q0 260 131.5 420t337.5 160q201 0 303 -150l11 109q1 12 13 16t44 4h14q31 0 38 -4t7 -20q0 -9 -1 -32.5t-1 -33.5q-2 -63 -2 -235v-299q0 -224 15 -441q0 -9 -11 -12.5t-41 -3.5h-6q-34 0 -43.5 3.5t-11.5 14.5l-16 127q-47 -79 -134.5 -122t-195.5 -43 q-113 0 -201 42.5t-141.5 117.5t-81 171.5t-27.5 210.5zM240 532q0 -68 9.5 -128t33 -116.5t59 -97.5t91 -65.5t126.5 -24.5q150 0 225 84q44 50 59 114t15 206v307q-110 168 -285 168q-154 0 -243.5 -121t-89.5 -326zM268 1339q0 40 28.5 69.5t68.5 29.5t69 -29.5t29 -69.5 t-29 -68t-69 -28t-68.5 28t-28.5 68zM682 1339q0 40 28.5 69.5t67.5 29.5q40 0 69.5 -29.5t29.5 -69.5q0 -39 -29.5 -67.5t-69.5 -28.5t-68 28t-28 68z" />
<glyph unicode="&#xe5;" horiz-adv-x="1153" d="M96 522q0 260 131.5 420t337.5 160q201 0 303 -150l11 109q1 12 13 16t44 4h14q31 0 38 -4t7 -20q0 -9 -1 -32.5t-1 -33.5q-2 -63 -2 -235v-299q0 -224 15 -441q0 -9 -11 -12.5t-41 -3.5h-6q-34 0 -43.5 3.5t-11.5 14.5l-16 127q-47 -79 -134.5 -122t-195.5 -43 q-113 0 -201 42.5t-141.5 117.5t-81 171.5t-27.5 210.5zM240 532q0 -68 9.5 -128t33 -116.5t59 -97.5t91 -65.5t126.5 -24.5q150 0 225 84q44 50 59 114t15 206v307q-110 168 -285 168q-154 0 -243.5 -121t-89.5 -326zM381 1368q0 76 57 130t135 54q79 0 136 -53.5 t57 -130.5t-57 -130.5t-136 -53.5q-78 0 -135 54t-57 130zM469 1368q0 -46 30 -75t74 -29q45 0 73 30t28 74t-28 74.5t-73 30.5q-44 0 -74 -29.5t-30 -75.5z" />
<glyph unicode="&#xe6;" horiz-adv-x="1767" d="M92 313q0 169 113.5 259t314.5 90q137 0 273 -54l2 68q4 164 -65.5 234.5t-229.5 70.5q-140 0 -283 -55q-13 -5 -20.5 3t-16.5 36l-4 12q-9 29 -9.5 40t9.5 17q155 68 342 68q141 0 241.5 -55t127.5 -160q52 102 144.5 158.5t219.5 56.5q119 0 211 -59t144 -162 q69 -141 69 -332q0 -33 -6 -42t-22 -9h-715q9 -218 104 -310q87 -84 238 -84q156 0 280 62q14 9 24 2.5t21 -35.5l9 -20q17 -43 -2 -54q-152 -79 -355 -79q-130 0 -231 54.5t-146 143.5q-157 -198 -419 -198q-159 0 -261 87t-102 246zM236 322q0 -108 65 -166t182 -58 q219 0 342 183q-34 93 -37 215q-125 59 -264 59q-133 0 -210.5 -57.5t-77.5 -175.5zM934 604h604q-2 73 -20 138t-52 118.5t-90.5 85t-128.5 31.5q-140 0 -220.5 -94.5t-92.5 -278.5z" />
<glyph unicode="&#xe7;" horiz-adv-x="989" d="M96 524q0 138 38 248t105 182t157.5 110t197.5 38q180 0 319 -92q11 -7 10 -18t-14 -40l-8 -16q-13 -27 -23.5 -33t-23.5 2q-120 72 -250 72q-166 0 -265 -115.5t-99 -324.5q0 -90 18.5 -166t57.5 -138.5t107 -97.5t159 -35q153 0 268 62q14 7 22 0t19 -35l8 -23 q9 -25 8.5 -34t-10.5 -15q-122 -69 -307 -75l-15 -115q36 4 56 4q82 0 133 -44t51 -116q0 -78 -56.5 -131t-168.5 -53q-94 0 -148 24q-9 5 -4 37l2 11q4 19 8.5 24.5t12.5 3.5q65 -14 112 -14q127 0 127 90q0 88 -125 88q-60 0 -108 -10l27 205q-194 25 -296 172t-102 368z " />
<glyph unicode="&#xe8;" horiz-adv-x="1107" d="M96 516q0 168 56.5 300t168 209t261.5 77q128 0 219.5 -58t144.5 -163q70 -143 70 -332q0 -33 -6 -42t-23 -9h-747q9 -221 116 -312q91 -82 258 -82q157 0 281 62q14 9 24 2.5t21 -35.5l8 -20q17 -43 -2 -54q-152 -79 -354 -79q-236 0 -366 142.5t-130 393.5zM242 604 h637q-2 73 -20 138t-53 118.5t-93 85t-133 31.5q-140 0 -228.5 -89.5t-109.5 -283.5zM414 1456q-12 16 15 20q10 1 28 1h30q39 0 53 -4.5t21 -16.5l137 -242q5 -9 -11 -12l-30 -2h-8q-29 0 -39 2t-16 10z" />
<glyph unicode="&#xe9;" horiz-adv-x="1107" d="M96 516q0 168 56.5 300t168 209t261.5 77q128 0 219.5 -58t144.5 -163q70 -143 70 -332q0 -33 -6 -42t-23 -9h-747q9 -221 116 -312q91 -82 258 -82q157 0 281 62q14 9 24 2.5t21 -35.5l8 -20q17 -43 -2 -54q-152 -79 -354 -79q-236 0 -366 142.5t-130 393.5zM242 604 h637q-2 73 -20 138t-53 118.5t-93 85t-133 31.5q-140 0 -228.5 -89.5t-109.5 -283.5zM464 1210q0 2 1 4l137 242q7 12 21 16.5t53 4.5h31q47 0 47 -12q0 -3 -4 -9l-181 -244q-6 -8 -16 -10t-39 -2h-8q-43 0 -42 10z" />
<glyph unicode="&#xea;" horiz-adv-x="1107" d="M96 516q0 168 56.5 300t168 209t261.5 77q128 0 219.5 -58t144.5 -163q70 -143 70 -332q0 -33 -6 -42t-23 -9h-747q9 -221 116 -312q91 -82 258 -82q157 0 281 62q14 9 24 2.5t21 -35.5l8 -20q17 -43 -2 -54q-152 -79 -354 -79q-236 0 -366 142.5t-130 393.5zM242 604 h637q-2 73 -20 138t-53 118.5t-93 85t-133 31.5q-140 0 -228.5 -89.5t-109.5 -283.5zM287 1268l192 205q20 20 70 20h53q50 0 70 -20l192 -205q11 -11 -8 -33l-10 -12q-20 -23 -33 -13l-238 199l-237 -199q-13 -10 -33 13l-10 12q-19 22 -8 33z" />
<glyph unicode="&#xeb;" horiz-adv-x="1107" d="M96 516q0 168 56.5 300t168 209t261.5 77q128 0 219.5 -58t144.5 -163q70 -143 70 -332q0 -33 -6 -42t-23 -9h-747q9 -221 116 -312q91 -82 258 -82q157 0 281 62q14 9 24 2.5t21 -35.5l8 -20q17 -43 -2 -54q-152 -79 -354 -79q-236 0 -366 142.5t-130 393.5zM242 604 h637q-2 73 -20 138t-53 118.5t-93 85t-133 31.5q-140 0 -228.5 -89.5t-109.5 -283.5zM270 1339q0 40 28.5 69.5t68.5 29.5t69 -29.5t29 -69.5t-29 -68t-69 -28t-68.5 28t-28.5 68zM684 1339q0 40 28.5 69.5t67.5 29.5q40 0 69.5 -29.5t29.5 -69.5q0 -39 -29.5 -67.5 t-69.5 -28.5t-68 28t-28 68z" />
<glyph unicode="&#xec;" horiz-adv-x="454" d="M63 1456q-12 16 15 20q10 1 28 1h31q39 0 53 -4.5t21 -16.5l137 -242q5 -9 -11 -12l-30 -2h-8q-29 0 -39 2t-16 10zM160 20v1043q0 10 12 14t45 4h16q35 0 47.5 -3.5t12.5 -14.5v-1043q0 -11 -12 -15.5t-45 -4.5h-17q-35 0 -47 4.5t-12 15.5z" />
<glyph unicode="&#xed;" horiz-adv-x="454" d="M114 1210q0 2 1 4l137 242q7 12 21 16.5t53 4.5h30q47 0 47 -12q0 -3 -4 -9l-180 -244q-6 -8 -16 -10t-39 -2h-8q-43 0 -42 10zM160 20v1043q0 10 12 14t45 4h16q35 0 47.5 -3.5t12.5 -14.5v-1043q0 -11 -12 -15.5t-45 -4.5h-17q-35 0 -47 4.5t-12 15.5z" />
<glyph unicode="&#xee;" horiz-adv-x="454" d="M-63 1268l192 205q20 20 70 20h53q50 0 70 -20l192 -205q11 -11 -8 -33l-10 -12q-20 -23 -33 -13l-238 199l-237 -199q-13 -10 -33 13l-10 12q-19 22 -8 33zM160 20v1043q0 10 12 14t45 4h16q35 0 47.5 -3.5t12.5 -14.5v-1043q0 -11 -12 -15.5t-45 -4.5h-17 q-35 0 -47 4.5t-12 15.5z" />
<glyph unicode="&#xef;" horiz-adv-x="454" d="M-80 1339q0 40 28.5 69.5t67.5 29.5q40 0 69.5 -29.5t29.5 -69.5q0 -39 -29.5 -67.5t-69.5 -28.5t-68 28t-28 68zM160 20v1043q0 10 12 14t45 4h16q35 0 47.5 -3.5t12.5 -14.5v-1043q0 -11 -12 -15.5t-45 -4.5h-17q-35 0 -47 4.5t-12 15.5zM334 1339q0 40 28.5 69.5 t67.5 29.5q40 0 69 -29.5t29 -69.5t-29 -68t-69 -28t-68 28t-28 68z" />
<glyph unicode="&#xf0;" d="M96 510q0 237 136 392t341 155q153 0 273 -84q-100 207 -305 354l-281 -131q-16 -8 -29 18l-12 25q-15 29 -2 35l236 110q-84 52 -213 115q-11 6 -10.5 14.5t12.5 30.5l10 19q11 19 17 23.5t18 0.5q142 -54 286 -145l258 119q16 8 29 -19l12 -24q15 -29 2 -35l-217 -101 q396 -299 396 -794q0 -132 -26 -236t-70 -173t-106 -114.5t-131.5 -65t-148.5 -19.5q-213 0 -344 141t-131 389zM240 514q0 -192 90.5 -303t251.5 -111q169 0 249 126t80 376q0 145 -32 236q-135 98 -285 98q-168 0 -261 -118.5t-93 -303.5z" />
<glyph unicode="&#xf1;" horiz-adv-x="1189" d="M158 1063q0 18 55 18h14q56 0 56 -18l6 -131q122 170 360 170q189 0 293 -107q52 -54 76 -136.5t24 -207.5v-628q0 -23 -57 -23h-16q-60 0 -60 23v536q0 144 -12.5 215t-52.5 119q-66 78 -228 78q-161 0 -254 -101q-51 -57 -61 -147q-6 -59 -6 -297v-403q0 -23 -57 -23 h-17q-59 0 -59 23v770q0 178 -4 270zM313 1358q29 37 80 63.5t101 26.5q48 0 94 -19.5t88 -39t80 -19.5q31 0 57 14t61 48q12 9 33 -17l17 -20q14 -20 4 -33q-29 -37 -79.5 -63.5t-100.5 -26.5q-59 0 -139.5 39t-123.5 39q-31 0 -57 -14t-61 -48q-12 -9 -33 17l-17 20 q-14 20 -4 33z" />
<glyph unicode="&#xf2;" d="M96 516q0 284 135 435t369 151q188 0 301 -101q162 -146 162 -436q0 -284 -135 -434.5t-369 -150.5q-190 0 -301 100q-162 146 -162 436zM240 530q0 -66 9 -124.5t32.5 -116t59 -98.5t93 -66t131.5 -25q73 0 135 25.5t112.5 77.5t79 141t28.5 207q0 66 -9.5 124.5 t-33 116t-59.5 98.5t-94 66t-132 25q-72 0 -134 -25.5t-111.5 -77.5t-78 -141.5t-28.5 -206.5zM418 1456q-12 16 15 20q10 1 28 1h31q39 0 52.5 -4.5t20.5 -16.5l137 -242q6 -9 -11 -12q-10 -2 -29 -2h-9q-29 0 -39 2t-16 10z" />
<glyph unicode="&#xf3;" d="M96 516q0 284 135 435t369 151q188 0 301 -101q162 -146 162 -436q0 -284 -135 -434.5t-369 -150.5q-190 0 -301 100q-162 146 -162 436zM240 530q0 -66 9 -124.5t32.5 -116t59 -98.5t93 -66t131.5 -25q73 0 135 25.5t112.5 77.5t79 141t28.5 207q0 66 -9.5 124.5 t-33 116t-59.5 98.5t-94 66t-132 25q-72 0 -134 -25.5t-111.5 -77.5t-78 -141.5t-28.5 -206.5zM468 1210q0 2 1 4l137 242q7 12 21 16.5t53 4.5h31q47 0 47 -12q0 -3 -4 -9l-181 -244q-6 -8 -16 -10t-39 -2h-8q-43 0 -42 10z" />
<glyph unicode="&#xf4;" d="M96 516q0 284 135 435t369 151q188 0 301 -101q162 -146 162 -436q0 -284 -135 -434.5t-369 -150.5q-190 0 -301 100q-162 146 -162 436zM240 530q0 -66 9 -124.5t32.5 -116t59 -98.5t93 -66t131.5 -25q73 0 135 25.5t112.5 77.5t79 141t28.5 207q0 66 -9.5 124.5 t-33 116t-59.5 98.5t-94 66t-132 25q-72 0 -134 -25.5t-111.5 -77.5t-78 -141.5t-28.5 -206.5zM291 1268l192 205q20 20 70 20h53q50 0 70 -20l192 -205q11 -11 -8 -33l-10 -12q-20 -23 -33 -13l-237 199l-238 -199q-13 -10 -33 13l-10 12q-19 22 -8 33z" />
<glyph unicode="&#xf5;" d="M96 516q0 284 135 435t369 151q188 0 301 -101q162 -146 162 -436q0 -284 -135 -434.5t-369 -150.5q-190 0 -301 100q-162 146 -162 436zM240 530q0 -66 9 -124.5t32.5 -116t59 -98.5t93 -66t131.5 -25q73 0 135 25.5t112.5 77.5t79 141t28.5 207q0 66 -9.5 124.5 t-33 116t-59.5 98.5t-94 66t-132 25q-72 0 -134 -25.5t-111.5 -77.5t-78 -141.5t-28.5 -206.5zM272 1358q29 37 80 63.5t101 26.5q48 0 94 -19.5t88 -39t80 -19.5q31 0 57.5 14t61.5 48q12 9 32 -17l17 -20q14 -20 4 -33q-29 -37 -79.5 -63.5t-100.5 -26.5q-59 0 -139.5 39 t-123.5 39q-31 0 -57 -14t-61 -48q-12 -9 -33 17l-17 20q-14 20 -4 33z" />
<glyph unicode="&#xf6;" d="M96 516q0 284 135 435t369 151q188 0 301 -101q162 -146 162 -436q0 -284 -135 -434.5t-369 -150.5q-190 0 -301 100q-162 146 -162 436zM240 530q0 -66 9 -124.5t32.5 -116t59 -98.5t93 -66t131.5 -25q73 0 135 25.5t112.5 77.5t79 141t28.5 207q0 66 -9.5 124.5 t-33 116t-59.5 98.5t-94 66t-132 25q-72 0 -134 -25.5t-111.5 -77.5t-78 -141.5t-28.5 -206.5zM274 1339q0 40 28.5 69.5t68.5 29.5t69 -29.5t29 -69.5t-29 -68t-69 -28t-68.5 28t-28.5 68zM688 1339q0 40 28.5 69.5t67.5 29.5q40 0 69.5 -29.5t29.5 -69.5 q0 -39 -29.5 -67.5t-69.5 -28.5t-68 28t-28 68z" />
<glyph unicode="&#xf7;" horiz-adv-x="1175" d="M84 745v3q0 27 3 36t13 9h975q10 0 13.5 -9t3.5 -36v-3q0 -26 -3.5 -35.5t-13.5 -9.5h-975q-10 0 -13 9.5t-3 35.5zM508 330q0 45 28 74.5t70 29.5t71.5 -29.5t29.5 -74.5q0 -43 -30 -73t-71 -30t-69.5 30t-28.5 73zM508 1161q0 44 28.5 75.5t69.5 31.5t71 -31.5 t30 -75.5t-29.5 -73t-71.5 -29t-70 29t-28 73z" />
<glyph unicode="&#xf8;" d="M96 516q0 284 135 435t369 151q153 0 260 -70l84 117q9 12 20.5 9t39.5 -23l8 -7q27 -20 32 -30t-4 -23l-90 -127q113 -145 113 -383q0 -284 -135 -434.5t-369 -150.5q-158 0 -258 67l-72 -98q-6 -11 -18.5 -9t-40.5 21l-12 8q-26 18 -30.5 27.5t5.5 21.5l80 109 q-117 142 -117 389zM240 530q0 -172 59 -282l481 674q-75 59 -188 59q-72 0 -134 -25.5t-111.5 -77.5t-78 -141.5t-28.5 -206.5zM379 156q75 -56 186 -56q73 0 135 25.5t112.5 77.5t79 141t28.5 207q0 165 -60 274z" />
<glyph unicode="&#xf9;" horiz-adv-x="1183" d="M145 430v631q0 11 11.5 15.5t46.5 4.5h16q35 0 47.5 -4.5t12.5 -15.5v-541q0 -148 10 -218t47 -114q70 -82 227 -82q147 0 234 87q46 46 67 124t21 234v510q0 11 11 15.5t46 4.5h16q35 0 47.5 -4.5t12.5 -15.5v-711q0 -212 6 -325q1 -17 -8 -21t-41 -4h-17q-34 0 -43 3.5 t-10 16.5l-10 142q-106 -182 -350 -182q-209 0 -303 104q-52 53 -74.5 135.5t-22.5 210.5zM430 1456q-12 16 15 20q10 1 28 1h31q39 0 53 -4.5t21 -16.5l137 -242q5 -9 -11 -12l-30 -2h-8q-46 0 -56 12z" />
<glyph unicode="&#xfa;" horiz-adv-x="1183" d="M145 430v631q0 11 11.5 15.5t46.5 4.5h16q35 0 47.5 -4.5t12.5 -15.5v-541q0 -148 10 -218t47 -114q70 -82 227 -82q147 0 234 87q46 46 67 124t21 234v510q0 11 11 15.5t46 4.5h16q35 0 47.5 -4.5t12.5 -15.5v-711q0 -212 6 -325q1 -17 -8 -21t-41 -4h-17q-34 0 -43 3.5 t-10 16.5l-10 142q-106 -182 -350 -182q-209 0 -303 104q-52 53 -74.5 135.5t-22.5 210.5zM480 1210q0 2 1 4l137 242q7 12 21 16.5t53 4.5h31q47 0 47 -12q0 -3 -4 -9l-180 -244q-10 -12 -56 -12h-8q-43 0 -42 10z" />
<glyph unicode="&#xfb;" horiz-adv-x="1183" d="M145 430v631q0 11 11.5 15.5t46.5 4.5h16q35 0 47.5 -4.5t12.5 -15.5v-541q0 -148 10 -218t47 -114q70 -82 227 -82q147 0 234 87q46 46 67 124t21 234v510q0 11 11 15.5t46 4.5h16q35 0 47.5 -4.5t12.5 -15.5v-711q0 -212 6 -325q1 -17 -8 -21t-41 -4h-17q-34 0 -43 3.5 t-10 16.5l-10 142q-106 -182 -350 -182q-209 0 -303 104q-52 53 -74.5 135.5t-22.5 210.5zM303 1268l193 205q20 20 69 20h53q50 0 70 -20l193 -205q11 -11 -9 -33l-10 -12q-20 -23 -33 -13l-237 199l-238 -199q-12 -10 -32 13l-11 12q-19 22 -8 33z" />
<glyph unicode="&#xfc;" horiz-adv-x="1183" d="M145 430v631q0 11 11.5 15.5t46.5 4.5h16q35 0 47.5 -4.5t12.5 -15.5v-541q0 -148 10 -218t47 -114q70 -82 227 -82q147 0 234 87q46 46 67 124t21 234v510q0 11 11 15.5t46 4.5h16q35 0 47.5 -4.5t12.5 -15.5v-711q0 -212 6 -325q1 -17 -8 -21t-41 -4h-17q-34 0 -43 3.5 t-10 16.5l-10 142q-106 -182 -350 -182q-209 0 -303 104q-52 53 -74.5 135.5t-22.5 210.5zM287 1339q0 40 28.5 69.5t67.5 29.5q40 0 69 -29.5t29 -69.5t-29 -68t-69 -28t-68 28t-28 68zM700 1339q0 40 28.5 69.5t68.5 29.5t69 -29.5t29 -69.5t-29 -68t-69 -28t-68.5 28 t-28.5 68z" />
<glyph unicode="&#xfd;" horiz-adv-x="1042" d="M-20 -459.5q0 9.5 8 35.5l6 18q9 28 15 36t16 5q59 -18 108 -18q125 0 205 81.5t145 272.5l-422 1086q-3 9 0.5 13.5t18 7.5t43.5 3h16q39 0 54.5 -4t19.5 -16l193 -520q66 -176 145 -424q72 226 137 409l189 535q5 12 16 16t47 4h10q33 0 48.5 -4.5t11.5 -15.5 l-394 -1104q-89 -238 -178 -334q-112 -123 -297 -123q-89 0 -151 27q-10 4 -10 13.5zM439 1210q0 2 1 4l138 242q7 12 20.5 16.5t52.5 4.5h31q47 0 47 -12q0 -3 -4 -9l-180 -244q-10 -12 -56 -12h-8q-43 0 -42 10z" />
<glyph unicode="&#xfe;" horiz-adv-x="1148" d="M160 -459v2018q0 11 11 14.5t46 3.5h16q60 0 60 -18v-596q109 139 319 139q206 0 323.5 -139t117.5 -400q0 -157 -54.5 -287.5t-166 -213t-261.5 -82.5q-166 0 -278 98v-537q0 -18 -60 -18h-16q-33 0 -45 4t-12 14zM293 209q50 -48 123.5 -78.5t154.5 -30.5 q159 0 248.5 124t89.5 333q0 217 -82 319.5t-233 102.5q-160 0 -236 -92q-34 -42 -49.5 -111.5t-15.5 -232.5v-334z" />
<glyph unicode="&#xff;" horiz-adv-x="1042" d="M-20 -459.5q0 9.5 8 35.5l6 18q9 28 15 36t16 5q59 -18 108 -18q125 0 205 81.5t145 272.5l-422 1086q-3 9 0.5 13.5t18 7.5t43.5 3h16q39 0 54.5 -4t19.5 -16l193 -520q66 -176 145 -424q72 226 137 409l189 535q5 12 16 16t47 4h10q33 0 48.5 -4.5t11.5 -15.5 l-394 -1104q-89 -238 -178 -334q-112 -123 -297 -123q-89 0 -151 27q-10 4 -10 13.5zM246 1339q0 40 28.5 69.5t67.5 29.5q40 0 69 -29.5t29 -69.5t-29 -68t-69 -28t-68 28t-28 68zM659 1339q0 40 28.5 69.5t68.5 29.5t69 -29.5t29 -69.5t-29 -68t-69 -28t-68.5 28t-28.5 68 z" />
<glyph unicode="&#x152;" horiz-adv-x="2062" d="M92 707q0 364 184 573q188 215 523 215q62 0 172 -10t159 -10h795q11 0 15 -11t4 -43v-8q0 -33 -4 -44t-15 -11h-717v-553h609q11 0 14.5 -10.5t3.5 -42.5v-9q0 -33 -3.5 -44t-14.5 -11h-609v-571h725q11 0 15 -11t4 -43v-8q0 -33 -4 -44t-15 -11h-788q-61 0 -183 -10 t-178 -10q-314 0 -487 167q-205 192 -205 560zM240 721q0 -307 149 -465q146 -158 408 -158q36 0 81.5 3.5t101 8.5t85.5 7v1241q-202 18 -260 18q-286 0 -432 -190q-133 -176 -133 -465z" />
<glyph unicode="&#x153;" horiz-adv-x="1861" d="M96 518q0 283 130.5 433.5t353.5 150.5q181 0 288 -101q58 -58 93 -127q58 110 156 169t229 59q119 0 210.5 -58.5t143.5 -162.5q69 -141 69 -332q0 -33 -6 -42t-22 -9h-715q9 -218 104 -310q87 -84 238 -84q154 0 281 62q14 9 24 2.5t21 -35.5l8 -20q17 -43 -2 -54 q-152 -79 -348 -79q-148 0 -255.5 64.5t-148.5 168.5q-61 -115 -165.5 -174t-241.5 -59q-183 0 -289 100q-74 69 -115 181t-41 257zM238 532q0 -66 8.5 -124.5t30 -116.5t55.5 -99t89 -66.5t126 -25.5q70 0 129 25.5t107 78t75 141.5t27 206q0 66 -8.5 124.5t-31 116 t-57 98.5t-90 66t-127.5 25q-69 0 -127.5 -25.5t-105.5 -77.5t-73.5 -140.5t-26.5 -205.5zM1028 604h604q-2 73 -20 138t-52 118.5t-90.5 85t-128.5 31.5q-138 0 -219.5 -97t-93.5 -276z" />
<glyph unicode="&#x178;" horiz-adv-x="1169" d="M33 1450q-9 18 22 23q14 2 37 2h14q45 0 58.5 -4t21.5 -19l242 -459q6 -12 71 -132.5t95 -178.5l160 309l241 465q6 11 19 15t53 4h18q53 0 53 -15l-3 -10l-484 -881v-549q0 -12 -13.5 -16t-51.5 -4h-19q-35 0 -46 4.5t-11 15.5v549zM283 1733q0 40 28 69t68 29t69 -29 t29 -69t-29 -68.5t-69 -28.5t-68 28.5t-28 68.5zM696 1733q0 40 28.5 69t68.5 29t69 -29t29 -69t-29 -68.5t-69 -28.5t-68.5 28.5t-28.5 68.5z" />
<glyph unicode="&#x2c6;" horiz-adv-x="724" d="M74 1268l192 205q20 20 70 20h53q50 0 70 -20l192 -205q11 -11 -8 -33l-10 -12q-20 -23 -33 -13l-238 199l-237 -199q-13 -10 -33 13l-10 12q-19 22 -8 33z" />
<glyph unicode="&#x2dc;" horiz-adv-x="724" d="M55 1358q29 37 80 63.5t101 26.5q48 0 94 -19.5t88 -39t80 -19.5q31 0 57 14t61 48q12 9 33 -17l17 -20q14 -20 4 -33q-29 -37 -80 -63.5t-101 -26.5q-48 0 -94 19.5t-88 39t-80 19.5q-31 0 -57 -14t-61 -48q-12 -9 -33 17l-17 20q-14 20 -4 33z" />
<glyph unicode="&#x2000;" horiz-adv-x="943" />
<glyph unicode="&#x2001;" horiz-adv-x="1886" />
<glyph unicode="&#x2002;" horiz-adv-x="943" />
<glyph unicode="&#x2003;" horiz-adv-x="1886" />
<glyph unicode="&#x2004;" horiz-adv-x="628" />
<glyph unicode="&#x2005;" horiz-adv-x="471" />
<glyph unicode="&#x2006;" horiz-adv-x="314" />
<glyph unicode="&#x2007;" horiz-adv-x="314" />
<glyph unicode="&#x2008;" horiz-adv-x="235" />
<glyph unicode="&#x2009;" horiz-adv-x="377" />
<glyph unicode="&#x200a;" horiz-adv-x="104" />
<glyph unicode="&#x2010;" horiz-adv-x="782" d="M106 623v6q0 29 3 38t14 9h536q11 0 14 -9t3 -38v-6q0 -29 -3.5 -40.5t-13.5 -11.5h-536q-10 0 -13.5 11.5t-3.5 40.5z" />
<glyph unicode="&#x2011;" horiz-adv-x="782" d="M106 623v6q0 29 3 38t14 9h536q11 0 14 -9t3 -38v-6q0 -29 -3.5 -40.5t-13.5 -11.5h-536q-10 0 -13.5 11.5t-3.5 40.5z" />
<glyph unicode="&#x2012;" horiz-adv-x="782" d="M106 623v6q0 29 3 38t14 9h536q11 0 14 -9t3 -38v-6q0 -29 -3.5 -40.5t-13.5 -11.5h-536q-10 0 -13.5 11.5t-3.5 40.5z" />
<glyph unicode="&#x2013;" horiz-adv-x="1024" d="M90 582v6q0 27 3 35t13 8h812q10 0 13 -8t3 -35v-6q0 -27 -3 -37t-13 -10h-812q-10 0 -13 10t-3 37z" />
<glyph unicode="&#x2014;" horiz-adv-x="2048" d="M90 582v6q0 27 3 35t13 8h1836q10 0 13 -8t3 -35v-6q0 -27 -3 -37t-13 -10h-1836q-10 0 -13 10t-3 37z" />
<glyph unicode="&#x2018;" horiz-adv-x="473" d="M102 1053q0 119 60.5 236.5t161.5 197.5q15 12 34 -10l9 -11q9 -12 10 -18t-6 -14q-51 -51 -90 -115t-39 -115q0 -31 14.5 -57.5t32.5 -42.5t32.5 -40.5t14.5 -53.5q0 -43 -31.5 -71t-75.5 -28q-58 0 -92.5 40.5t-34.5 101.5z" />
<glyph unicode="&#x2019;" horiz-adv-x="473" d="M102 973q51 51 90 114.5t39 114.5q0 26 -9.5 47.5t-23.5 37.5t-28 31t-23.5 35t-9.5 44q0 43 31.5 70.5t75.5 27.5q58 0 92.5 -40.5t34.5 -100.5q0 -119 -60.5 -236.5t-160.5 -197.5q-15 -12 -35 10l-9 10q-16 21 -4 33z" />
<glyph unicode="&#x201a;" horiz-adv-x="473" d="M94 -307q51 51 90 114.5t39 114.5q0 26 -9.5 47.5t-23.5 37.5t-28 31t-23.5 35t-9.5 44q0 43 31.5 70.5t75.5 27.5q58 0 92 -40t34 -101q0 -119 -60.5 -236.5t-160.5 -197.5q-15 -12 -35 10l-8 10q-16 21 -4 33z" />
<glyph unicode="&#x201c;" horiz-adv-x="892" d="M102 1053q0 119 60.5 236.5t161.5 197.5q15 12 34 -10l9 -11q9 -12 10 -18t-6 -14q-51 -51 -90 -115t-39 -115q0 -31 14.5 -57.5t32.5 -42.5t32.5 -40.5t14.5 -53.5q0 -43 -31.5 -71t-75.5 -28q-58 0 -92.5 40.5t-34.5 101.5zM522 1053q0 119 60.5 236.5t160.5 197.5 q15 12 35 -10l8 -11q10 -13 11 -18.5t-6 -13.5q-51 -51 -90 -115t-39 -115q0 -31 14.5 -57.5t32.5 -42.5t32.5 -40.5t14.5 -53.5q0 -43 -31.5 -71t-75.5 -28q-58 0 -92.5 40.5t-34.5 101.5z" />
<glyph unicode="&#x201d;" horiz-adv-x="892" d="M102 973q51 51 90 114.5t39 114.5q0 26 -9.5 47.5t-23.5 37.5t-28 31t-23.5 35t-9.5 44q0 43 31.5 70.5t75.5 27.5q58 0 92.5 -40.5t34.5 -100.5q0 -119 -60.5 -236.5t-160.5 -197.5q-15 -12 -35 10l-9 10q-16 21 -4 33zM522 973q51 51 90 114.5t39 114.5q0 26 -9.5 47.5 t-23.5 37.5t-28 31t-23.5 35t-9.5 44q0 43 31.5 70.5t75.5 27.5q58 0 92.5 -40.5t34.5 -100.5q0 -119 -60.5 -236.5t-161.5 -197.5q-15 -12 -34 10l-9 10q-16 21 -4 33z" />
<glyph unicode="&#x201e;" horiz-adv-x="892" d="M94 -307q51 51 90 114.5t39 114.5q0 26 -9.5 47.5t-23.5 37.5t-28 31t-23.5 35t-9.5 44q0 43 31.5 70.5t75.5 27.5q58 0 92 -40t34 -101q0 -119 -60.5 -236.5t-160.5 -197.5q-15 -12 -35 10l-8 10q-16 21 -4 33zM514 -307q51 51 90 114.5t39 114.5q0 26 -9.5 47.5 t-23.5 37.5t-28 31t-23.5 35t-9.5 44q0 43 31 70.5t75 27.5q58 0 92.5 -40.5t34.5 -100.5q0 -119 -60.5 -236.5t-160.5 -197.5q-15 -12 -35 10l-8 10q-16 21 -4 33z" />
<glyph unicode="&#x2022;" horiz-adv-x="694" d="M111 723q0 99 68.5 168.5t166.5 69.5t168 -70t70 -168t-70 -167t-168 -69t-166.5 69t-68.5 167z" />
<glyph unicode="&#x2026;" horiz-adv-x="1480" d="M131 98q0 50 34 84.5t81 34.5q48 0 82 -34.5t34 -84.5q0 -51 -34 -84.5t-82 -33.5q-47 0 -81 33.5t-34 84.5zM625 98q0 50 34 84.5t80 34.5q48 0 82.5 -34.5t34.5 -84.5q0 -51 -34.5 -84.5t-82.5 -33.5q-47 0 -80.5 33.5t-33.5 84.5zM1118 98q0 50 34 84.5t81 34.5 q48 0 82.5 -34.5t34.5 -84.5q0 -51 -34.5 -84.5t-82.5 -33.5q-47 0 -81 33.5t-34 84.5z" />
<glyph unicode="&#x202f;" horiz-adv-x="377" />
<glyph unicode="&#x2039;" horiz-adv-x="632" d="M147 618v11q0 24 11 39l274 397q8 11 16.5 11t28.5 -11l15 -8q33 -18 22 -37l-240 -397l240 -396q11 -19 -22 -37l-15 -8q-20 -10 -28.5 -10t-16.5 10l-274 398q-11 15 -11 38z" />
<glyph unicode="&#x203a;" horiz-adv-x="632" d="M119 227l239 396l-239 397q-11 19 22 37l15 8q20 11 29 11t16 -11l274 -397q10 -13 10 -39v-11q0 -25 -10 -38l-274 -398q-7 -10 -16 -10t-29 10l-15 8q-33 18 -22 37z" />
<glyph unicode="&#x205f;" horiz-adv-x="471" />
<glyph unicode="&#x20ac;" horiz-adv-x="1366" d="M61 582v6q0 28 3 35.5t14 7.5h151q-2 29 -2 86q0 67 6 129h-129q-10 0 -13 9t-3 38v6q0 29 2.5 36t13.5 7h144q54 271 229 412t426 141q213 0 371 -90q10 -7 10.5 -15t-12.5 -38l-10 -23q-17 -35 -35 -29q-176 74 -314 74q-209 0 -341 -111t-175 -321h529q11 0 13.5 -7 t2.5 -36v-6q0 -29 -3 -38t-13 -9h-543q-6 -56 -6 -117q0 -36 4 -98h518q11 0 13.5 -7t2.5 -36v-6q0 -29 -3 -38t-13 -9h-506q38 -214 169 -324.5t345 -110.5q174 0 326 68q12 6 20 -1t17 -30l8 -20q19 -44 -2 -54q-174 -83 -406 -83q-258 0 -421.5 148t-206.5 407h-164 q-10 0 -13.5 9.5t-3.5 37.5z" />
<glyph unicode="&#x2122;" horiz-adv-x="1810" d="M61 1427v13q0 35 13 35h624q13 0 13 -35v-13q0 -36 -13 -36h-260v-732q0 -12 -35 -12h-32q-37 0 -37 12v732h-260q-13 0 -13 36zM840 659v795q0 12 9.5 16.5t41.5 4.5h39q30 0 40 -3t15 -14l154 -346q16 -37 46.5 -109.5t47.5 -109.5q15 36 44 107.5t44 107.5l143 350 q5 11 15 14t41 3h47q32 0 41.5 -4.5t9.5 -16.5v-795q0 -12 -35 -12h-29q-36 0 -36 12v705q-11 -27 -51 -127.5t-64 -155.5l-119 -284q-5 -13 -43 -13h-18q-42 0 -47 13l-125 284q-89 199 -111 250v-672q0 -12 -35 -12h-28q-37 0 -37 12z" />
<glyph unicode="&#x25fc;" horiz-adv-x="1085" d="M0 0v1085h1085v-1085h-1085z" />
</font>
</defs>
</svg>
