<?xml version="1.0" standalone="no"?>
<!DOCTYPE svg PUBLIC "-//W3C//DTD SVG 1.1//EN" "http://www.w3.org/Graphics/SVG/1.1/DTD/svg11.dtd" >
<svg xmlns="http://www.w3.org/2000/svg">
<metadata></metadata>
<defs>
<font id="tim_sansmedium" horiz-adv-x="1198" >
<font-face units-per-em="2048" ascent="1536" descent="-512" />
<missing-glyph horiz-adv-x="518" />
<glyph unicode="&#xfb01;" horiz-adv-x="1253" d="M41 981v14q0 56 5 71t20 15h145v45q0 221 125 336t354 115q190 0 357 -80q13 -6 16 -15t0 -22t-14 -43l-15 -39q-17 -44 -27 -53.5t-28 -1.5q-134 59 -262 59q-140 0 -205.5 -65.5t-65.5 -204.5v-31h240q9 0 13.5 -4.5t7 -23.5t2.5 -58v-14q0 -39 -2.5 -58t-7 -23.5 t-13.5 -4.5h-240v-868q0 -10 -6.5 -15t-31 -8.5t-72.5 -3.5h-12q-51 0 -76.5 3.5t-31 8.5t-5.5 15v868h-145q-15 0 -20 15t-5 71zM868 27v1028q0 11 6.5 16t30.5 7.5t76 2.5h12q71 0 91 -5t20 -21v-1028q0 -10 -7 -15.5t-31.5 -8.5t-72.5 -3h-12q-51 0 -76.5 3.5t-31 8.5 t-5.5 15z" />
<glyph unicode="&#xfb02;" horiz-adv-x="1323" d="M41 981v14q0 56 5 71t20 15h145v43q0 226 129 343.5t367 117.5q108 0 207 -27.5t157 -66.5q23 -17 30 -32.5t9 -45.5q10 -202 10 -477v-670q0 -46 15 -66t55 -20h29q14 0 18 -12.5t4 -61.5v-16q0 -46 -3 -58t-17 -18q-48 -20 -121 -20q-106 0 -162 59q-53 58 -53 215v713 q0 66 -11 377q-71 33 -157 33q-140 0 -205.5 -70.5t-65.5 -208.5v-31h240q9 0 13.5 -4.5t7 -23.5t2.5 -58v-14q0 -39 -2.5 -58t-7 -23.5t-13.5 -4.5h-240v-868q0 -10 -6.5 -15t-31 -8.5t-72.5 -3.5h-12q-51 0 -76.5 3.5t-31 8.5t-5.5 15v868h-145q-15 0 -20 15t-5 71z" />
<glyph horiz-adv-x="0" />
<glyph horiz-adv-x="682" />
<glyph unicode="&#xd;" horiz-adv-x="518" />
<glyph unicode=" "  horiz-adv-x="518" />
<glyph unicode="&#x09;" horiz-adv-x="518" />
<glyph unicode="&#xa0;" horiz-adv-x="518" />
<glyph unicode="!" horiz-adv-x="616" d="M154 129q0 64 44 108t109 44q67 0 111.5 -44t44.5 -108q0 -62 -44.5 -105.5t-111.5 -43.5q-65 0 -109 43.5t-44 105.5zM172 1444q0 11 8 17t35.5 10t77.5 4h22q50 0 77 -4t35.5 -10t8.5 -17l-33 -963q0 -13 -16 -17.5t-63 -4.5h-35q-48 0 -64 4.5t-16 17.5z" />
<glyph unicode="&#x22;" horiz-adv-x="882" d="M129 1448q0 16 19 21.5t88 5.5h16q70 0 88 -5t18 -22l-26 -520q0 -13 -16 -18t-64 -5h-16q-49 0 -66.5 5t-17.5 18zM524 1448q0 16 19 21.5t88 5.5h16q70 0 88.5 -5t18.5 -22l-27 -520q0 -13 -16 -18t-64 -5h-16q-49 0 -66.5 5t-17.5 18z" />
<glyph unicode="#" horiz-adv-x="1333" d="M37 492v8q0 55 4.5 67.5t26.5 12.5h198l68 323h-166q-19 0 -25 15t-6 73v8q0 56 4.5 69t26.5 13h203l78 371q3 13 17 18t62 5h39q33 0 50 -3t21 -7.5t3 -12.5l-76 -371h338l78 371q3 13 17.5 18t62.5 5h37q34 0 51.5 -3t21.5 -7.5t3 -12.5l-76 -371h168q19 0 24.5 -13.5 t5.5 -68.5v-8q0 -59 -6 -73.5t-24 -14.5h-203l-68 -323h170q20 0 25.5 -12.5t5.5 -67.5v-8q0 -59 -6.5 -75t-24.5 -16h-209l-79 -378q-3 -13 -17.5 -18t-62.5 -5h-37q-34 0 -51.5 3t-21.5 7.5t-3 12.5l78 378h-336l-80 -378q-3 -13 -17.5 -18t-62.5 -5h-39q-34 0 -51 3 t-21 7.5t-3 12.5l77 378h-161q-18 0 -24.5 16t-6.5 75zM461 580h338l67 323h-338z" />
<glyph unicode="$" horiz-adv-x="1185" d="M76.5 146q0.5 17 27.5 65l21 37q23 43 35.5 52t34.5 -1q102 -54 188 -83.5t186 -29.5q120 0 195.5 57.5t75.5 149.5q0 38 -16 70.5t-38 56t-68 51t-80.5 44.5t-100.5 47q-211 96 -297 185.5t-86 233.5q0 157 99 265t267 139v190q0 10 5 15t28 8.5t70 3.5h24q46 0 68 -3.5 t27.5 -8.5t5.5 -15v-186q168 -21 284 -100q21 -16 20 -32.5t-26 -64.5l-16 -30q-24 -45 -37 -55t-29 1q-143 84 -285 84q-124 0 -191 -52t-67 -138q0 -33 15.5 -63t36 -51.5t60.5 -46t69.5 -39.5t82.5 -40q12 -5 17 -8q107 -49 175 -90t124 -93.5t81 -116.5t25 -146 q0 -162 -101.5 -273t-283.5 -143v-191q0 -10 -5 -15t-27 -8t-68 -3h-24q-48 0 -70.5 3t-27.5 8t-5 15v183q-109 10 -209 44.5t-166 84.5q-24 16 -23.5 33z" />
<glyph unicode="%" horiz-adv-x="1933" d="M109 1061q0 210 97 322t263 112q156 0 249 -102.5t93 -300.5q0 -209 -97 -322t-263 -113q-156 0 -249 103.5t-93 300.5zM303 1069q0 -258 152 -258q79 0 120 70.5t41 201.5q0 258 -151 258q-77 0 -119.5 -70t-42.5 -202zM439 6q0 6 5 14l838 1434q11 19 31.5 25t87.5 6h8 q87 0 92 -14q1 -6 -6 -19l-838 -1432q-11 -19 -33.5 -25.5t-86.5 -6.5h-15q-83 0 -83 18zM1122 383q0 209 97.5 321.5t263.5 112.5q156 0 249 -102.5t93 -300.5q0 -208 -97.5 -321t-263.5 -113q-156 0 -249 103t-93 300zM1317 391q0 -258 151 -258q79 0 120.5 71t41.5 202 q0 258 -151 258q-77 0 -119.5 -70.5t-42.5 -202.5z" />
<glyph unicode="&#x26;" horiz-adv-x="1439" d="M61 412q0 271 320 407q-141 160 -141 316q0 108 57.5 192t148 126t195.5 42q161 0 271 -92.5t110 -241.5q0 -248 -303 -385l319 -295q67 143 82 310q2 19 16 23.5t72 4.5h19q59 0 71.5 -5.5t10.5 -27.5q-27 -241 -133 -432l223 -204q13 -11 6 -29t-41 -58l-18 -20 q-36 -41 -53 -48t-33 9l-203 186q-89 -97 -211.5 -153.5t-265.5 -56.5q-238 0 -378.5 121.5t-140.5 310.5zM283 426q0 -117 87 -190.5t222 -73.5q193 0 332 151l-426 394q-215 -99 -215 -281zM451 1137q0 -60 34.5 -116.5t110.5 -131.5q223 100 223 260q0 74 -50 121 t-132 47q-80 0 -133 -48.5t-53 -131.5z" />
<glyph unicode="'" horiz-adv-x="487" d="M129 1448q0 16 19 21.5t88 5.5h16q70 0 88 -5t18 -22l-26 -520q0 -13 -16 -18t-64 -5h-16q-49 0 -66.5 5t-17.5 18z" />
<glyph unicode="(" horiz-adv-x="696" d="M135 637q0 287 98 536.5t240 397.5q9 11 25 7.5t57 -28.5l27 -16q44 -28 53.5 -42t-2.5 -28q-111 -163 -175.5 -373.5t-64.5 -453.5t64.5 -453.5t175.5 -373.5q12 -14 2.5 -28t-53.5 -42l-27 -16q-41 -25 -57 -28.5t-25 7.5q-142 148 -240 397.5t-98 536.5z" />
<glyph unicode=")" horiz-adv-x="696" d="M60.5 -218q-9.5 14 2.5 28q111 163 175.5 373.5t64.5 453.5t-64.5 453.5t-175.5 373.5q-12 14 -2.5 28t54.5 42l26 16q41 25 57 28.5t25 -7.5q142 -148 240 -397.5t98 -536.5t-98 -536.5t-240 -397.5q-9 -11 -25 -7.5t-57 28.5l-26 16q-45 28 -54.5 42z" />
<glyph unicode="*" horiz-adv-x="851" d="M55.5 1169.5q-0.5 16.5 12.5 57.5l8 26q14 45 23.5 57.5t27.5 6.5l227 -94l-20 247q-1 15 14.5 20t61.5 5h24q46 0 61.5 -5t14.5 -20l-23 -247l238 94q17 6 26 -7t23 -57l8 -26q12 -41 11.5 -57.5t-17.5 -20.5l-246 -57l162 -197q12 -13 3.5 -27.5t-44.5 -40.5l-20 -14 q-39 -27 -56.5 -31t-25.5 11l-127 221l-121 -217q-9 -15 -25.5 -12t-54.5 28l-22 14q-40 25 -48 39.5t5 28.5l157 197l-239 57q-18 4 -18.5 20.5z" />
<glyph unicode="+" d="M94 713v20q0 53 5.5 69.5t19.5 16.5h383v383q0 14 16.5 19.5t69.5 5.5h20q53 0 69.5 -5.5t16.5 -19.5v-383h385q14 0 19.5 -16.5t5.5 -69.5v-20q0 -53 -5.5 -69.5t-19.5 -16.5h-385v-385q0 -14 -16.5 -19.5t-69.5 -5.5h-20q-53 0 -69.5 5.5t-16.5 19.5v385h-383 q-14 0 -19.5 16.5t-5.5 69.5z" />
<glyph unicode="," horiz-adv-x="491" d="M46.5 -314.5q-1.5 9.5 10.5 23.5q117 142 117 242q0 32 -14.5 58.5t-31.5 42.5t-31.5 42.5t-14.5 59.5q0 54 40.5 92.5t100.5 38.5q73 0 119.5 -51.5t46.5 -131.5q0 -123 -65.5 -246.5t-180.5 -224.5q-11 -11 -22.5 -10.5t-28.5 14.5l-29 27q-15 14 -16.5 23.5z" />
<glyph unicode="-" horiz-adv-x="796" d="M82 590v22q0 53 5 68.5t19 15.5h582q15 0 21 -16t6 -68v-22q0 -52 -6 -69t-21 -17h-582q-14 0 -19 16t-5 70z" />
<glyph unicode="." horiz-adv-x="493" d="M90 133q0 65 45 109.5t111 44.5q67 0 112 -44.5t45 -109.5t-45 -109t-112 -44q-66 0 -111 44t-45 109z" />
<glyph unicode="/" horiz-adv-x="733" d="M31 7.5q-1 6.5 2 15.5l432 1431q6 20 26.5 26.5t88.5 6.5h20q37 0 58 -1.5t31.5 -5.5t12 -10.5t-1.5 -15.5l-434 -1434q-6 -20 -26 -25t-86 -5h-21q-38 0 -59 1.5t-31.5 5.5t-11.5 10.5z" />
<glyph unicode="0" d="M84 709q0 382 138.5 584t393.5 202q238 0 368 -183t130 -546q0 -379 -138.5 -582.5t-391.5 -203.5q-239 0 -369.5 184t-130.5 545zM332 723q0 -543 258 -543q276 0 276 574q0 274 -64.5 407t-195.5 133q-137 0 -205.5 -146t-68.5 -425z" />
<glyph unicode="1" horiz-adv-x="1034" d="M50 1231.5q0 15.5 18 25.5l360 183q43 22 68 28.5t63 6.5h41q40 0 53 -5.5t13 -21.5v-1260h233q13 0 18 -16t5 -70v-18q0 -37 -2.5 -55.5t-7 -23.5t-13.5 -5h-733q-9 0 -13.5 5t-7 23.5t-2.5 55.5v18q0 54 5 70t18 16h258v1029l-272 -136q-20 -9 -33 2.5t-37 63.5l-10 22 q-22 47 -22 62.5z" />
<glyph unicode="2" horiz-adv-x="1060" d="M63 37v49q0 41 7.5 63t29.5 50l281 338q159 190 222 306t63 228q0 107 -60 167t-157 60q-116 0 -277 -92q-16 -11 -30 -1.5t-36 50.5l-20 37q-18 32 -18.5 47.5t18.5 30.5q80 57 182.5 91t202.5 34q201 0 320.5 -111.5t119.5 -302.5q0 -146 -77 -286.5t-279 -370.5 l-195 -221h551q13 0 18 -16t5 -70v-31q0 -54 -5 -70t-18 -16h-778q-44 0 -57 7t-13 30z" />
<glyph unicode="3" horiz-adv-x="1083" d="M55.5 103q0.5 17 20.5 59l14 31q20 45 31 54.5t31 0.5q160 -72 288 -72q131 0 204 75t73 193q0 126 -90 179t-273 53h-39q-9 0 -13.5 5.5t-7.5 24.5t-3 56v16q0 37 3 55.5t7.5 23.5t13.5 5h45q149 0 233.5 57.5t84.5 180.5q0 96 -59 148t-158 52q-113 0 -242 -61 q-18 -11 -34.5 -1t-34.5 48l-15 33q-17 40 -17 58t19 28q157 90 348 90q194 0 313.5 -105t119.5 -266q0 -120 -64 -207t-174 -129q126 -36 204.5 -126.5t78.5 -223.5q0 -216 -144 -337t-373 -121q-103 0 -203 26t-171 70q-17 10 -16.5 27z" />
<glyph unicode="4" horiz-adv-x="1177" d="M68 375v84q0 53 16 94l381 893q8 18 28 23.5t87 5.5h20q100 0 104 -18q1 -5 -2 -11l-387 -899h355v280q0 16 21.5 21.5t88.5 5.5h13q65 0 89.5 -6t24.5 -21v-280h166q15 0 20 -15.5t5 -70.5v-23q0 -55 -5.5 -72.5t-19.5 -17.5h-166v-321q0 -15 -24.5 -21t-89.5 -6h-13 q-67 0 -88.5 5.5t-21.5 21.5v321h-520q-54 0 -68 5t-14 22z" />
<glyph unicode="5" horiz-adv-x="1077" d="M65 103q0 17 23 67l14 31q18 38 31 47t29 0q148 -72 287 -72q129 0 205.5 78t76.5 217t-79 211t-234 72q-102 0 -211 -25q-45 -10 -45 31v686q0 18 16.5 23.5t71.5 5.5h643q13 0 17.5 -16t4.5 -70v-31q0 -54 -4.5 -70t-17.5 -16h-510v-344q48 10 109 10q220 0 351.5 -120 t131.5 -337q0 -230 -143 -365.5t-383 -135.5q-96 0 -194 25t-169 69q-21 12 -21 29z" />
<glyph unicode="6" horiz-adv-x="1126" d="M80 627q0 184 39 342t111.5 275.5t184 184t249.5 66.5q154 0 274 -74q20 -12 20 -26.5t-20 -51.5l-23 -43q-18 -35 -28.5 -42t-26.5 -1q-97 46 -186 46q-281 0 -338 -467q138 98 291 98q195 0 307.5 -123.5t112.5 -323.5q0 -138 -57 -252.5t-169 -184.5t-258 -70 q-124 0 -217.5 46t-151 132.5t-86 203.5t-28.5 265zM326 662q2 -250 60.5 -369t184.5 -119q105 0 170.5 83.5t65.5 215.5q0 126 -58 198t-178 72q-59 0 -125 -23t-120 -58z" />
<glyph unicode="7" horiz-adv-x="985" d="M41 1358v31q0 54 4.5 70t17.5 16h822q46 0 59.5 -7t13.5 -28v-78q0 -34 -5.5 -57.5t-24.5 -67.5l-500 -1208q-7 -19 -28.5 -24t-90.5 -5h-55q-28 0 -44 1.5t-25.5 4.5t-10.5 8.5t2 14.5l537 1243h-650q-13 0 -17.5 16t-4.5 70z" />
<glyph unicode="8" horiz-adv-x="1163" d="M90 379q0 125 75 224t200 157q-203 129 -203 344q0 174 123 282.5t315 108.5q185 0 303.5 -100.5t118.5 -266.5q0 -191 -238 -329q49 -25 88 -50t78 -61t65 -75.5t42 -92.5t16 -114q0 -202 -143 -314t-367 -112q-97 0 -182 25.5t-150.5 74.5t-103 126t-37.5 173zM334 395 q0 -102 69.5 -160.5t178.5 -58.5q111 0 181.5 60t70.5 157q0 40 -18 75t-36 57t-67.5 52t-72 41t-88.5 41q-21 10 -32 15q-92 -48 -139 -121t-47 -158zM397 1122q0 -84 57.5 -138.5t168.5 -106.5q76 46 123 108.5t47 134.5q0 82 -55 134.5t-144 52.5q-88 0 -142.5 -54 t-54.5 -131z" />
<glyph unicode="9" horiz-adv-x="1130" d="M80 1001q0 135 55 246.5t163.5 179.5t250.5 68q107 0 191.5 -31t142 -87.5t95.5 -138t54.5 -178.5t16.5 -214q0 -460 -193 -688q-142 -178 -385 -178q-90 0 -172.5 23t-136.5 58q-18 11 -18 25t18 51l20 43q19 37 28 44t30 -1q121 -51 211 -51q161 0 239 125 q83 119 105 373q-138 -101 -295 -101q-193 0 -306.5 119t-113.5 313zM322 1022q0 -122 59 -193t178 -71q60 0 125.5 23t118.5 59q-2 234 -62.5 347t-187.5 113q-104 0 -167.5 -76t-63.5 -202z" />
<glyph unicode=":" horiz-adv-x="489" d="M88 133q0 63 45 108.5t111 45.5q67 0 112 -45t45 -109q0 -65 -45 -109t-112 -44q-66 0 -111 44t-45 109zM88 885q0 65 45 110t111 45q67 0 112 -45t45 -110q0 -64 -45 -108t-112 -44q-66 0 -111 44.5t-45 107.5z" />
<glyph unicode=";" horiz-adv-x="489" d="M55.5 -314.5q-1.5 9.5 10.5 23.5q116 141 116 242q0 32 -14.5 58.5t-31.5 42.5t-31.5 42.5t-14.5 59.5q0 54 40.5 92.5t100.5 38.5q73 0 119.5 -51.5t46.5 -131.5q0 -123 -65 -246.5t-180 -224.5q-24 -21 -52 4l-28 27q-15 14 -16.5 23.5zM88 885q0 65 45 110t111 45 q67 0 112 -45t45 -110q0 -64 -45 -108t-112 -44q-66 0 -111 44.5t-45 107.5z" />
<glyph unicode="&#x3c;" d="M113 717v18q0 44 5 59t23 25l828 481q16 12 31.5 2t41.5 -57l9 -14q29 -51 31.5 -68.5t-15.5 -25.5l-711 -410l711 -410q18 -9 15.5 -26.5t-31.5 -67.5l-9 -14q-26 -47 -41.5 -57t-31.5 2l-828 479q-18 10 -23 25t-5 59z" />
<glyph unicode="=" d="M123 477v23q0 53 5 68.5t19 15.5h904q14 0 19 -15.5t5 -68.5v-23q0 -52 -5 -68t-19 -16h-904q-14 0 -19 16t-5 68zM123 944v23q0 53 5 68.5t19 15.5h904q14 0 19 -15.5t5 -68.5v-23q0 -52 -5 -68t-19 -16h-904q-14 0 -19 16t-5 68z" />
<glyph unicode="&#x3e;" d="M113.5 290.5q-2.5 17.5 15.5 26.5l711 410l-711 410q-18 8 -15.5 25.5t31.5 68.5l9 14q26 47 41.5 57t31.5 -2l828 -481q18 -10 23 -25t5 -59v-18q0 -44 -5 -59t-23 -25l-828 -479q-16 -12 -31.5 -2t-41.5 57l-9 14q-29 50 -31.5 67.5z" />
<glyph unicode="?" horiz-adv-x="911" d="M61.5 1362q1.5 15 22.5 29q66 46 157 75t189 29q191 0 307 -99.5t117 -269.5q0 -78 -27 -142t-67.5 -108.5t-110.5 -103.5q-104 -85 -139 -135t-35 -115v-39q0 -14 -17.5 -19t-74.5 -5h-33q-58 0 -75 4.5t-17 19.5v47q0 109 42 183t159 172q75 61 110 112t35 119 q0 81 -50.5 127.5t-141.5 46.5q-107 0 -242 -69q-17 -9 -30.5 1t-35.5 48l-24 43q-20 34 -18.5 49zM217 129q0 64 43.5 108t108.5 44q67 0 111 -44t44 -108q0 -63 -43.5 -106t-109.5 -43t-110 43t-44 106z" />
<glyph unicode="@" horiz-adv-x="1984" d="M90 494q0 214 76 401t207.5 318.5t313 206.5t386.5 75q376 0 603 -208.5t227 -551.5q0 -287 -131 -465t-345 -178q-102 0 -172 49t-92 133q-49 -85 -129.5 -132.5t-171.5 -47.5q-138 0 -220.5 99.5t-82.5 271.5q0 153 59 282.5t159 204t216 74.5q151 0 238 -117l37 72 q9 17 24.5 22t57.5 5h24q52 0 65.5 -5t10.5 -20q-14 -58 -64 -278l-30 -150q-23 -109 -23 -149q0 -63 31 -100.5t88 -37.5q109 0 175.5 123.5t66.5 329.5q0 269 -170 424t-451 155q-162 0 -302.5 -59t-241 -162t-158.5 -250t-58 -317q0 -317 191 -491.5t543 -174.5 q196 0 430 58q28 6 37.5 -2.5t21.5 -48.5l8 -29q12 -41 9.5 -56.5t-21.5 -23.5q-75 -31 -227 -55.5t-295 -24.5q-207 0 -379 60.5t-291 169t-184.5 262.5t-65.5 338zM778 492q0 -96 34.5 -154.5t105.5 -58.5q46 0 84 23.5t65 66t46 91t32 107.5l43 199q-31 40 -75 64t-89 24 q-102 0 -174 -106t-72 -256z" />
<glyph unicode="A" horiz-adv-x="1441" d="M33 14q-1 2 -1 4q0 5 3 13l547 1413q8 21 26.5 26t93.5 5h17q80 0 99 -4.5t28 -26.5l557 -1411q3 -11 3 -14q0 -5 -4 -7q-4 -4 -10.5 -6t-20 -3.5t-31.5 -2t-44 -0.5h-26q-75 0 -100 6.5t-31 24.5l-131 350h-594l-127 -350q-9 -20 -30.5 -25.5t-98.5 -5.5h-21 q-97 0 -104 14zM485 573h453l-55 152q-107 295 -170 492q-131 -383 -170 -486z" />
<glyph unicode="B" horiz-adv-x="1312" d="M156 20v1434q0 13 14.5 17t62.5 4h355q542 0 542 -369q0 -116 -59.5 -197t-161.5 -125q143 -36 224 -125.5t81 -226.5q0 -432 -596 -432h-382q-48 0 -62.5 4t-17.5 16zM408 197h210q171 0 255.5 54.5t84.5 180.5q0 128 -83 180t-252 52h-215v-467zM408 852h174 q299 0 299 219q0 114 -72.5 160.5t-218.5 46.5h-182v-426z" />
<glyph unicode="C" horiz-adv-x="1277" d="M82 721q0 360 189 567t501 207q240 0 408 -115q24 -14 24 -30t-30 -62l-25 -39q-26 -42 -36.5 -49.5t-27.5 2.5q-78 42 -145 62t-147 20q-217 0 -334 -143.5t-117 -409.5q0 -267 114.5 -404t336.5 -137q134 0 307 68q20 9 30 1.5t29 -46.5l21 -43q22 -44 22 -60.5 t-20 -25.5q-91 -48 -205 -76t-229 -28q-313 0 -489.5 197.5t-176.5 543.5z" />
<glyph unicode="D" horiz-adv-x="1454" d="M156 20v1434q0 13 16 17t68 4h323q214 0 361 -44t247 -141q199 -196 199 -549q0 -190 -59 -338t-166 -241q-95 -84 -233.5 -123t-340.5 -39h-329q-53 0 -69.5 3.5t-16.5 16.5zM408 201h153q268 0 397 108q154 132 154 430q0 268 -131 402q-70 72 -170 102.5t-250 30.5 h-153v-1073z" />
<glyph unicode="E" horiz-adv-x="1208" d="M156 20v1434q0 13 18 17t72 4h813q19 0 23.5 -14.5t4.5 -78.5v-14q0 -60 -5 -77t-23 -17h-651v-428h553q19 0 23.5 -14t4.5 -78v-13q0 -62 -5 -79t-23 -17h-553v-444h659q19 0 24 -14.5t5 -77.5v-15q0 -60 -5 -77t-24 -17h-817q-57 0 -75.5 4t-18.5 16z" />
<glyph unicode="F" horiz-adv-x="1159" d="M156 25v1429q0 13 17 17t69 4h825q20 0 25.5 -15.5t5.5 -77.5v-14q0 -59 -6.5 -76.5t-24.5 -17.5h-659v-428h561q19 0 23.5 -14t4.5 -78v-13q0 -62 -5 -79t-23 -17h-561v-620q0 -17 -20 -21t-97 -4h-21q-43 0 -63 0.5t-33 3.5t-15.5 7.5t-2.5 13.5z" />
<glyph unicode="G" horiz-adv-x="1439" d="M84 733q0 351 191 556.5t530 205.5q265 0 455 -127q18 -10 15.5 -26.5t-28.5 -61.5l-24 -43q-23 -39 -35.5 -46.5t-32.5 3.5q-153 90 -336 90q-231 0 -354 -141t-123 -406q0 -270 119.5 -409.5t349.5 -139.5q125 0 244 35v385h-289q-20 0 -26.5 15.5t-6.5 78.5v15 q0 63 6 77.5t27 14.5h463q47 0 60.5 -6t13.5 -25v-663q0 -17 -6 -26.5t-23 -16.5q-84 -40 -222 -66t-268 -26q-175 0 -308.5 52.5t-219 151.5t-129 237t-43.5 312z" />
<glyph unicode="H" horiz-adv-x="1476" d="M156 27v1421q0 19 17.5 23t94.5 4h23q77 0 97 -4.5t20 -22.5v-602h661v602q0 19 18 23t95 4h22q77 0 97 -4.5t20 -22.5v-1421q0 -18 -20 -22.5t-97 -4.5h-22q-77 0 -95 4t-18 23v618h-661v-618q0 -18 -20 -22.5t-97 -4.5h-23q-77 0 -94.5 4t-17.5 23z" />
<glyph unicode="I" horiz-adv-x="579" d="M164 27v1421q0 19 17.5 23t94.5 4h23q77 0 97 -4.5t20 -22.5v-1421q0 -18 -20 -22.5t-97 -4.5h-23q-77 0 -94.5 4t-17.5 23z" />
<glyph unicode="J" horiz-adv-x="946" d="M49 70q0 17 17 63l12 35q18 49 29 59t34 2q116 -41 203 -41q96 0 148 58q32 36 43.5 89.5t11.5 141.5v971q0 17 21 22t91 5h23q69 0 93 -5t24 -22v-983q0 -249 -109 -367t-323 -118q-79 0 -159.5 18t-135.5 45q-23 10 -23 27z" />
<glyph unicode="K" horiz-adv-x="1333" d="M156 27v1421q0 18 19 22.5t93 4.5h23q74 0 95.5 -5t21.5 -22v-649l133 127q292 287 448 524q11 16 30.5 20.5t84.5 4.5h31q95 0 97 -16q1 -5 -3 -13q-120 -247 -490 -594l533 -819q5 -8 5 -14q0 -10 -14 -14q-20 -5 -79 -5h-58q-80 0 -101 4.5t-32 22.5l-422 663 l-163 -153v-510q0 -17 -22.5 -22t-94.5 -5h-23q-77 0 -94.5 4t-17.5 23z" />
<glyph unicode="L" horiz-adv-x="1114" d="M156 29v1419q0 18 19 22.5t93 4.5h23q74 0 95.5 -5t21.5 -22v-1247h608q18 0 23 -15t5 -77v-15q0 -60 -5 -77t-23 -17h-783q-53 0 -65 5t-12 24z" />
<glyph unicode="M" horiz-adv-x="1755" d="M156 27v1419q0 20 20 24.5t94 4.5h66q72 0 95 -6t32 -25l235 -481q110 -222 189 -437q68 184 188 437l232 481q9 19 32 25t95 6h53q69 0 90.5 -5.5t21.5 -23.5v-1419q0 -19 -18 -23t-94 -4h-17q-78 0 -95 4t-17 23v618q0 313 8 438q-71 -189 -188 -432l-179 -370 q-8 -16 -24.5 -20.5t-83.5 -4.5h-21q-68 0 -86 4.5t-26 20.5l-183 370q-107 218 -188 430q10 -120 10 -438v-616q0 -19 -18.5 -23t-95.5 -4h-13q-78 0 -96 4t-18 23z" />
<glyph unicode="N" horiz-adv-x="1519" d="M156 27v1421q0 19 14.5 23t83.5 4h12q78 0 97.5 -4.5t33.5 -24.5l453 -645q201 -288 291 -443q-8 266 -8 486v604q0 19 16.5 23t89.5 4h16q72 0 90.5 -4.5t18.5 -22.5v-1421q0 -18 -15 -22.5t-83 -4.5h-15q-71 0 -92 5t-35 24l-452 645q-169 235 -291 432q6 -147 6 -492 v-587q0 -19 -16.5 -23t-89.5 -4h-15q-76 0 -93 4t-17 23z" />
<glyph unicode="O" horiz-adv-x="1533" d="M84 717q0 361 184.5 569.5t522.5 208.5q318 0 488.5 -190.5t170.5 -546.5q0 -361 -184.5 -569.5t-522.5 -208.5q-317 0 -488 190.5t-171 546.5zM344 725q0 -266 103 -401.5t305 -135.5q210 0 324 146.5t114 415.5q0 265 -102.5 400.5t-303.5 135.5q-214 0 -327 -144.5 t-113 -416.5z" />
<glyph unicode="P" horiz-adv-x="1222" d="M156 27v1427q0 13 16.5 17t67.5 4h268q123 0 218.5 -13t177.5 -45t135.5 -83.5t83.5 -130.5t30 -185q0 -234 -152.5 -357.5t-418.5 -123.5q-34 0 -174 8v-518q0 -18 -20 -22.5t-97 -4.5h-23q-77 0 -94.5 4t-17.5 23zM408 743q68 -8 155 -8q164 0 250 70t86 207 q0 76 -26 128t-76.5 81t-113.5 41t-148 12h-127v-531z" />
<glyph unicode="Q" horiz-adv-x="1533" d="M84 717q0 361 184.5 569.5t522.5 208.5q318 0 488.5 -190.5t170.5 -546.5q0 -288 -118 -481.5t-341 -262.5q53 -33 109 -84l162 -149q15 -12 8.5 -30.5t-43.5 -55.5l-31 -31q-43 -44 -65 -50q-5 -2 -10 -2q-16 0 -27 15l-293 281q-49 45 -75.5 58.5t-78.5 19.5 q-271 26 -417 215t-146 516zM344 725q0 -266 103 -401.5t305 -135.5q210 0 324 146.5t114 415.5q0 265 -102.5 400.5t-303.5 135.5q-214 0 -327 -144.5t-113 -416.5z" />
<glyph unicode="R" horiz-adv-x="1310" d="M156 27v1427q0 13 17 17t71 4h303q310 0 461 -100t151 -320q0 -320 -317 -434q44 -36 108 -132l301 -452q6 -9 6 -16q0 -14 -24 -18q-17 -3 -53 -3h-95q-61 0 -82.5 5.5t-33.5 23.5l-267 417q-57 89 -95.5 113.5t-131.5 24.5h-67v-557q0 -18 -20 -22.5t-97 -4.5h-23 q-77 0 -94.5 4t-17.5 23zM408 780h170q327 0 327 260q0 131 -83 183.5t-249 52.5h-165v-496z" />
<glyph unicode="S" horiz-adv-x="1185" d="M104 211l21 37q23 43 35.5 52t34.5 -1q102 -54 188 -83.5t186 -29.5q120 0 195.5 57.5t75.5 149.5q0 38 -16 70.5t-38 56t-68 51t-80.5 44.5t-100.5 47q-211 96 -297 185.5t-86 233.5q0 186 135 300t354 114q231 0 389 -106q21 -16 20 -32.5t-26 -64.5l-16 -30 q-24 -45 -37 -55t-29 1q-143 84 -285 84q-124 0 -191 -52t-67 -138q0 -33 15.5 -63t36 -51.5t60.5 -46t69.5 -39.5t82.5 -40q12 -5 17 -8q107 -49 175 -90t124 -93.5t81 -116.5t25 -146q0 -192 -140 -310t-384 -118q-130 0 -256 37t-207 96q-24 16 -24 32.5t28 65.5z" />
<glyph unicode="T" horiz-adv-x="1187" d="M37 1368v14q0 63 5.5 78t25.5 15h1052q20 0 25.5 -15t5.5 -78v-14q0 -60 -6.5 -77t-24.5 -17h-401v-1247q0 -18 -19 -22.5t-96 -4.5h-24q-76 0 -94.5 4t-18.5 23v1247h-399q-19 0 -25 16.5t-6 77.5z" />
<glyph unicode="U" horiz-adv-x="1497" d="M147 551v897q0 19 18 23t95 4h25q75 0 94.5 -4.5t19.5 -22.5v-889q0 -111 23.5 -181t75.5 -116q83 -74 252 -74q171 0 254 74q98 85 98 297v889q0 19 18 23t92 4h21q77 0 97 -4.5t20 -22.5v-897q0 -289 -138 -424q-153 -147 -450 -147h-12q-316 3 -463 147 q-140 134 -140 424z" />
<glyph unicode="V" horiz-adv-x="1388" d="M42 1454q0 5 3.5 8.5t10 6t19.5 4t30 2t42 0.5h31q55 0 79.5 -2.5t34.5 -8.5t15 -20l240 -719q154 -470 164 -504q84 307 153 512l238 711q8 21 27 26t92 5h12q43 0 65 -1q22 0 36 -4q14 -3 14 -10q0 -2 -2 -16l-482 -1405q-9 -27 -33.5 -33t-113.5 -6h-12 q-94 0 -120 6.5t-34 28.5l-506 1407q-3 7 -3 12z" />
<glyph unicode="W" horiz-adv-x="2119" d="M48 1460q0 6 14 10t36 4.5t66 0.5h29q73 0 92.5 -5.5t25.5 -25.5l211 -737q67 -234 119 -449q46 206 104 438l197 748q6 21 26 26t95 5h20q75 0 97 -5.5t26 -25.5l193 -717q63 -229 117 -489q59 271 116 483l195 723q6 22 24.5 26.5t96.5 4.5h14q76 0 96 -5q15 -4 14 -17 q0 -4 -1 -9l-416 -1411q-6 -22 -29.5 -27.5t-103.5 -5.5h-25q-90 0 -114.5 5.5t-30.5 27.5l-166 598q-74 261 -121 483q-48 -239 -117 -489l-164 -592q-6 -22 -28 -27.5t-103 -5.5h-37q-62 0 -85 2t-33 8t-15 23l-434 1409z" />
<glyph unicode="X" horiz-adv-x="1312" d="M33 18q0 6 6 15l352 524q111 166 139 205l-139 209l-303 465q-15 25 6 32q19 7 76 7h68q66 0 86.5 -5t31.5 -22l205 -313q66 -102 119 -193q7 13 54.5 91.5t72.5 121.5l174 291q11 19 30.5 24t90.5 5h65q78 0 81 -15q1 -6 -7 -18l-299 -451q-119 -178 -154 -227 q80 -112 130 -189l352 -540q5 -8 5 -13q0 -11 -18 -16q-21 -6 -75 -6h-68q-65 0 -85.5 4.5t-31.5 20.5l-229 352q-82 126 -131 211q-14 -24 -131 -221l-209 -342q-10 -15 -30.5 -20t-88.5 -5h-63q-81 0 -82 18z" />
<glyph unicode="Y" horiz-adv-x="1273" d="M33 1444q-3 5 -3 9q0 12 27 17t84 5h37q77 0 99.5 -5t31.5 -24l191 -371q111 -214 149 -299q111 237 144 301l184 367q11 21 29.5 26t91.5 5h51q92 0 92 -18q0 -5 -4 -13l-477 -873v-544q0 -18 -19.5 -22.5t-97.5 -4.5h-25q-75 0 -92.5 4t-17.5 23v544z" />
<glyph unicode="Z" horiz-adv-x="1241" d="M90 27v88q0 40 8.5 65t36.5 66l696 1028h-673q-18 0 -24.5 17t-6.5 77v14q0 63 5.5 78t25.5 15h899q50 0 60.5 -4t10.5 -23v-84q0 -40 -9 -68t-34 -63l-696 -1032h733q20 0 25.5 -15t5.5 -77v-15q0 -60 -6.5 -77t-24.5 -17h-956q-51 0 -63.5 4.5t-12.5 22.5z" />
<glyph unicode="[" horiz-adv-x="688" d="M168 -258v1788q0 12 18 12h445q13 0 16.5 -13t3.5 -63v-18q0 -50 -3.5 -63t-16.5 -13h-242v-1472h242q13 0 16.5 -13t3.5 -63v-19q0 -50 -3.5 -62.5t-16.5 -12.5h-445q-18 0 -18 12z" />
<glyph unicode="\" horiz-adv-x="733" d="M31.5 1469.5q1.5 6.5 12 10.5t31.5 5.5t58 1.5h21q67 0 87.5 -6.5t26.5 -26.5l432 -1431q3 -9 2 -15.5t-11.5 -10.5t-31.5 -5.5t-59 -1.5h-20q-66 0 -86.5 5t-26.5 25l-434 1434q-3 9 -1.5 15.5z" />
<glyph unicode="]" horiz-adv-x="688" d="M37 -176q0 50 3.5 63t16.5 13h242v1472h-242q-13 0 -16.5 13t-3.5 63v18q0 50 3.5 63t16.5 13h445q18 0 18 -12v-1788q0 -12 -18 -12h-445q-13 0 -16.5 12.5t-3.5 62.5v19z" />
<glyph unicode="^" d="M126 677q-2 6 5 19l361 756q8 17 25.5 23t64.5 6h34q47 0 65.5 -6t27.5 -23l360 -756q13 -24 -7 -32q-20 -7 -81 -7h-20q-54 0 -75.5 5t-27.5 18l-258 569l-260 -569q-6 -13 -26.5 -18t-73.5 -5h-21q-90 0 -93 20z" />
<glyph unicode="_" horiz-adv-x="1026" d="M-16 -346q0 53 5 68.5t19 15.5h1010q14 0 19 -15.5t5 -68.5v-10q0 -52 -5 -68t-19 -16h-1010q-14 0 -19 16t-5 68v10z" />
<glyph unicode="`" horiz-adv-x="718" d="M141 1540q-16 22 18 27q14 2 38 2h77q50 0 67.5 -5t25.5 -18l192 -305q9 -15 -2 -21t-43 -6h-57q-60 0 -76 19z" />
<glyph unicode="a" horiz-adv-x="1173" d="M82 520q0 270 130 426t327 156q88 0 160 -35.5t112 -93.5l8 84q1 10 8 14.5t28.5 7t66.5 2.5h12q62 0 79 -5t17 -21q0 -42 -2 -99q-2 -84 -2 -301v-178l14 -450q0 -15 -14 -21q-16 -6 -82 -6h-8q-61 0 -80.5 5.5t-24.5 19.5q-10 35 -14 86q-47 -60 -127.5 -95.5 t-169.5 -35.5q-208 0 -323 146.5t-115 393.5zM326 530q0 -350 247 -350q118 0 175 70q25 31 34 69t9 109v348q-78 119 -211 119q-123 0 -188.5 -95.5t-65.5 -269.5z" />
<glyph unicode="b" horiz-adv-x="1171" d="M143 96v1434q0 16 20 21t93 5h12q69 0 90 -5.5t21 -20.5v-539q111 111 283 111q204 0 316 -148.5t112 -392.5q0 -287 -139 -434t-408 -147q-103 0 -207 19.5t-164 47.5q-29 13 -29 49zM379 205q70 -25 166 -25q158 0 229.5 96t71.5 281q0 340 -244 340 q-55 0 -105.5 -18.5t-78.5 -47.5q-26 -27 -32.5 -60.5t-6.5 -111.5v-454z" />
<glyph unicode="c" horiz-adv-x="1011" d="M82 530q0 264 140.5 418t383.5 154q201 0 338 -113q17 -14 17 -28q0 -15 -27 -60l-19 -33q-26 -45 -41 -52.5t-32 7.5q-109 72 -226 72q-129 0 -209.5 -89.5t-80.5 -262.5q0 -166 72 -261.5t218 -95.5q114 0 240 60q22 9 32.5 -1t29.5 -59l10 -26q17 -45 17 -60.5 t-17 -27.5q-62 -41 -152 -66.5t-188 -25.5q-244 0 -375 149.5t-131 400.5z" />
<glyph unicode="d" horiz-adv-x="1204" d="M82 522q0 262 125 421t338 159q145 0 252 -90v518q0 16 19.5 21t92.5 5h13q70 0 90 -5t20 -21v-1268q0 -49 15 -64.5t53 -15.5q17 0 20.5 -11.5t3.5 -59.5v-19q0 -45 -3.5 -60t-14.5 -20q-52 -18 -123 -18q-65 0 -108 29.5t-58 82.5q-104 -126 -297 -126 q-205 0 -321.5 144.5t-116.5 397.5zM326 524q0 -163 64 -252.5t188 -89.5q55 0 103.5 17.5t76.5 46.5q23 26 31 63t8 109v383q-88 94 -207 94q-128 0 -196 -96.5t-68 -274.5z" />
<glyph unicode="e" horiz-adv-x="1130" d="M82 524q0 256 135.5 417t362.5 161q134 0 232 -57.5t155 -161.5q73 -137 73 -332q0 -54 -6 -72t-24 -18h-680q12 -134 88.5 -205.5t212.5 -71.5q143 0 287 64q17 9 26.5 0.5t26.5 -51.5l14 -39q16 -47 16 -61t-18 -25q-171 -92 -385 -92q-238 0 -377 144.5t-139 399.5z M330 633h475q-8 116 -65 192t-158 76t-166.5 -68t-85.5 -200z" />
<glyph unicode="f" horiz-adv-x="747" d="M43 981v14q0 56 5 71t20 15h143v60q0 213 99.5 328.5t297.5 115.5q121 0 211 -37q13 -4 17 -10t4 -18v-6q-1 -18 -11 -50l-8 -26q-14 -50 -23.5 -60.5t-31.5 -5.5q-65 14 -119 14q-115 0 -158 -58t-43 -191v-56h240q15 0 20 -15t5 -71v-14q0 -56 -5 -71t-20 -15h-240 v-868q0 -10 -7 -15.5t-31.5 -8.5t-71.5 -3h-12q-51 0 -76.5 3.5t-31 8.5t-5.5 15v868h-143q-15 0 -20 15t-5 71z" />
<glyph unicode="g" horiz-adv-x="1175" d="M82 530q1 132 36 240.5t96 181t144 111.5t179 39q171 0 280 -131q4 50 10 80q3 19 17.5 24.5t68.5 5.5h17q55 0 72 -4t20 -18q14 -69 14 -459v-481q0 -269 -98 -420q-117 -184 -397 -184q-90 0 -178.5 20.5t-147.5 54.5q-19 9 -19 28q0 18 21 67l12 28q19 43 31 54.5 t31 3.5q120 -54 237 -54q161 0 222 105q51 85 51 280q-113 -104 -285 -104q-203 0 -318.5 143.5t-115.5 388.5zM326 535q0 -165 64.5 -249.5t191.5 -84.5q63 0 125 28.5t94 73.5v336q0 122 -35 174q-26 38 -74 60t-108 22q-123 0 -190.5 -92.5t-67.5 -267.5z" />
<glyph unicode="h" horiz-adv-x="1200" d="M143 29v1499q0 11 6 16.5t31 8.5t78 3h10q70 0 90.5 -6t20.5 -22v-549q113 123 301 123q189 0 287 -109q51 -57 74.5 -137t23.5 -199v-628q0 -11 -7 -16.5t-31.5 -9t-72.5 -3.5h-12q-52 0 -76.5 3.5t-30.5 9t-6 16.5v546q0 119 -9.5 171t-39.5 85q-54 58 -162 58 q-107 0 -176 -53q-53 -42 -59 -121q-4 -51 -4 -232v-454q0 -11 -7 -16.5t-31.5 -9t-72.5 -3.5h-10q-53 0 -78.5 3.5t-31 8.5t-5.5 17z" />
<glyph unicode="i" horiz-adv-x="532" d="M115 1425q0 62 43.5 107t107.5 45t108 -45t44 -107t-44 -106.5t-108 -44.5t-107.5 44.5t-43.5 106.5zM147 27v1028q0 11 6.5 16t30.5 7.5t76 2.5h12q71 0 91 -5t20 -21v-1028q0 -10 -7 -15.5t-31.5 -8.5t-72.5 -3h-12q-51 0 -76.5 3.5t-31 8.5t-5.5 15z" />
<glyph unicode="j" horiz-adv-x="563" d="M-168 -430v8q0 17 8 57l6 29q9 43 18 54.5t30 7.5q66 -15 108 -15q97 0 136.5 60.5t39.5 199.5v1084q0 11 6.5 16t30.5 7.5t76 2.5h12q71 0 91 -5t20 -21v-1053q0 -257 -99.5 -372t-285.5 -115q-50 0 -100.5 9.5t-75.5 22.5q-18 9 -21 23zM145 1425q0 62 44 107t108 45 t108 -45t44 -107t-44 -106.5t-108 -44.5t-108 44.5t-44 106.5z" />
<glyph unicode="k" horiz-adv-x="1052" d="M143 27v1503q0 16 20 21t93 5h12q69 0 90 -5.5t21 -20.5v-875q210 185 362 402q11 15 31 19.5t86 4.5h25q93 0 97 -15q2 -5 -3 -15q-122 -226 -348 -439l399 -573q4 -7 4 -13q0 -16 -35 -22q-26 -4 -75 -4h-21q-84 0 -106 5t-35 24l-299 438q-48 -35 -82 -59v-381 q0 -16 -21.5 -21.5t-89.5 -5.5h-12q-51 0 -75 3t-31 8t-7 16z" />
<glyph unicode="l" horiz-adv-x="577" d="M127 1534q1 14 15 18q16 4 94 4h12q50 0 73.5 -2.5t30.5 -7t8 -14.5q15 -117 15 -596v-670q0 -47 14 -66.5t55 -19.5h31q13 0 18 -12.5t5 -61.5v-16q0 -43 -4.5 -57t-16.5 -19q-52 -20 -121 -20q-108 0 -161 59q-56 61 -56 215v713z" />
<glyph unicode="m" horiz-adv-x="1843" d="M135 1055q-1 17 15 21q18 6 86 5h12q66 0 84 -3.5t22 -20.5q6 -25 15 -99q54 68 133 106t172 38q106 0 191.5 -44.5t125.5 -127.5q128 172 340 172q183 0 281 -109q51 -57 73.5 -136.5t22.5 -199.5v-630q0 -16 -20.5 -21.5t-88.5 -5.5h-12q-51 0 -76 3t-31.5 8t-6.5 16 v548q0 117 -9.5 170t-38.5 86q-52 58 -153 58q-105 0 -168 -55q-49 -43 -55 -121q-5 -66 -5 -228v-458q0 -16 -20.5 -21.5t-87.5 -5.5h-12q-52 0 -76.5 3t-31.5 8t-7 16v548q0 118 -9 170.5t-38 85.5q-52 58 -154 58q-105 0 -168 -55q-49 -43 -55 -121q-4 -53 -4 -228v-458 q0 -16 -21.5 -21.5t-89.5 -5.5h-10q-52 0 -76.5 3t-31.5 8t-7 16v628z" />
<glyph unicode="n" horiz-adv-x="1202" d="M135 1055q0 17 16 21q18 6 87 5h10q63 0 83 -4.5t23 -19.5q9 -61 11 -96q115 141 317 141q189 0 287 -109q51 -57 74.5 -137t23.5 -199v-628q0 -11 -7 -16.5t-31.5 -9t-72.5 -3.5h-12q-52 0 -76.5 3.5t-30.5 9t-6 16.5v546q0 119 -9.5 171t-39.5 85q-54 58 -161 58 q-108 0 -177 -53q-53 -42 -59 -121q-4 -51 -4 -232v-454q0 -11 -7 -16.5t-31.5 -9t-72.5 -3.5h-10q-53 0 -78.5 3.5t-31 8.5t-5.5 17v626z" />
<glyph unicode="o" horiz-adv-x="1165" d="M82 518q0 282 135 433t385 151q230 0 355.5 -141t125.5 -398q0 -282 -135 -432.5t-383 -150.5q-231 0 -357 141t-126 397zM326 532q0 -162 58.5 -255t184.5 -93q129 0 200 93t71 272q0 162 -59.5 255t-186.5 93q-129 0 -198.5 -93.5t-69.5 -271.5z" />
<glyph unicode="p" horiz-adv-x="1175" d="M135 1051q-2 19 16 24.5t87 5.5h12q64 0 82.5 -4t21.5 -20q9 -57 11 -88q111 133 301 133q196 0 312 -145t116 -398q0 -261 -125.5 -420t-335.5 -159q-73 0 -140 23.5t-112 62.5v-502q0 -16 -21.5 -21.5t-89.5 -5.5h-12q-52 0 -76.5 3t-30.5 8t-6 16v1054q0 140 -10 433z M381 270q85 -88 211 -88t192 98t66 277q0 340 -250 340q-57 0 -104.5 -18.5t-73.5 -47.5q-23 -26 -32 -64.5t-9 -117.5v-379z" />
<glyph unicode="q" horiz-adv-x="1171" d="M82 520q0 266 151 424t410 158q93 0 191.5 -24.5t164.5 -59.5q17 -9 23 -19t6 -30v-836l31 -572q0 -9 -5 -13q-5 -5 -28.5 -8t-73.5 -3h-16q-71 0 -90.5 5t-22.5 22q-30 200 -30 510v26q-105 -120 -279 -120q-202 0 -317 146.5t-115 393.5zM326 524q0 -160 59.5 -251 t179.5 -91q55 0 105 18t78 48q26 27 35.5 73t9.5 134v422q-76 26 -158 26q-151 0 -230 -106.5t-79 -272.5z" />
<glyph unicode="r" horiz-adv-x="778" d="M135 1051q-2 18 16 24t87 6h12q64 0 83 -4t21 -18q15 -140 19 -219q98 260 289 260q34 0 55 -8q14 -6 17 -19t3 -65v-25q0 -42 -3 -62.5t-8.5 -26.5t-16.5 -7q-157 -11 -244 -135q-46 -66 -65 -170.5t-19 -280.5v-274q0 -16 -20.5 -21.5t-90.5 -5.5h-10q-54 0 -78.5 3 t-30.5 8t-6 16v610q0 229 -10 414z" />
<glyph unicode="s" horiz-adv-x="960" d="M106 174l15 29q20 42 33 53t32 2q153 -86 285 -86q84 0 133 33.5t49 93.5q0 57 -50.5 86t-190.5 66q-157 45 -230 116.5t-73 200.5q0 155 110 244.5t293 89.5q198 0 336 -105q14 -10 10 -27t-31 -59l-14 -22q-26 -42 -39.5 -51t-25.5 2q-110 71 -228 71 q-87 0 -134.5 -30.5t-47.5 -89.5q0 -30 15 -52t46 -38t63 -27t82 -25q10 -3 15 -4q83 -24 137 -48t99 -60.5t65.5 -87t20.5 -119.5q0 -164 -115 -257t-301 -93q-111 0 -207 30.5t-162 77.5q-14 7 -14 23q0 18 24 63z" />
<glyph unicode="t" horiz-adv-x="806" d="M12 963v14q0 37 4.5 50.5t18.5 16.5q127 36 173.5 100.5t61.5 211.5q1 13 15.5 16.5t60.5 3.5h16q46 0 61 -5t15 -19v-271h258q9 0 13.5 -4.5t7 -23.5t2.5 -58v-14q0 -39 -2.5 -58t-7 -23.5t-13.5 -4.5h-258v-549q0 -102 35 -137q36 -33 102 -33q57 0 121 23 q15 4 22.5 -6.5t24.5 -61.5l7 -18q15 -48 15 -62t-22 -24q-100 -47 -229 -47q-151 0 -231 77q-80 80 -80 273v565h-166q-14 0 -19.5 14.5t-5.5 53.5z" />
<glyph unicode="u" horiz-adv-x="1196" d="M135 424v629q0 16 20.5 22t90.5 6h12q52 0 76.5 -3t30.5 -8.5t6 -16.5v-547q0 -119 9.5 -171t39.5 -85q54 -57 158 -57q110 0 176 53q51 40 57 121q4 51 4 231v455q0 16 20.5 22t90.5 6h10q53 0 78 -3t31 -8.5t6 -16.5v-627l10 -399q0 -16 -16 -21q-18 -6 -87 -6h-10 q-62 0 -82.5 5t-23.5 20q-9 61 -11 96q-115 -141 -313 -141q-188 0 -285 108q-51 57 -74.5 137t-23.5 199z" />
<glyph unicode="v" horiz-adv-x="1054" d="M20 1049q-2 5 -2 10q0 11 13 15q21 7 98 7h21q69 0 91 -5.5t27 -22.5l158 -467q68 -201 113 -355q67 175 136.5 407t110.5 415q3 18 21.5 23t85.5 5h14q71 1 93 -5q19 -5 18 -19q0 -99 -160 -537q-106 -290 -209 -493q-8 -16 -31.5 -21.5t-91.5 -5.5h-18q-69 0 -91 5.5 t-30 23.5z" />
<glyph unicode="w" horiz-adv-x="1617" d="M29 1047q-1 5 -1 9q0 6 3 10q5 6 30 10.5t78 4.5h8q72 0 93 -5.5t26 -24.5l109 -410q61 -227 96 -428q72 320 100 426l111 414q5 18 26 23t93 5h18q69 0 89.5 -5.5t25.5 -20.5l115 -428q90 -337 104 -410q115 349 199 834q3 20 20 25t90 5h11q65 1 83 -5q16 -5 15 -18 q0 -281 -287 -1025q-8 -21 -31.5 -27t-101.5 -6h-14q-84 0 -107.5 5.5t-28.5 23.5l-106 381q-55 202 -92 403q-39 -219 -92 -405l-109 -377q-5 -19 -29.5 -25t-101.5 -6h-20q-76 0 -100.5 5.5t-28.5 23.5z" />
<glyph unicode="x" horiz-adv-x="1036" d="M34 22q0 5 5 13l244 366l104 156q-25 32 -113 168l-213 322q-13 22 10 28q21 6 87 6h24q76 0 104.5 -6t39.5 -22l100 -160q42 -66 96 -156q43 77 92 156l95 160q11 19 30.5 23.5t91.5 4.5h19q103 0 107 -17q2 -6 -5 -17l-196 -304q-23 -35 -121 -178q60 -80 121 -170 l241 -362q4 -7 4 -12q0 -12 -23 -16q-25 -5 -89 -5h-27q-72 0 -95.5 6t-35.5 25l-123 188q-73 111 -106 168q-84 -141 -99 -166l-118 -192q-11 -18 -33 -23.5t-90 -5.5h-21q-106 0 -107 22z" />
<glyph unicode="y" horiz-adv-x="1075" d="M-42 -414q0 17 11 58l6 22q13 51 24 63.5t34 4.5q69 -21 121 -21q99 0 162.5 60t119.5 215l-383 1054q-4 14 0.5 21.5t30 12.5t76.5 5h24q71 0 92 -5t27 -21l148 -439q66 -200 108 -385q49 196 105 377l139 447q6 16 25 21t83 5h23q37 0 58.5 -1.5t33.5 -5t13 -10.5v-4 q0 -5 -1 -11l-362 -1049q-45 -128 -90.5 -214.5t-105.5 -149t-135.5 -91t-174.5 -28.5q-57 0 -113 11t-80 28q-19 11 -19 30z" />
<glyph unicode="z" horiz-adv-x="950" d="M72 33v55q0 49 24 88l482 719h-457q-9 0 -13.5 4.5t-7 24.5t-2.5 61v6q0 41 2.5 61t7 24.5t13.5 4.5h694q38 0 47.5 -5.5t9.5 -26.5v-56q0 -31 -4.5 -48.5t-21.5 -41.5l-477 -717h497q9 0 13.5 -4.5t7 -24.5t2.5 -61v-8q0 -40 -2.5 -59.5t-7 -24t-13.5 -4.5h-737 q-37 0 -47 6t-10 27z" />
<glyph unicode="{" horiz-adv-x="663" d="M63 616v37q0 47 3.5 60t17.5 16q66 11 98.5 50.5t32.5 129.5v295q0 172 79 255t255 83h65q14 0 17.5 -13.5t3.5 -62.5v-22q0 -50 -3.5 -63t-17.5 -13h-43q-73 0 -104 -36t-31 -120v-288q0 -115 -34 -181.5t-115 -107.5q81 -39 115 -106t34 -181v-291q0 -83 31 -118 t104 -35h39q14 0 19.5 -14t5.5 -62v-23q0 -49 -3.5 -62t-17.5 -13h-65q-176 0 -255 83t-79 255v292q0 91 -32 130.5t-99 50.5q-14 3 -17.5 16t-3.5 59z" />
<glyph unicode="|" horiz-adv-x="563" d="M172 -532v2179q0 10 5.5 15t27 8t65.5 3h21q45 0 67 -3t27.5 -8t5.5 -15v-2179q0 -10 -5.5 -15t-27.5 -8.5t-67 -3.5h-21q-44 0 -65.5 3.5t-27 8.5t-5.5 15z" />
<glyph unicode="}" horiz-adv-x="663" d="M29 -172q0 49 5 62.5t19 13.5h39q73 0 104 35t31 118v291q0 114 34.5 181t115.5 106q-81 41 -115.5 107.5t-34.5 181.5v288q0 84 -31 120t-104 36h-43q-13 0 -16.5 12.5t-3.5 63.5v22q0 50 3.5 63t16.5 13h66q176 0 255 -83t79 -255v-295q0 -90 32.5 -129.5t98.5 -50.5 q13 -3 16.5 -15.5t3.5 -60.5v-37q0 -46 -3.5 -59t-16.5 -16q-67 -11 -99 -50.5t-32 -130.5v-292q0 -172 -79 -255t-255 -83h-66q-13 0 -16.5 12.5t-3.5 62.5v23z" />
<glyph unicode="~" d="M57 674q27 123 112 200.5t202 77.5q58 0 113.5 -18t98.5 -44t83 -52t82.5 -44t80.5 -18q101 0 150 135q10 28 76 11l26 -7q38 -9 49 -16.5t7 -24.5q-27 -124 -111.5 -201t-200.5 -77q-58 0 -113 18t-98 44t-83.5 52t-83 44t-82.5 18q-102 0 -148 -135q-10 -27 -76 -10 l-26 6q-38 9 -49.5 16.5t-8.5 24.5z" />
<glyph unicode="&#xa1;" horiz-adv-x="616" d="M154 952q0 62 44 106t109 44q67 0 111.5 -44t44.5 -106q0 -64 -44.5 -107.5t-111.5 -43.5q-65 0 -109 43.5t-44 107.5zM172 -362l37 962q0 14 16.5 18.5t63.5 4.5h35q46 0 62.5 -5t16.5 -18l33 -962q0 -11 -8.5 -17t-35.5 -10t-77 -4h-22q-50 0 -77.5 4t-35.5 10t-8 17z " />
<glyph unicode="&#xa2;" horiz-adv-x="1019" d="M82 522q0 219 107.5 368.5t304.5 182.5v205q0 11 5 16t27.5 8t71.5 3h10q67 0 84 -5.5t17 -21.5v-203q135 -23 243 -104q18 -15 15.5 -29.5t-27.5 -58.5l-18 -33q-24 -42 -39 -52t-25 1q-124 82 -242 82q-132 0 -211 -88.5t-79 -255.5q0 -165 74 -258t221 -93 q111 0 241 60q20 9 31 -1t31 -57l10 -24q19 -47 19 -61.5t-15 -24.5q-106 -69 -236 -86v-205q0 -11 -5.5 -16t-27.5 -8t-69 -3h-10q-49 0 -71.5 3t-27 7.5t-4.5 16.5v201q-133 20 -226.5 98t-136 189t-42.5 247z" />
<glyph unicode="&#xa3;" horiz-adv-x="1148" d="M117 731v10q0 39 2.5 57.5t6.5 22.5t13 4h156v176q0 230 118 365t345 135q170 0 307 -67q18 -8 18.5 -24.5t-16.5 -59.5l-12 -31q-19 -45 -29 -54.5t-33 -2.5q-122 43 -219 43q-233 0 -233 -289v-191h389q9 0 13 -4t6.5 -22.5t2.5 -57.5v-10q0 -39 -2.5 -58.5t-6.5 -24.5 t-13 -5h-391v-92q0 -255 -123 -350h645q19 0 24 -15t5 -77v-13q0 -60 -5.5 -78t-23.5 -18h-909q-18 0 -23.5 17.5t-5.5 78.5v8q0 48 5.5 66.5t23.5 28.5q82 52 112.5 129t30.5 209v106h-156q-9 0 -13 5t-6.5 24.5t-2.5 58.5z" />
<glyph unicode="&#xa4;" d="M137 184q0 4 4 11l148 251q-76 109 -76 273q0 192 90 309l-145 252q-12 20 23 25q17 2 44 2h58q39 0 52.5 -5t22.5 -20l86 -147q76 28 168 28q85 0 158 -28l86 147q9 15 23 20t53 5h57q72 0 71 -18q0 -4 -3 -9l-148 -252q76 -109 76 -274q0 -193 -90 -310l145 -249 q12 -21 -20 -26q-16 -3 -45 -3h-60q-38 0 -51.5 5t-23.5 19l-86 150q-76 -31 -168 -31q-85 0 -158 31l-86 -150q-9 -15 -23 -19.5t-55 -4.5h-57q-69 0 -70 18zM424 729q0 -105 40.5 -169t125.5 -64q88 0 136 63t48 184q0 106 -41.5 171t-126.5 65q-86 0 -134 -63.5 t-48 -186.5z" />
<glyph unicode="&#xa5;" horiz-adv-x="1273" d="M33 1444q-11 20 24 26q27 5 84 5h37q77 0 99.5 -5t31.5 -24l191 -371q111 -214 149 -299q111 237 144 301l184 367q11 21 29.5 26t91.5 5h51q88 0 92 -16q1 -5 -4 -15l-408 -744h199q15 0 20 -15t5 -67t-5 -65.5t-20 -13.5h-268v-129h268q15 0 20 -15t5 -67t-5 -66 t-20 -14h-268v-221q0 -18 -19.5 -22.5t-97.5 -4.5h-25q-75 0 -92.5 4t-17.5 23v221h-270q-15 0 -20 16t-5 66q0 53 5 66.5t20 13.5h270v129h-270q-15 0 -20 15.5t-5 66.5q0 53 5 66t20 13h200z" />
<glyph unicode="&#xa6;" horiz-adv-x="563" d="M172 340q0 16 17 21.5t81 5.5h21q45 0 67 -3.5t27.5 -8.5t5.5 -15v-768q0 -10 -5.5 -15t-27.5 -8.5t-67 -3.5h-21q-44 0 -65.5 3.5t-27 8.5t-5.5 15v768zM172 774v768q0 16 17 21.5t81 5.5h21q45 0 67 -3.5t27.5 -8.5t5.5 -15v-768q0 -10 -5.5 -15t-27.5 -8t-67 -3h-21 q-44 0 -65.5 3t-27 8t-5.5 15z" />
<glyph unicode="&#xa7;" horiz-adv-x="1083" d="M98 696q0 87 38.5 157t105.5 114q-74 71 -74 196q0 149 115 240.5t295 91.5q198 0 331 -100q14 -6 11 -25t-29 -59l-14 -23q-28 -44 -41 -53t-25 2q-114 70 -225 70q-87 0 -138 -29.5t-51 -91.5q0 -38 32.5 -65.5t84 -45t114 -34.5t125 -41.5t114 -57.5t84 -90.5 t32.5 -134.5q0 -88 -38.5 -158t-104.5 -113q73 -76 73 -196q0 -149 -114.5 -240.5t-294.5 -91.5q-195 0 -332 98q-15 10 -11.5 26.5t29.5 59.5l17 27q24 38 37.5 47t25.5 0q114 -70 226 -70q85 0 136.5 31.5t51.5 89.5q0 38 -32.5 65.5t-84 45t-114 34.5t-125 41.5 t-114 57.5t-84 90.5t-32.5 134.5zM326 733q0 -35 20 -60.5t58.5 -42.5t78.5 -29t96 -29t95 -33q82 56 82 141q0 35 -20 60t-59 42.5t-78.5 29t-97 28.5t-95.5 32q-80 -60 -80 -139z" />
<glyph unicode="&#xa8;" horiz-adv-x="718" d="M8 1374q0 54 38 92.5t95 38.5q58 0 95.5 -38t37.5 -93q0 -53 -37.5 -90t-95.5 -37q-57 0 -95 37t-38 90zM444 1374q0 55 37.5 93t93.5 38q58 0 97 -38t39 -93q0 -53 -39 -90t-97 -37q-56 0 -93.5 37t-37.5 90z" />
<glyph unicode="&#xa9;" horiz-adv-x="1642" d="M78 737q0 220 99 394t268.5 269t377.5 95q155 0 291.5 -56t236 -154t157 -240.5t57.5 -307.5q0 -164 -58 -306t-157.5 -240.5t-237 -154.5t-291.5 -56t-290.5 56t-236.5 154.5t-158 240.5t-58 306zM240 737q0 -133 45 -249t123 -196.5t185 -126.5t228 -46q161 0 293 77.5 t209.5 219.5t77.5 321q0 177 -77.5 319.5t-210 221t-294.5 78.5q-160 0 -292 -78.5t-209.5 -221t-77.5 -319.5zM481 733q0 194 98 315t275 121q129 0 211 -61q14 -11 14.5 -20.5t-14.5 -36.5l-14 -25q-13 -24 -22 -29t-19 2q-69 41 -148 41q-109 0 -166 -79.5t-57 -223.5 q0 -138 54.5 -214.5t168.5 -76.5q78 0 156 37q12 5 19.5 -0.5t17.5 -29.5l10 -25q10 -27 9 -35.5t-11 -15.5q-41 -27 -102.5 -44.5t-122.5 -17.5q-168 0 -262.5 114t-94.5 304z" />
<glyph unicode="&#xaa;" horiz-adv-x="851" d="M90 1112q0 173 85 278t218 105q58 0 105.5 -23t74.5 -61l9 55q1 6 4.5 8.5t19 4.5t45.5 2h23q43 0 56 -3t13 -14q0 -13 -2 -120.5t-2 -167.5v-93q0 -153 9 -290q2 -13 -10.5 -17t-57.5 -4h-23q-41 0 -54.5 3.5t-16.5 12.5q-8 27 -11 60q-31 -40 -84 -64t-112 -24 q-135 0 -212 96t-77 256zM274 1120q0 -217 150 -217q62 0 98 39q39 45 39 137v195q-48 74 -129 74q-158 0 -158 -228z" />
<glyph unicode="&#xab;" horiz-adv-x="1093" d="M109 614v13q0 31 18 57l266 387q11 18 29.5 16.5t54.5 -22.5l25 -14q41 -24 51.5 -39t-0.5 -29l-223 -362l223 -363q11 -14 0.5 -29t-51.5 -39l-25 -14q-36 -21 -54.5 -22.5t-29.5 16.5l-266 385q-18 26 -18 59zM549 614v13q0 31 18 57l267 387q11 18 29.5 16.5 t54.5 -22.5l24 -14q41 -24 51.5 -39t-0.5 -29l-223 -362l223 -363q11 -14 0.5 -29t-51.5 -39l-24 -14q-36 -21 -54.5 -22.5t-29.5 16.5l-267 385q-18 26 -18 59z" />
<glyph unicode="&#xac;" d="M123 944v23q0 52 5 68t19 16h902q26 0 26 -17v-616q0 -14 -16.5 -19.5t-69.5 -5.5h-20q-53 0 -69.5 5.5t-16.5 19.5v440h-736q-14 0 -19 16t-5 70z" />
<glyph unicode="&#xad;" horiz-adv-x="796" d="M82 590v22q0 53 5 68.5t19 15.5h582q15 0 21 -16t6 -68v-22q0 -52 -6 -69t-21 -17h-582q-14 0 -19 16t-5 70z" />
<glyph unicode="&#xae;" horiz-adv-x="1642" d="M78 737q0 220 99 394t268.5 269t377.5 95q155 0 291.5 -56t236 -154t157 -240.5t57.5 -307.5q0 -164 -58 -306t-157.5 -240.5t-237 -154.5t-291.5 -56t-290.5 56t-236.5 154.5t-158 240.5t-58 306zM240 737q0 -133 45 -249t123 -196.5t185 -126.5t228 -46q161 0 293 77.5 t209.5 219.5t77.5 321q0 177 -77.5 319.5t-210 221t-294.5 78.5q-160 0 -292 -78.5t-209.5 -221t-77.5 -319.5zM518 367v768q0 11 9.5 14.5t39.5 3.5h250q161 0 243.5 -55.5t82.5 -186.5q0 -86 -47.5 -147.5t-130.5 -91.5q24 -32 41 -60l149 -241q11 -17 -13 -21 q-11 -2 -32 -2h-51q-60 0 -70 17l-139 231q-22 35 -39 45t-57 10h-84v-284q0 -19 -70 -19h-14q-40 0 -54 4t-14 15zM670 770h153q164 0 164 137q0 71 -43 97t-125 26h-149v-260z" />
<glyph unicode="&#xaf;" horiz-adv-x="718" d="M61 1378v23q0 42 5 57t18 15h549q15 0 19.5 -15t4.5 -57v-23q0 -41 -5 -57t-19 -16h-549q-13 0 -18 16t-5 57z" />
<glyph unicode="&#xb0;" horiz-adv-x="722" d="M70 1202q0 133 82 213t217 80q129 0 206.5 -72.5t77.5 -208.5q0 -133 -82.5 -212.5t-216.5 -79.5q-129 0 -206.5 72.5t-77.5 207.5zM211 1206q0 -76 37.5 -117.5t107.5 -41.5q71 0 113.5 43.5t42.5 121.5q0 74 -39 116t-108 42q-70 0 -112 -44.5t-42 -119.5z" />
<glyph unicode="&#xb1;" d="M94 84v22q0 53 5.5 70t19.5 17h960q14 0 19.5 -17t5.5 -70v-22q0 -52 -5.5 -68t-19.5 -16h-960q-14 0 -19.5 16t-5.5 68zM94 920v20q0 53 5.5 69.5t19.5 16.5h383v383q0 14 16.5 19.5t69.5 5.5h20q52 0 69 -5.5t17 -19.5v-383h385q14 0 19.5 -16.5t5.5 -69.5v-20 q0 -53 -5.5 -69.5t-19.5 -16.5h-385v-385q0 -14 -17 -19.5t-69 -5.5h-20q-53 0 -69.5 5.5t-16.5 19.5v385h-383q-14 0 -19.5 16.5t-5.5 69.5z" />
<glyph unicode="&#xb2;" horiz-adv-x="878" d="M165 1491.5q-3 15.5 11 24.5q49 35 117 57t135 22q124 0 201.5 -64t77.5 -181q0 -102 -58.5 -191.5t-212.5 -228.5h256q14 0 19.5 -16t5.5 -66v-8q0 -49 -5.5 -65.5t-19.5 -16.5h-493q-16 0 -21.5 13t-5.5 58v11q0 28 6 42t23 29q176 161 242.5 253t66.5 171q0 47 -27 72 t-75 25q-71 0 -154 -52q-11 -8 -23.5 2.5t-37.5 51.5q-25 42 -28 57.5z" />
<glyph unicode="&#xb3;" horiz-adv-x="878" d="M153.5 811q-0.5 14 14.5 55q19 51 28.5 63.5t24.5 6.5q81 -31 174 -31q64 0 100.5 28.5t36.5 76.5q0 51 -40 73.5t-127 22.5h-41q-15 0 -21 14t-6 62v8q0 44 6 58t21 14h38q73 0 110.5 24.5t37.5 69.5q0 40 -29 61t-82 21q-80 0 -157 -49q-12 -7 -25.5 2.5t-36.5 50.5 q-23 40 -25 56.5t11 23.5q107 73 260 73q129 0 205 -59.5t76 -165.5q0 -63 -32.5 -108t-86.5 -66q66 -18 105.5 -67.5t39.5 -120.5q0 -125 -92.5 -194t-237.5 -69q-130 0 -235 46q-14 6 -14.5 20z" />
<glyph unicode="&#xb4;" horiz-adv-x="718" d="M156 1228.5q0 5.5 4 12.5l192 305q9 14 26 18.5t68 4.5h78q60 0 59 -16q0 -6 -5 -13l-240 -307q-16 -19 -76 -19h-55q-17 0 -28 1.5t-17 4.5t-6 8.5z" />
<glyph unicode="&#xb5;" horiz-adv-x="1216" d="M135 20v1033q0 16 20.5 22t90.5 6h12q52 0 76.5 -3t30.5 -8.5t6 -16.5v-547q0 -119 9.5 -171t39.5 -85q54 -57 158 -57q110 0 176 53q51 40 57 121q4 51 4 231v455q0 16 20.5 22t90.5 6h10q53 0 78 -3t31 -8.5t6 -16.5v-787q0 -47 14 -66.5t55 -19.5h31q13 0 18 -12.5 t5 -61.5v-16q0 -43 -4.5 -57t-16.5 -19q-52 -20 -121 -20q-109 0 -162 59q-24 27 -36 68q-120 -141 -316 -141q-73 0 -145 20v-39q0 -181 30 -395q2 -11 -3 -16.5t-29 -9t-74 -3.5h-16q-73 0 -92.5 5t-22.5 22q-31 190 -31 456z" />
<glyph unicode="&#xb6;" horiz-adv-x="1261" d="M82 1038q0 200 126 318.5t355 118.5h621q12 0 16 -11.5t4 -48.5v-53q0 -36 -4 -47.5t-16 -11.5h-140v-1561q0 -23 -73 -23h-51q-72 0 -72 23v1561h-152v-1561q0 -13 -16.5 -18t-56.5 -5h-52q-71 0 -71 23v879q-190 7 -304 122.5t-114 294.5z" />
<glyph unicode="&#xb7;" horiz-adv-x="491" d="M88 737q0 65 45 110.5t111 45.5q67 0 112 -45.5t45 -110.5q0 -63 -45 -107t-112 -44q-66 0 -111 44t-45 107z" />
<glyph unicode="&#xb8;" horiz-adv-x="718" d="M145.5 -442q-1.5 11 8.5 45l6 20q9 31 16 38.5t23 4.5q62 -12 100 -12q94 0 94 70q0 67 -102 67q-55 0 -119 -12l33 235q2 11 14 15t51 4h17q43 0 56 -5.5t11 -21.5l-10 -104q14 2 35 2q81 0 134.5 -49t53.5 -131q0 -88 -64 -148.5t-186 -60.5q-88 0 -155 26 q-15 6 -16.5 17z" />
<glyph unicode="&#xb9;" horiz-adv-x="878" d="M151 1415q-2 18 11 21l217 118q44 23 86 23h74q39 0 39 -16v-650h96q14 0 19 -14t5 -63v-3q0 -49 -5 -63t-19 -14h-420q-13 0 -19 14.5t-6 62.5v3q0 49 5.5 63t19.5 14h127v463l-139 -76q-15 -8 -29 2.5t-37 53.5t-25 61z" />
<glyph unicode="&#xba;" horiz-adv-x="851" d="M90 1114q0 184 91 282.5t257 98.5q153 0 238.5 -92.5t85.5 -261.5q0 -184 -91 -282.5t-257 -98.5q-153 0 -238.5 92.5t-85.5 261.5zM274 1122q0 -215 146 -215q76 0 118 56.5t42 169.5q0 215 -146 215q-77 0 -118.5 -56.5t-41.5 -169.5z" />
<glyph unicode="&#xbb;" horiz-adv-x="1093" d="M100 258l224 363l-224 362q-9 16 1 30t51 38l24 14q36 21 54.5 22.5t29.5 -16.5l266 -387q19 -27 19 -57v-13q0 -32 -19 -59l-266 -385q-11 -18 -29.5 -16.5t-54.5 22.5l-24 14q-41 24 -51 38t-1 30zM540.5 229q-10.5 15 0.5 29l223 363l-223 362q-11 14 -0.5 29t51.5 39 l24 14q36 21 54.5 22.5t29.5 -16.5l267 -387q18 -26 18 -57v-13q0 -33 -18 -59l-267 -385q-11 -18 -29.5 -16.5t-54.5 22.5l-24 14q-41 24 -51.5 39z" />
<glyph unicode="&#xbc;" horiz-adv-x="1959" d="M157 1312q-2 18 11 21l217 119q44 23 86 23h74q39 0 39 -17v-649h96q14 0 19.5 -14.5t5.5 -63.5v-2q0 -49 -5.5 -63.5t-19.5 -14.5h-420q-13 0 -18.5 15t-5.5 63v2q0 49 5 63.5t19 14.5h127v463l-139 -76q-15 -8 -29 2t-37 53t-25 61zM565 -2q-1 5 4 16l664 1434 q9 20 27 25.5t83 5.5h17q81 0 85 -15q2 -5 -3 -16l-664 -1434q-10 -20 -28.5 -26t-81.5 -6h-17q-82 0 -86 16zM1169 248v4q0 47 31 113l184 419q8 18 27 23.5t74 5.5h12q85 0 85 -19q0 -4 -3 -10l-199 -450h168v123q0 14 18 19t70 5h9q52 0 70 -5t18 -19v-123h55 q16 0 21.5 -15.5t5.5 -64.5v-8q0 -48 -6 -61t-21 -13h-55v-152q0 -15 -18 -20.5t-70 -5.5h-9q-52 0 -70 5.5t-18 20.5v152h-352q-16 0 -21.5 13t-5.5 63z" />
<glyph unicode="&#xbd;" horiz-adv-x="1959" d="M147 1312q-2 18 11 21l217 119q44 23 86 23h74q38 0 38 -17v-649h97q14 0 19 -14.5t5 -63.5v-2q0 -49 -5 -63.5t-19 -14.5h-420q-13 0 -19 15t-6 63v2q0 49 5.5 63.5t19.5 14.5h127v463l-139 -76q-15 -8 -29 2t-37 53t-25 61zM547 4q-1 5 4 16l663 1434q9 20 27.5 25.5 t83.5 5.5h16q81 0 85 -15q2 -5 -3 -16l-663 -1434q-9 -20 -28.5 -26t-82.5 -6h-16q-82 0 -86 16zM1226 734q-3 16 11 24q49 35 117 57.5t135 22.5q124 0 201 -64.5t77 -181.5q0 -103 -58.5 -192t-211.5 -228h256q14 0 19.5 -16t5.5 -66v-8q0 -49 -5.5 -65.5t-19.5 -16.5 h-493q-16 0 -21.5 13.5t-5.5 58.5v10q0 28 6 42.5t23 29.5q176 161 242.5 253t66.5 171q0 46 -27.5 71t-75.5 25q-72 0 -153 -51q-11 -8 -24 2t-38 51q-24 42 -27 58z" />
<glyph unicode="&#xbe;" horiz-adv-x="1959" d="M180.5 714.5q-0.5 14.5 14.5 55.5q19 51 28.5 63.5t24.5 6.5q81 -31 174 -31q64 0 100.5 28t36.5 76q0 51 -40.5 74t-127.5 23h-41q-15 0 -20.5 13.5t-5.5 61.5v9q0 45 5.5 58t20.5 13h39q72 0 110 25t38 70q0 39 -29 60t-82 21q-81 0 -158 -49q-12 -7 -25 3t-36 51 q-23 40 -25 56t11 23q109 74 260 74q129 0 204.5 -59.5t75.5 -165.5q0 -63 -32.5 -108t-86.5 -66q66 -18 106 -68t40 -121q0 -125 -92.5 -193.5t-237.5 -68.5q-133 0 -235 45q-14 6 -14.5 20.5zM561 4q-1 5 4 16l664 1434q9 20 27 25.5t83 5.5h17q81 0 85 -15q2 -5 -3 -16 l-664 -1434q-10 -20 -28.5 -26t-81.5 -6h-17q-82 0 -86 16zM1163 254v4q0 47 31 113l184 420q8 17 27 22.5t74 5.5h12q84 0 85 -18q0 -4 -3 -10l-199 -451h168v123q0 14 18 19t70 5h8q52 0 70 -5t18 -19v-123h56q15 0 20.5 -15t5.5 -65v-8q0 -48 -5.5 -61t-20.5 -13h-56 v-151q0 -15 -18 -21t-70 -6h-8q-52 0 -70 6t-18 21v151h-352q-16 0 -21.5 13t-5.5 63z" />
<glyph unicode="&#xbf;" horiz-adv-x="911" d="M57 -45q0 78 27 142t67.5 108.5t110.5 103.5q104 85 139 135t35 115v39q0 14 18 19.5t74 5.5h33q58 0 75 -5t17 -20v-47q0 -109 -41.5 -182.5t-158.5 -171.5q-75 -61 -110.5 -112.5t-35.5 -119.5q0 -80 51 -127t142 -47q61 0 115.5 17t125.5 53q17 9 30.5 -1t35.5 -48 l24 -43q20 -34 18.5 -49t-22.5 -29q-66 -46 -157.5 -75.5t-188.5 -29.5q-191 0 -307 99.5t-117 269.5zM387 952q0 63 44 106.5t110 43.5t109.5 -43.5t43.5 -106.5q0 -64 -43 -107.5t-108 -43.5q-67 0 -111.5 43.5t-44.5 107.5z" />
<glyph unicode="&#xc0;" horiz-adv-x="1441" d="M33 14q-2 5 2 17l547 1413q8 21 26.5 26t93.5 5h17q80 0 99 -4.5t28 -26.5l557 -1411q2 -7 3 -12t-3.5 -8.5t-11 -6t-20 -4t-31.5 -2t-44 -0.5h-26q-75 0 -100 6.5t-31 24.5l-131 350h-594l-127 -350q-9 -20 -30.5 -25.5t-98.5 -5.5h-21q-97 0 -104 14zM428 1933 q-18 22 19 27q14 2 36 2h78q50 0 68 -5t24 -18l193 -305q9 -15 -2 -20.5t-43 -5.5h-58q-60 0 -75 18zM485 573h453l-55 152q-107 295 -170 492q-131 -383 -170 -486z" />
<glyph unicode="&#xc1;" horiz-adv-x="1441" d="M33 14q-2 5 2 17l547 1413q8 21 26.5 26t93.5 5h17q80 0 99 -4.5t28 -26.5l557 -1411q2 -7 3 -12t-3.5 -8.5t-11 -6t-20 -4t-31.5 -2t-44 -0.5h-26q-75 0 -100 6.5t-31 24.5l-131 350h-594l-127 -350q-9 -20 -30.5 -25.5t-98.5 -5.5h-21q-97 0 -104 14zM485 573h453 l-55 152q-107 295 -170 492q-131 -383 -170 -486zM555 1634l193 305q8 13 26 18t68 5h78q60 0 60 -15q-1 -6 -7 -14l-240 -307q-15 -18 -76 -18h-55q-33 0 -44.5 5.5t-2.5 20.5z" />
<glyph unicode="&#xc2;" horiz-adv-x="1441" d="M33 14q-2 5 2 17l547 1413q8 21 26.5 26t93.5 5h17q80 0 99 -4.5t28 -26.5l557 -1411q2 -7 3 -12t-3.5 -8.5t-11 -6t-20 -4t-31.5 -2t-44 -0.5h-26q-75 0 -100 6.5t-31 24.5l-131 350h-594l-127 -350q-9 -20 -30.5 -25.5t-98.5 -5.5h-21q-97 0 -104 14zM390.5 1698.5 q-4.5 10.5 6.5 25.5l189 199q18 18 40 24.5t70 6.5h35q48 0 70.5 -6.5t40.5 -24.5l188 -199q11 -15 7 -26t-27 -35l-17 -16q-25 -27 -37 -32t-26 5l-217 186l-215 -186q-14 -10 -26.5 -4.5t-37.5 31.5l-16 16q-23 25 -27.5 35.5zM485 573h453l-55 152q-107 295 -170 492 q-131 -383 -170 -486z" />
<glyph unicode="&#xc3;" horiz-adv-x="1441" d="M33 14q-2 5 2 17l547 1413q8 21 26.5 26t93.5 5h17q80 0 99 -4.5t28 -26.5l557 -1411q2 -7 3 -12t-3.5 -8.5t-11 -6t-20 -4t-31.5 -2t-44 -0.5h-26q-75 0 -100 6.5t-31 24.5l-131 350h-594l-127 -350q-9 -20 -30.5 -25.5t-98.5 -5.5h-21q-97 0 -104 14zM369.5 1754 q-3.5 10 7.5 28q41 54 98.5 88.5t120.5 34.5q45 0 90.5 -19.5t84.5 -39t69 -19.5q53 0 118 65q5 10 19 4.5t43 -34.5l12 -13q25 -25 29.5 -37.5t-6.5 -25.5q-99 -123 -219 -123q-45 0 -90.5 19.5t-84.5 39t-69 19.5q-53 0 -119 -66q-8 -10 -19.5 -4.5t-41.5 35.5l-13 12 q-26 26 -29.5 36zM485 573h453l-55 152q-107 295 -170 492q-131 -383 -170 -486z" />
<glyph unicode="&#xc4;" horiz-adv-x="1441" d="M33 14q-2 5 2 17l547 1413q8 21 26.5 26t93.5 5h17q80 0 99 -4.5t28 -26.5l557 -1411q2 -7 3 -12t-3.5 -8.5t-11 -6t-20 -4t-31.5 -2t-44 -0.5h-26q-75 0 -100 6.5t-31 24.5l-131 350h-594l-127 -350q-9 -20 -30.5 -25.5t-98.5 -5.5h-21q-97 0 -104 14zM362 1767 q0 54 38.5 92.5t95.5 38.5q58 0 95.5 -38t37.5 -93q0 -53 -37.5 -90t-95.5 -37q-57 0 -95.5 37t-38.5 90zM485 573h453l-55 152q-107 295 -170 492q-131 -383 -170 -486zM799 1767q0 55 37.5 93t93.5 38q58 0 96.5 -38t38.5 -93q0 -53 -38.5 -90t-96.5 -37q-56 0 -93.5 37 t-37.5 90z" />
<glyph unicode="&#xc5;" horiz-adv-x="1441" d="M33 14q-2 5 2 17l555 1431q-92 65 -92 170q0 89 65 150t156 61q92 0 155.5 -60.5t63.5 -150.5q0 -55 -25.5 -100.5t-70.5 -75.5l561 -1423q2 -7 3 -12t-3.5 -8.5t-11 -6t-20 -4t-31.5 -2t-44 -0.5h-26q-75 0 -100 6.5t-31 24.5l-131 350h-594l-127 -350 q-9 -20 -30.5 -25.5t-98.5 -5.5h-21q-97 0 -104 14zM485 573h453l-55 152q-107 295 -170 492q-131 -383 -170 -486zM629 1632q0 -38 26 -63t62 -25q38 0 62 25.5t24 62.5q0 36 -24.5 62t-61.5 26q-36 0 -62 -24.5t-26 -63.5z" />
<glyph unicode="&#xc6;" horiz-adv-x="2103" d="M0 20q0 4 4 11l928 1409q14 22 34 28.5t81 6.5h907q19 0 23.5 -14.5t4.5 -78.5v-14q0 -60 -5 -77t-23 -17h-651v-428h552q19 0 24 -14.5t5 -77.5v-13q0 -61 -5.5 -78.5t-23.5 -17.5h-552v-444h659q19 0 24 -14.5t5 -77.5v-15q0 -60 -5 -77t-24 -17h-817q-57 0 -75.5 4 t-18.5 16v353h-555l-224 -342q-12 -19 -38.5 -25t-90.5 -6h-51q-92 0 -92 20zM621 563h430v686q-72 -134 -226 -370z" />
<glyph unicode="&#xc7;" horiz-adv-x="1277" d="M82 721q0 360 189 567t501 207q240 0 408 -115q25 -15 24 -31t-30 -61l-25 -39q-26 -42 -36.5 -49.5t-27.5 2.5q-78 42 -145 62t-147 20q-217 0 -334 -143.5t-117 -409.5q0 -267 114.5 -404t336.5 -137q134 0 307 68q20 9 30 1.5t29 -46.5l21 -43q22 -44 22 -60.5 t-20 -25.5q-188 -98 -408 -104l-8 -78q14 2 35 2q81 0 134.5 -49t53.5 -131q0 -88 -64 -148.5t-186 -60.5q-88 0 -155 26q-15 6 -17 17t8 45l7 20q9 31 16 38.5t23 4.5q62 -12 100 -12q94 0 94 70q0 67 -102 67q-55 0 -119 -12l29 209q-257 38 -399 230.5t-142 502.5z" />
<glyph unicode="&#xc8;" horiz-adv-x="1208" d="M156 20v1434q0 13 18 17t72 4h813q19 0 23.5 -14.5t4.5 -78.5v-14q0 -60 -5 -77t-23 -17h-651v-428h553q19 0 23.5 -14t4.5 -78v-13q0 -62 -5 -79t-23 -17h-553v-444h659q19 0 24 -14.5t5 -77.5v-15q0 -60 -5 -77t-24 -17h-817q-57 0 -75.5 4t-18.5 16zM352 1933 q-18 23 22 28q13 1 34 1h77q50 0 68.5 -5t24.5 -18l192 -305q9 -15 -2 -20.5t-43 -5.5h-57q-61 0 -76 18z" />
<glyph unicode="&#xc9;" horiz-adv-x="1208" d="M156 20v1434q0 13 18 17t72 4h813q19 0 23.5 -14.5t4.5 -78.5v-14q0 -60 -5 -77t-23 -17h-651v-428h553q19 0 23.5 -14t4.5 -78v-13q0 -62 -5 -79t-23 -17h-553v-444h659q19 0 24 -14.5t5 -77.5v-15q0 -60 -5 -77t-24 -17h-817q-57 0 -75.5 4t-18.5 16zM479 1634l193 305 q8 13 26 18t68 5h78q60 0 60 -15q-1 -6 -7 -14l-240 -307q-15 -18 -75 -18h-56q-33 0 -44.5 5.5t-2.5 20.5z" />
<glyph unicode="&#xca;" horiz-adv-x="1208" d="M156 20v1434q0 13 18 17t72 4h813q19 0 23.5 -14.5t4.5 -78.5v-14q0 -60 -5 -77t-23 -17h-651v-428h553q19 0 23.5 -14t4.5 -78v-13q0 -62 -5 -79t-23 -17h-553v-444h659q19 0 24 -14.5t5 -77.5v-15q0 -60 -5 -77t-24 -17h-817q-57 0 -75.5 4t-18.5 16zM315 1698 q-4 11 7 26l188 199q18 18 40.5 24.5t70.5 6.5h34q48 0 70.5 -6.5t40.5 -24.5l188 -199q11 -15 7 -26t-27 -35l-16 -16q-25 -26 -37.5 -31.5t-26.5 4.5l-217 186l-215 -186q-14 -10 -26.5 -4.5t-37.5 31.5l-16 16q-23 24 -27 35z" />
<glyph unicode="&#xcb;" horiz-adv-x="1208" d="M156 20v1434q0 13 18 17t72 4h813q19 0 23.5 -14.5t4.5 -78.5v-14q0 -60 -5 -77t-23 -17h-651v-428h553q19 0 23.5 -14t4.5 -78v-13q0 -62 -5 -79t-23 -17h-553v-444h659q19 0 24 -14.5t5 -77.5v-15q0 -60 -5 -77t-24 -17h-817q-57 0 -75.5 4t-18.5 16zM287 1767 q0 55 38.5 93t94.5 38q58 0 95.5 -38t37.5 -93q0 -53 -37.5 -90t-95.5 -37q-57 0 -95 37t-38 90zM723 1767q0 55 37.5 93t93.5 38q58 0 96.5 -38t38.5 -93q0 -53 -38.5 -90t-96.5 -37q-56 0 -93.5 37t-37.5 90z" />
<glyph unicode="&#xcc;" horiz-adv-x="579" d="M4 1933q-18 22 19 27q14 2 36 2h78q50 0 68 -5t24 -18l193 -305q9 -15 -2 -20.5t-43 -5.5h-58q-60 0 -75 18zM164 27v1421q0 19 17.5 23t94.5 4h23q77 0 97 -4.5t20 -22.5v-1421q0 -18 -20 -22.5t-97 -4.5h-23q-77 0 -94.5 4t-17.5 23z" />
<glyph unicode="&#xcd;" horiz-adv-x="579" d="M131 1634l193 305q8 13 26 18t68 5h78q60 0 60 -15q-1 -6 -7 -14l-240 -307q-15 -18 -76 -18h-55q-33 0 -44.5 5.5t-2.5 20.5zM164 27v1421q0 19 17.5 23t94.5 4h23q77 0 97 -4.5t20 -22.5v-1421q0 -18 -20 -22.5t-97 -4.5h-23q-77 0 -94.5 4t-17.5 23z" />
<glyph unicode="&#xce;" horiz-adv-x="579" d="M-33.5 1698.5q-4.5 10.5 6.5 25.5l189 199q18 18 40 24.5t70 6.5h35q48 0 70.5 -6.5t40.5 -24.5l188 -199q11 -15 7 -26t-27 -35l-17 -16q-25 -27 -37 -32t-26 5l-217 186l-215 -186q-14 -10 -26.5 -4.5t-37.5 31.5l-16 16q-23 25 -27.5 35.5zM164 27v1421q0 19 17.5 23 t94.5 4h23q77 0 97 -4.5t20 -22.5v-1421q0 -18 -20 -22.5t-97 -4.5h-23q-77 0 -94.5 4t-17.5 23z" />
<glyph unicode="&#xcf;" horiz-adv-x="579" d="M-61 1767q0 55 38.5 93t94.5 38q58 0 95.5 -38t37.5 -93q0 -53 -37.5 -90t-95.5 -37q-57 0 -95 37t-38 90zM164 27v1421q0 19 17.5 23t94.5 4h23q77 0 97 -4.5t20 -22.5v-1421q0 -18 -20 -22.5t-97 -4.5h-23q-77 0 -94.5 4t-17.5 23zM375 1767q0 55 37.5 93t93.5 38 q58 0 96.5 -38t38.5 -93q0 -53 -38.5 -90t-96.5 -37q-56 0 -93.5 37t-37.5 90z" />
<glyph unicode="&#xd0;" horiz-adv-x="1488" d="M49 741v15q0 53 5.5 68.5t19.5 15.5h116v614q0 13 16 17t68 4h324q214 0 361 -44t247 -141q199 -196 199 -549q0 -190 -59 -338t-166 -241q-95 -84 -233.5 -123t-340.5 -39h-330q-53 0 -69.5 3.5t-16.5 16.5v635h-116q-14 0 -19.5 16.5t-5.5 69.5zM442 201h154 q268 0 397 108q154 132 154 430q0 268 -131 402q-70 72 -170 102.5t-250 30.5h-154v-434h306q15 0 20.5 -16t5.5 -68v-15q0 -53 -6 -69.5t-20 -16.5h-306v-454z" />
<glyph unicode="&#xd1;" horiz-adv-x="1519" d="M156 27v1421q0 19 14.5 23t83.5 4h12q78 0 97.5 -4.5t33.5 -24.5l453 -645q201 -288 291 -443q-8 266 -8 486v604q0 19 16.5 23t89.5 4h16q72 0 90.5 -4.5t18.5 -22.5v-1421q0 -18 -15 -22.5t-83 -4.5h-15q-71 0 -92 5t-35 24l-452 645q-169 235 -291 432q6 -147 6 -492 v-587q0 -19 -16.5 -23t-89.5 -4h-15q-76 0 -93 4t-17 23zM423 1754q-4 10 7 28q41 54 98.5 88.5t120.5 34.5q45 0 90.5 -19.5t84.5 -39t69 -19.5q54 0 119 65q5 10 18.5 4.5t42.5 -34.5l12 -13q25 -25 29.5 -37.5t-6.5 -25.5q-99 -123 -219 -123q-45 0 -90.5 19.5t-84.5 39 t-69 19.5q-53 0 -119 -66q-8 -10 -19.5 -4.5t-41.5 35.5l-12 12q-26 26 -30 36z" />
<glyph unicode="&#xd2;" horiz-adv-x="1533" d="M84 717q0 361 184.5 569.5t522.5 208.5q318 0 488.5 -190.5t170.5 -546.5q0 -361 -184.5 -569.5t-522.5 -208.5q-317 0 -488 190.5t-171 546.5zM344 725q0 -266 103 -401.5t305 -135.5q210 0 324 146.5t114 415.5q0 265 -102.5 400.5t-303.5 135.5q-214 0 -327 -144.5 t-113 -416.5zM504 1933q-18 22 19 27q14 2 36 2h78q50 0 68 -5t24 -18l193 -305q9 -15 -2 -20.5t-43 -5.5h-58q-61 0 -76 18z" />
<glyph unicode="&#xd3;" horiz-adv-x="1533" d="M84 717q0 361 184.5 569.5t522.5 208.5q318 0 488.5 -190.5t170.5 -546.5q0 -361 -184.5 -569.5t-522.5 -208.5q-317 0 -488 190.5t-171 546.5zM344 725q0 -266 103 -401.5t305 -135.5q210 0 324 146.5t114 415.5q0 265 -102.5 400.5t-303.5 135.5q-214 0 -327 -144.5 t-113 -416.5zM631 1634l192 305q8 13 26.5 18t68.5 5h77q60 0 60 -16q0 -5 -6 -13l-240 -307q-15 -18 -76 -18h-55q-33 0 -44.5 5.5t-2.5 20.5z" />
<glyph unicode="&#xd4;" horiz-adv-x="1533" d="M84 717q0 361 184.5 569.5t522.5 208.5q318 0 488.5 -190.5t170.5 -546.5q0 -361 -184.5 -569.5t-522.5 -208.5q-317 0 -488 190.5t-171 546.5zM344 725q0 -266 103 -401.5t305 -135.5q210 0 324 146.5t114 415.5q0 265 -102.5 400.5t-303.5 135.5q-214 0 -327 -144.5 t-113 -416.5zM466.5 1698.5q-4.5 10.5 6.5 25.5l189 199q18 18 40 24.5t70 6.5h35q48 0 70.5 -6.5t40.5 -24.5l188 -199q11 -15 6.5 -25.5t-27.5 -35.5l-16 -16q-25 -27 -37 -32t-26 5l-218 186l-215 -186q-14 -10 -26 -5t-37 32l-16 16q-23 25 -27.5 35.5z" />
<glyph unicode="&#xd5;" horiz-adv-x="1533" d="M84 717q0 361 184.5 569.5t522.5 208.5q318 0 488.5 -190.5t170.5 -546.5q0 -361 -184.5 -569.5t-522.5 -208.5q-317 0 -488 190.5t-171 546.5zM344 725q0 -266 103 -401.5t305 -135.5q210 0 324 146.5t114 415.5q0 265 -102.5 400.5t-303.5 135.5q-214 0 -327 -144.5 t-113 -416.5zM445.5 1754q-3.5 10 7.5 28q41 54 98.5 88.5t120.5 34.5q45 0 90 -19.5t84 -39t69 -19.5q54 0 119 65q5 10 19 4.5t43 -34.5l12 -13q24 -24 28.5 -37t-6.5 -26q-99 -123 -219 -123q-45 0 -90 19.5t-84 39t-69 19.5q-53 0 -119 -66q-8 -10 -20 -4.5t-42 35.5 l-12 12q-26 26 -29.5 36z" />
<glyph unicode="&#xd6;" horiz-adv-x="1533" d="M84 717q0 361 184.5 569.5t522.5 208.5q318 0 488.5 -190.5t170.5 -546.5q0 -361 -184.5 -569.5t-522.5 -208.5q-317 0 -488 190.5t-171 546.5zM344 725q0 -266 103 -401.5t305 -135.5q210 0 324 146.5t114 415.5q0 265 -102.5 400.5t-303.5 135.5q-214 0 -327 -144.5 t-113 -416.5zM438 1767q0 55 38 93t95 38q58 0 96 -38t38 -93q0 -53 -38 -90t-96 -37q-57 0 -95 37t-38 90zM874 1767q0 55 38 93t94 38q58 0 96.5 -38t38.5 -93q0 -53 -38.5 -90t-96.5 -37q-56 0 -94 37t-38 90z" />
<glyph unicode="&#xd7;" d="M188 428q-8 16 2 25l273 268l-270 268q-12 9 -4.5 26t44.5 54l17 16q40 40 54.5 47.5t23.5 -4.5l270 -270l270 270q8 13 24.5 5.5t55.5 -46.5l17 -16q39 -39 46 -52.5t-5 -25.5l-273 -272l273 -270q12 -9 4.5 -24.5t-45.5 -53.5l-17 -17q-38 -38 -54.5 -46t-23.5 3 l-272 275l-270 -273q-10 -11 -25.5 -2.5t-52.5 45.5l-17 17q-37 37 -45 53z" />
<glyph unicode="&#xd8;" horiz-adv-x="1533" d="M84 717q0 361 184.5 569.5t522.5 208.5q160 0 282 -49l74 125q13 21 28 20.5t58 -24.5l27 -15q44 -24 54 -36.5t1 -28.5l-82 -137q217 -189 217 -592q0 -361 -184.5 -569.5t-522.5 -208.5q-167 0 -294 53l-76 -127q-9 -19 -27.5 -18.5t-58.5 24.5l-25 14q-46 28 -55 38.5 t0 25.5l86 143q-209 191 -209 584zM344 725q0 -236 80 -369l534 897q-73 33 -174 33q-214 0 -327 -144.5t-113 -416.5zM563 227q77 -39 189 -39q210 0 324 146.5t114 415.5q0 246 -88 380z" />
<glyph unicode="&#xd9;" horiz-adv-x="1497" d="M147 551v897q0 19 18 23t95 4h25q75 0 94.5 -4.5t19.5 -22.5v-889q0 -111 23.5 -181t75.5 -116q83 -74 252 -74q171 0 254 74q98 85 98 297v889q0 19 18 23t92 4h21q77 0 97 -4.5t20 -22.5v-897q0 -289 -138 -424q-156 -150 -462 -147q-316 3 -463 147q-140 134 -140 424 zM465 1933q-18 22 19 27q14 2 36 2h78q50 0 68 -5t24 -18l193 -305q9 -15 -2 -20.5t-43 -5.5h-58q-60 0 -75 18z" />
<glyph unicode="&#xda;" horiz-adv-x="1497" d="M147 551v897q0 19 18 23t95 4h25q75 0 94.5 -4.5t19.5 -22.5v-889q0 -111 23.5 -181t75.5 -116q83 -74 252 -74q171 0 254 74q98 85 98 297v889q0 19 18 23t92 4h21q77 0 97 -4.5t20 -22.5v-897q0 -289 -138 -424q-156 -150 -462 -147q-316 3 -463 147q-140 134 -140 424 zM592 1634l192 305q8 13 26.5 18t68.5 5h77q60 0 60 -16q0 -5 -6 -13l-240 -307q-15 -18 -76 -18h-55q-33 0 -44.5 5.5t-2.5 20.5z" />
<glyph unicode="&#xdb;" horiz-adv-x="1497" d="M147 551v897q0 19 18 23t95 4h25q75 0 94.5 -4.5t19.5 -22.5v-889q0 -111 23.5 -181t75.5 -116q83 -74 252 -74q171 0 254 74q98 85 98 297v889q0 19 18 23t92 4h21q77 0 97 -4.5t20 -22.5v-897q0 -289 -138 -424q-156 -150 -462 -147q-316 3 -463 147q-140 134 -140 424 zM427.5 1698.5q-4.5 10.5 6.5 25.5l189 199q18 18 40 24.5t70 6.5h35q48 0 70.5 -6.5t40.5 -24.5l188 -199q11 -15 7 -26t-27 -35l-17 -16q-25 -27 -37 -32t-26 5l-217 186l-215 -186q-14 -10 -26.5 -4.5t-37.5 31.5l-16 16q-23 25 -27.5 35.5z" />
<glyph unicode="&#xdc;" horiz-adv-x="1497" d="M147 551v897q0 19 18 23t95 4h25q75 0 94.5 -4.5t19.5 -22.5v-889q0 -111 23.5 -181t75.5 -116q83 -74 252 -74q171 0 254 74q98 85 98 297v889q0 19 18 23t92 4h21q77 0 97 -4.5t20 -22.5v-897q0 -289 -138 -424q-156 -150 -462 -147q-316 3 -463 147q-140 134 -140 424 zM399 1767q0 55 38.5 93t94.5 38q58 0 96 -38t38 -93q0 -53 -38 -90t-96 -37q-57 0 -95 37t-38 90zM836 1767q0 55 37.5 93t93.5 38q58 0 96.5 -38t38.5 -93q0 -53 -38.5 -90t-96.5 -37q-56 0 -93.5 37t-37.5 90z" />
<glyph unicode="&#xdd;" horiz-adv-x="1273" d="M33 1444q-11 20 24 26q27 5 84 5h37q77 0 99.5 -5t31.5 -24l191 -371q111 -214 149 -299q111 237 144 301l184 367q11 21 29.5 26t91.5 5h51q88 0 92 -16q1 -5 -4 -15l-477 -873v-544q0 -18 -19.5 -22.5t-97.5 -4.5h-25q-75 0 -92.5 4t-17.5 23v544zM496 1634l192 305 q8 13 26 18t68 5h78q60 0 60 -15q-1 -6 -7 -14l-239 -307q-15 -18 -76 -18h-55q-33 0 -44.5 5.5t-2.5 20.5z" />
<glyph unicode="&#xde;" horiz-adv-x="1243" d="M156 27v1421q0 19 17.5 23t94.5 4h23q77 0 97 -4.5t20 -22.5v-264q66 8 147 8q602 0 602 -444q0 -225 -146.5 -345t-420.5 -120q-103 0 -182 10v-266q0 -18 -20 -22.5t-97 -4.5h-23q-77 0 -94.5 4t-17.5 23zM408 492q94 -11 167 -11q163 0 246.5 67t83.5 197 q0 127 -85.5 187.5t-258.5 60.5q-79 0 -153 -6v-495z" />
<glyph unicode="&#xdf;" horiz-adv-x="1357" d="M143 27v1017q0 253 127 390q131 143 375 143q199 0 327 -95.5t128 -250.5q0 -82 -38 -143.5t-110 -124.5q-84 -73 -105 -101q-26 -34 -26 -67q0 -48 45.5 -78t147.5 -68q62 -24 103 -45.5t83.5 -57.5t64 -89t21.5 -123q0 -86 -34 -155t-92.5 -111.5t-133 -65 t-158.5 -22.5q-209 0 -346 108q-20 14 17 82l14 27q25 46 37 56t31 -1q128 -78 245 -78q92 0 141.5 35t49.5 98q0 14 -3.5 26.5t-7.5 22.5t-14 20.5t-17 17t-23 16t-24.5 14t-29.5 13.5t-30 12.5t-34 12.5t-34 13q-57 22 -98.5 45.5t-79 57.5t-57 81.5t-19.5 106.5 q0 46 11.5 84t39 74t49 56.5t64.5 59.5q56 49 84 90.5t28 94.5q0 73 -58.5 117t-158.5 44q-125 0 -192 -79q-74 -89 -74 -273v-1007q0 -10 -7 -15.5t-31.5 -8.5t-72.5 -3h-12q-51 0 -76.5 3.5t-31 8.5t-5.5 15z" />
<glyph unicode="&#xe0;" horiz-adv-x="1173" d="M82 520q0 270 130 426t327 156q88 0 160 -35.5t112 -93.5l8 84q1 10 8 14.5t28.5 7t66.5 2.5h12q62 0 79 -5t17 -21q0 -42 -2 -99q-2 -84 -2 -301v-178q0 -234 14 -446q2 -20 -13.5 -25.5t-82.5 -5.5h-8q-61 0 -80.5 5.5t-24.5 19.5q-10 35 -14 86q-47 -60 -127.5 -95.5 t-169.5 -35.5q-208 0 -323 146.5t-115 393.5zM326 530q0 -350 247 -350q118 0 175 70q25 31 34 69t9 109v348q-78 119 -211 119q-123 0 -188.5 -95.5t-65.5 -269.5zM328 1540q-15 22 15 27q14 2 40 2h78q49 0 66.5 -5t25.5 -18l192 -305q9 -15 -2 -21t-43 -6h-57 q-60 0 -76 19z" />
<glyph unicode="&#xe1;" horiz-adv-x="1173" d="M82 520q0 270 130 426t327 156q88 0 160 -35.5t112 -93.5l8 84q1 10 8 14.5t28.5 7t66.5 2.5h12q62 0 79 -5t17 -21q0 -42 -2 -99q-2 -84 -2 -301v-178q0 -234 14 -446q2 -20 -13.5 -25.5t-82.5 -5.5h-8q-61 0 -80.5 5.5t-24.5 19.5q-10 35 -14 86q-47 -60 -127.5 -95.5 t-169.5 -35.5q-208 0 -323 146.5t-115 393.5zM326 530q0 -350 247 -350q118 0 175 70q25 31 34 69t9 109v348q-78 119 -211 119q-123 0 -188.5 -95.5t-65.5 -269.5zM397 1228.5q0 5.5 4 12.5l193 305q9 14 26 18.5t68 4.5h78q58 0 59 -15q0 -6 -6 -14l-239 -307 q-16 -19 -76 -19h-55q-17 0 -28 1.5t-17.5 4.5t-6.5 8.5z" />
<glyph unicode="&#xe2;" horiz-adv-x="1173" d="M82 520q0 270 130 426t327 156q88 0 160 -35.5t112 -93.5l8 84q1 10 8 14.5t28.5 7t66.5 2.5h12q62 0 79 -5t17 -21q0 -42 -2 -99q-2 -84 -2 -301v-178q0 -234 14 -446q2 -20 -13.5 -25.5t-82.5 -5.5h-8q-61 0 -80.5 5.5t-24.5 19.5q-10 35 -14 86q-47 -60 -127.5 -95.5 t-169.5 -35.5q-208 0 -323 146.5t-115 393.5zM247 1305q-4 11 7 26l188 199q17 19 39 25t72 6h35q49 0 71 -6t39 -25l189 -199q11 -15 6.5 -25.5t-27.5 -35.5l-16 -17q-25 -26 -38 -31.5t-26 5.5l-217 186l-215 -186q-14 -10 -26 -5t-37 31l-17 17q-23 24 -27 35zM326 530 q0 -350 247 -350q118 0 175 70q25 31 34 69t9 109v348q-78 119 -211 119q-123 0 -188.5 -95.5t-65.5 -269.5z" />
<glyph unicode="&#xe3;" horiz-adv-x="1173" d="M82 520q0 270 130 426t327 156q88 0 160 -35.5t112 -93.5l8 84q1 10 8 14.5t28.5 7t66.5 2.5h12q62 0 79 -5t17 -21q0 -42 -2 -99q-2 -84 -2 -301v-178q0 -234 14 -446q2 -20 -13.5 -25.5t-82.5 -5.5h-8q-61 0 -80.5 5.5t-24.5 19.5q-10 35 -14 86q-47 -60 -127.5 -95.5 t-169.5 -35.5q-208 0 -323 146.5t-115 393.5zM226 1361q-4 10 7 28q40 54 98.5 88t121.5 34q45 0 90 -19.5t84 -38.5t69 -19q54 0 119 65q5 10 19 4t43 -35l12 -12q24 -24 28.5 -37t-6.5 -26q-99 -123 -219 -123q-45 0 -90 19.5t-84 39t-69 19.5q-53 0 -119 -66 q-8 -10 -20 -4.5t-42 35.5l-12 12q-26 26 -30 36zM326 530q0 -350 247 -350q118 0 175 70q25 31 34 69t9 109v348q-78 119 -211 119q-123 0 -188.5 -95.5t-65.5 -269.5z" />
<glyph unicode="&#xe4;" horiz-adv-x="1173" d="M82 520q0 270 130 426t327 156q88 0 160 -35.5t112 -93.5l8 84q1 10 8 14.5t28.5 7t66.5 2.5h12q62 0 79 -5t17 -21q0 -42 -2 -99q-2 -84 -2 -301v-178q0 -234 14 -446q2 -20 -13.5 -25.5t-82.5 -5.5h-8q-61 0 -80.5 5.5t-24.5 19.5q-10 35 -14 86q-47 -60 -127.5 -95.5 t-169.5 -35.5q-208 0 -323 146.5t-115 393.5zM219 1374q0 54 38.5 92.5t94.5 38.5q58 0 95.5 -38t37.5 -93q0 -53 -37.5 -90t-95.5 -37q-57 0 -95 37t-38 90zM326 530q0 -350 247 -350q118 0 175 70q25 31 34 69t9 109v348q-78 119 -211 119q-123 0 -188.5 -95.5 t-65.5 -269.5zM655 1374q0 55 37.5 93t93.5 38q58 0 97 -38t39 -93q0 -53 -39 -90t-97 -37q-56 0 -93.5 37t-37.5 90z" />
<glyph unicode="&#xe5;" horiz-adv-x="1173" d="M82 520q0 270 130 426t327 156q88 0 160 -35.5t112 -93.5l8 84q1 10 8 14.5t28.5 7t66.5 2.5h12q62 0 79 -5t17 -21q0 -42 -2 -99q-2 -84 -2 -301v-178q0 -234 14 -446q2 -20 -13.5 -25.5t-82.5 -5.5h-8q-61 0 -80.5 5.5t-24.5 19.5q-10 35 -14 86q-47 -60 -127.5 -95.5 t-169.5 -35.5q-208 0 -323 146.5t-115 393.5zM326 530q0 -350 247 -350q118 0 175 70q25 31 34 69t9 109v348q-78 119 -211 119q-123 0 -188.5 -95.5t-65.5 -269.5zM350 1415q0 89 65 150t156 61q92 0 156 -60.5t64 -150.5t-64.5 -151.5t-155.5 -61.5t-156 62t-65 151z M481 1415q0 -39 26 -63.5t62 -24.5q38 0 62 25.5t24 62.5q0 36 -24.5 62t-61.5 26q-36 0 -62 -25t-26 -63z" />
<glyph unicode="&#xe6;" horiz-adv-x="1773" d="M76 326q0 169 117 258.5t317 89.5q119 0 225 -39v61q2 108 -53 159.5t-172 51.5q-131 0 -281 -63q-18 -7 -29 3.5t-30 53.5l-10 23q-17 37 -18 55.5t12 24.5q78 45 183.5 71.5t199.5 26.5q126 0 216 -38t134 -110q125 148 338 148q248 0 370 -197q88 -148 88 -354 q0 -52 -5 -71t-17 -19h-680q12 -141 90 -209q74 -68 203 -68q144 0 285 64q18 8 28 -1.5t25 -49.5l14 -41q17 -43 16.5 -59t-18.5 -25q-171 -92 -383 -92q-124 0 -223.5 42.5t-161.5 120.5q-72 -76 -174.5 -119.5t-226.5 -43.5q-172 0 -277 96q-102 95 -102 250zM315 334 q0 -77 54 -117.5t135 -40.5q80 0 150.5 32t115.5 87q-27 77 -33 166q-97 39 -200 39q-102 0 -162 -41t-60 -125zM983 633h465q-8 117 -64.5 192.5t-156.5 75.5q-101 0 -164 -70t-80 -198z" />
<glyph unicode="&#xe7;" horiz-adv-x="1011" d="M82 530q0 264 140.5 418t383.5 154q201 0 338 -113q19 -15 17 -31t-27 -57l-19 -33q-26 -45 -41 -52.5t-32 7.5q-109 72 -226 72q-129 0 -209.5 -89.5t-80.5 -262.5q0 -166 72 -261.5t218 -95.5q114 0 240 60q22 9 32.5 -1t29.5 -59l10 -26q18 -47 17 -62t-17 -26 q-128 -86 -318 -92l-8 -78q14 2 35 2q81 0 134.5 -49t53.5 -131q0 -88 -64 -148.5t-186 -60.5q-88 0 -155 26q-15 6 -16.5 17t8.5 45l6 20q9 31 16 38.5t23 4.5q62 -12 100 -12q94 0 94 70q0 67 -102 67q-55 0 -119 -12l29 213q-183 38 -280 180.5t-97 357.5z" />
<glyph unicode="&#xe8;" horiz-adv-x="1130" d="M82 524q0 256 135.5 417t362.5 161q134 0 232 -57.5t155 -161.5q73 -137 73 -332q0 -54 -6 -72t-24 -18h-680q12 -134 88.5 -205.5t212.5 -71.5q143 0 287 64q17 9 26.5 0.5t26.5 -51.5l14 -39q17 -50 16 -63t-18 -23q-171 -92 -385 -92q-238 0 -377 144.5t-139 399.5z M330 633h475q-8 116 -65 192t-158 76t-166.5 -68t-85.5 -200zM336 1540q-15 22 15 27q14 2 40 2h78q49 0 66.5 -5t25.5 -18l193 -305q9 -15 -2 -21t-43 -6h-58q-60 0 -76 19z" />
<glyph unicode="&#xe9;" horiz-adv-x="1130" d="M82 524q0 256 135.5 417t362.5 161q134 0 232 -57.5t155 -161.5q73 -137 73 -332q0 -54 -6 -72t-24 -18h-680q12 -134 88.5 -205.5t212.5 -71.5q143 0 287 64q17 9 26.5 0.5t26.5 -51.5l14 -39q17 -50 16 -63t-18 -23q-171 -92 -385 -92q-238 0 -377 144.5t-139 399.5z M330 633h475q-8 116 -65 192t-158 76t-166.5 -68t-85.5 -200zM406 1228.5q0 5.5 4 12.5l192 305q9 14 26 18.5t68 4.5h78q58 0 59 -15q0 -6 -6 -14l-239 -307q-16 -19 -76 -19h-55q-17 0 -28 1.5t-17 4.5t-6 8.5z" />
<glyph unicode="&#xea;" horiz-adv-x="1130" d="M82 524q0 256 135.5 417t362.5 161q134 0 232 -57.5t155 -161.5q73 -137 73 -332q0 -54 -6 -72t-24 -18h-680q12 -134 88.5 -205.5t212.5 -71.5q143 0 287 64q17 9 26.5 0.5t26.5 -51.5l14 -39q17 -50 16 -63t-18 -23q-171 -92 -385 -92q-238 0 -377 144.5t-139 399.5z M255.5 1305.5q-4.5 10.5 6.5 25.5l189 199q17 19 39 25t71 6h35q50 0 72 -6t39 -25l188 -199q11 -15 6.5 -25.5t-27.5 -35.5l-16 -17q-25 -26 -37 -31t-26 5l-217 186l-216 -186q-14 -10 -26 -5t-37 31l-16 17q-23 25 -27.5 35.5zM330 633h475q-8 116 -65 192t-158 76 t-166.5 -68t-85.5 -200z" />
<glyph unicode="&#xeb;" horiz-adv-x="1130" d="M82 524q0 256 135.5 417t362.5 161q134 0 232 -57.5t155 -161.5q73 -137 73 -332q0 -54 -6 -72t-24 -18h-680q12 -134 88.5 -205.5t212.5 -71.5q143 0 287 64q17 9 26.5 0.5t26.5 -51.5l14 -39q17 -50 16 -63t-18 -23q-171 -92 -385 -92q-238 0 -377 144.5t-139 399.5z M227 1374q0 54 38.5 92.5t94.5 38.5q58 0 96 -38t38 -93q0 -53 -38 -90t-96 -37q-57 0 -95 37t-38 90zM330 633h475q-8 116 -65 192t-158 76t-166.5 -68t-85.5 -200zM664 1374q0 55 37.5 93t93.5 38q58 0 96.5 -38t38.5 -93q0 -53 -38.5 -90t-96.5 -37q-56 0 -93.5 37 t-37.5 90z" />
<glyph unicode="&#xec;" horiz-adv-x="532" d="M23 1540q-15 22 15 27q14 2 40 2h78q49 0 66.5 -5t25.5 -18l192 -305q9 -15 -2 -21t-43 -6h-57q-60 0 -76 19zM147 27v1028q0 11 6.5 16t30.5 7.5t76 2.5h12q71 0 91 -5t20 -21v-1028q0 -10 -7 -15.5t-31.5 -8.5t-72.5 -3h-12q-51 0 -76.5 3.5t-31 8.5t-5.5 15z" />
<glyph unicode="&#xed;" horiz-adv-x="532" d="M92 1228.5q0 5.5 4 12.5l193 305q9 14 26 18.5t68 4.5h78q58 0 59 -15q0 -6 -6 -14l-240 -307q-16 -19 -75 -19h-56q-17 0 -28 1.5t-17 4.5t-6 8.5zM147 27v1028q0 11 6.5 16t30.5 7.5t76 2.5h12q71 0 91 -5t20 -21v-1028q0 -10 -7 -15.5t-31.5 -8.5t-72.5 -3h-12 q-51 0 -76.5 3.5t-31 8.5t-5.5 15z" />
<glyph unicode="&#xee;" horiz-adv-x="532" d="M-58 1305q-4 11 7 26l188 199q17 19 39 25t72 6h35q49 0 71 -6t39 -25l189 -199q11 -15 6.5 -25.5t-27.5 -35.5l-16 -17q-25 -26 -38 -31.5t-26 5.5l-217 186l-215 -186q-14 -10 -26 -5t-37 31l-17 17q-23 24 -27 35zM147 27v1028q0 11 6.5 16t30.5 7.5t76 2.5h12 q71 0 91 -5t20 -21v-1028q0 -10 -7 -15.5t-31.5 -8.5t-72.5 -3h-12q-51 0 -76.5 3.5t-31 8.5t-5.5 15z" />
<glyph unicode="&#xef;" horiz-adv-x="532" d="M-86 1374q0 54 38 92.5t95 38.5q58 0 95.5 -38t37.5 -93q0 -53 -37.5 -90t-95.5 -37q-57 0 -95 37t-38 90zM147 27v1028q0 11 6.5 16t30.5 7.5t76 2.5h12q71 0 91 -5t20 -21v-1028q0 -10 -7 -15.5t-31.5 -8.5t-72.5 -3h-12q-51 0 -76.5 3.5t-31 8.5t-5.5 15zM350 1374 q0 55 37.5 93t93.5 38q58 0 96.5 -38t38.5 -93q0 -53 -38.5 -90t-96.5 -37q-56 0 -93.5 37t-37.5 90z" />
<glyph unicode="&#xf0;" horiz-adv-x="1185" d="M82 512q0 120 37.5 220.5t101.5 167t148.5 103.5t179.5 37q129 0 223 -59q-59 128 -160 221l-233 -80q-12 -3 -19.5 5.5t-17.5 39.5l-8 27q-9 29 -8.5 40t10.5 15l170 62q-81 61 -166 106q-30 17 16 82l23 33q22 31 35 38.5t32 0.5q159 -74 291 -191l246 82q11 3 18 -4 t17 -37l10 -30q15 -50 -2 -56l-186 -63q247 -272 247 -651q0 -305 -137.5 -473t-386.5 -168q-219 0 -350 144t-131 388zM326 508q0 -158 67 -244t185 -86q139 0 201.5 110.5t62.5 346.5q0 62 -15 135q-112 80 -229 80q-130 0 -201 -90.5t-71 -251.5z" />
<glyph unicode="&#xf1;" horiz-adv-x="1202" d="M135 1051q-2 19 16 24.5t87 5.5h10q63 0 83 -4.5t23 -19.5q9 -61 11 -96q115 141 317 141q189 0 287 -109q51 -57 74.5 -137t23.5 -199v-628q0 -11 -7 -16.5t-31.5 -9t-72.5 -3.5h-12q-52 0 -76.5 3.5t-30.5 9t-6 16.5v546q0 119 -9.5 171t-39.5 85q-54 58 -161 58 q-108 0 -177 -53q-53 -42 -59 -121q-4 -51 -4 -232v-454q0 -11 -7 -16.5t-31.5 -9t-72.5 -3.5h-10q-53 0 -78.5 3.5t-31 8.5t-5.5 17v626q0 223 -10 396zM302 1361q-4 10 7 28q41 54 98.5 88t120.5 34q57 0 134 -38.5t110 -38.5q54 0 119 65q6 9 19 3.5t42 -34.5l13 -12 q24 -24 28.5 -37t-6.5 -26q-99 -123 -219 -123q-45 0 -90.5 19.5t-84.5 39t-69 19.5q-52 0 -118 -66q-8 -10 -20 -4.5t-42 35.5l-12 12q-26 26 -30 36z" />
<glyph unicode="&#xf2;" horiz-adv-x="1165" d="M82 518q0 282 135 433t385 151q230 0 355.5 -141t125.5 -398q0 -282 -135 -432.5t-383 -150.5q-231 0 -357 141t-126 397zM326 532q0 -162 58.5 -255t184.5 -93q129 0 200 93t71 272q0 162 -59.5 255t-186.5 93q-129 0 -198.5 -93.5t-69.5 -271.5zM340 1540q-15 22 15 27 q14 2 40 2h78q49 0 66.5 -5t25.5 -18l193 -305q9 -15 -2 -21t-43 -6h-58q-59 0 -75 19z" />
<glyph unicode="&#xf3;" horiz-adv-x="1165" d="M82 518q0 282 135 433t385 151q230 0 355.5 -141t125.5 -398q0 -282 -135 -432.5t-383 -150.5q-231 0 -357 141t-126 397zM326 532q0 -162 58.5 -255t184.5 -93q129 0 200 93t71 272q0 162 -59.5 255t-186.5 93q-129 0 -198.5 -93.5t-69.5 -271.5zM410 1228.5 q0 5.5 4 12.5l192 305q9 14 26 18.5t68 4.5h78q58 0 59 -15q0 -6 -6 -14l-239 -307q-16 -19 -76 -19h-55q-17 0 -28 1.5t-17 4.5t-6 8.5z" />
<glyph unicode="&#xf4;" horiz-adv-x="1165" d="M82 518q0 282 135 433t385 151q230 0 355.5 -141t125.5 -398q0 -282 -135 -432.5t-383 -150.5q-231 0 -357 141t-126 397zM259.5 1305.5q-4.5 10.5 6.5 25.5l189 199q17 19 39 25t71 6h35q50 0 72 -6t39 -25l188 -199q11 -15 7 -26t-27 -35l-17 -17q-25 -26 -37 -31 t-26 5l-217 186l-215 -186q-13 -11 -26 -5.5t-38 31.5l-16 17q-23 25 -27.5 35.5zM326 532q0 -162 58.5 -255t184.5 -93q129 0 200 93t71 272q0 162 -59.5 255t-186.5 93q-129 0 -198.5 -93.5t-69.5 -271.5z" />
<glyph unicode="&#xf5;" horiz-adv-x="1165" d="M82 518q0 282 135 433t385 151q230 0 355.5 -141t125.5 -398q0 -282 -135 -432.5t-383 -150.5q-231 0 -357 141t-126 397zM238.5 1361q-3.5 10 7.5 28q41 54 98.5 88t120.5 34q57 0 134 -38.5t110 -38.5q53 0 118 65q5 10 19 4t43 -35l12 -12q25 -25 29.5 -37.5 t-6.5 -25.5q-99 -123 -219 -123q-45 0 -90.5 19.5t-84.5 39t-69 19.5q-53 0 -119 -66q-8 -10 -19.5 -4.5t-41.5 35.5l-13 12q-26 26 -29.5 36zM326 532q0 -162 58.5 -255t184.5 -93q129 0 200 93t71 272q0 162 -59.5 255t-186.5 93q-129 0 -198.5 -93.5t-69.5 -271.5z" />
<glyph unicode="&#xf6;" horiz-adv-x="1165" d="M82 518q0 282 135 433t385 151q230 0 355.5 -141t125.5 -398q0 -282 -135 -432.5t-383 -150.5q-231 0 -357 141t-126 397zM231 1374q0 54 38.5 92.5t95.5 38.5q58 0 95.5 -38t37.5 -93q0 -53 -37.5 -90t-95.5 -37q-57 0 -95.5 37t-38.5 90zM326 532q0 -162 58.5 -255 t184.5 -93q129 0 200 93t71 272q0 162 -59.5 255t-186.5 93q-129 0 -198.5 -93.5t-69.5 -271.5zM668 1374q0 55 37.5 93t93.5 38q58 0 96.5 -38t38.5 -93q0 -53 -38.5 -90t-96.5 -37q-56 0 -93.5 37t-37.5 90z" />
<glyph unicode="&#xf7;" d="M94 711v22q0 53 5.5 69.5t19.5 16.5h960q14 0 19.5 -16.5t5.5 -69.5v-22q0 -52 -5.5 -68t-19.5 -16h-960q-14 0 -19.5 16t-5.5 68zM451 283q0 63 42.5 106t108.5 43t109 -43t43 -106q0 -62 -43.5 -105t-108.5 -43t-108 43t-43 105zM451 1161q0 64 43 108t108 44 t108.5 -44t43.5 -108q0 -62 -43.5 -104.5t-108.5 -42.5t-108 42.5t-43 104.5z" />
<glyph unicode="&#xf8;" horiz-adv-x="1165" d="M82 518q0 282 135 433t385 151q105 0 193 -31l67 115q13 20 27.5 19t60.5 -25l23 -13q45 -22 55.5 -35.5t-0.5 -29.5l-78 -133q133 -142 133 -406q0 -282 -135 -432.5t-383 -150.5q-96 0 -182 26l-66 -110q-10 -19 -25.5 -17.5t-62.5 25.5l-22 10q-44 23 -54 36t1 30 l71 122q-143 140 -143 416zM326 532q0 -125 32 -204l326 555q-47 14 -90 14q-129 0 -198.5 -93.5t-69.5 -271.5zM494 195q42 -11 75 -11q129 0 200 93t71 272q0 109 -27 188z" />
<glyph unicode="&#xf9;" horiz-adv-x="1196" d="M135 424v629q0 16 20.5 22t90.5 6h12q52 0 76.5 -3t30.5 -8.5t6 -16.5v-547q0 -119 9.5 -171t39.5 -85q54 -57 158 -57q110 0 176 53q51 40 57 121q4 51 4 231v455q0 16 20.5 22t90.5 6h10q53 0 78 -3t31 -8.5t6 -16.5v-627q0 -222 10 -395q2 -19 -16 -25t-87 -6h-10 q-62 0 -82.5 5t-23.5 20q-9 61 -11 96q-115 -141 -313 -141q-188 0 -285 108q-51 57 -74.5 137t-23.5 199zM356 1540q-16 22 18 27q14 2 38 2h77q50 0 67.5 -5t25.5 -18l192 -305q14 -23 -26 -26q-8 -1 -19 -1h-57q-60 0 -76 19z" />
<glyph unicode="&#xfa;" horiz-adv-x="1196" d="M135 424v629q0 16 20.5 22t90.5 6h12q52 0 76.5 -3t30.5 -8.5t6 -16.5v-547q0 -119 9.5 -171t39.5 -85q54 -57 158 -57q110 0 176 53q51 40 57 121q4 51 4 231v455q0 16 20.5 22t90.5 6h10q53 0 78 -3t31 -8.5t6 -16.5v-627q0 -222 10 -395q2 -19 -16 -25t-87 -6h-10 q-62 0 -82.5 5t-23.5 20q-9 61 -11 96q-115 -141 -313 -141q-188 0 -285 108q-51 57 -74.5 137t-23.5 199zM426 1228.5q0 5.5 4 12.5l193 305q9 14 26 18.5t68 4.5h78q58 0 59 -15q0 -6 -6 -14l-240 -307q-16 -19 -76 -19h-55q-17 0 -28 1.5t-17 4.5t-6 8.5z" />
<glyph unicode="&#xfb;" horiz-adv-x="1196" d="M135 424v629q0 16 20.5 22t90.5 6h12q52 0 76.5 -3t30.5 -8.5t6 -16.5v-547q0 -119 9.5 -171t39.5 -85q54 -57 158 -57q110 0 176 53q51 40 57 121q4 51 4 231v455q0 16 20.5 22t90.5 6h10q53 0 78 -3t31 -8.5t6 -16.5v-627q0 -222 10 -395q2 -19 -16 -25t-87 -6h-10 q-62 0 -82.5 5t-23.5 20q-9 61 -11 96q-115 -141 -313 -141q-188 0 -285 108q-51 57 -74.5 137t-23.5 199zM276 1305q-4 11 7 26l188 199q17 19 39 25t72 6h34q50 0 72 -6t39 -25l188 -199q11 -15 7 -26t-27 -35l-16 -17q-25 -26 -38 -31.5t-26 5.5l-217 186l-215 -186 q-13 -11 -26 -5.5t-38 31.5l-16 17q-23 24 -27 35z" />
<glyph unicode="&#xfc;" horiz-adv-x="1196" d="M135 424v629q0 16 20.5 22t90.5 6h12q52 0 76.5 -3t30.5 -8.5t6 -16.5v-547q0 -119 9.5 -171t39.5 -85q54 -57 158 -57q110 0 176 53q51 40 57 121q4 51 4 231v455q0 16 20.5 22t90.5 6h10q53 0 78 -3t31 -8.5t6 -16.5v-627q0 -222 10 -395q2 -19 -16 -25t-87 -6h-10 q-62 0 -82.5 5t-23.5 20q-9 61 -11 96q-115 -141 -313 -141q-188 0 -285 108q-51 57 -74.5 137t-23.5 199zM248 1374q0 54 38 92.5t95 38.5q58 0 95.5 -38t37.5 -93q0 -53 -37.5 -90t-95.5 -37q-57 0 -95 37t-38 90zM684 1374q0 55 37.5 93t93.5 38q58 0 96.5 -38t38.5 -93 q0 -53 -38.5 -90t-96.5 -37q-56 0 -93.5 37t-37.5 90z" />
<glyph unicode="&#xfd;" horiz-adv-x="1075" d="M-41.5 -418q-1.5 16 10.5 62l6 22q13 51 24 63.5t34 4.5q69 -21 121 -21q99 0 162.5 60t119.5 215l-383 1054q-4 14 0.5 21.5t30 12.5t76.5 5h24q71 0 92 -5t27 -21l148 -439q66 -200 108 -385q49 196 105 377l139 447q6 16 25 21t83 5h23q37 0 58.5 -1.5t33.5 -5t13 -10 t-1 -15.5l-362 -1049q-45 -128 -90.5 -214.5t-105.5 -149t-135.5 -91t-174.5 -28.5q-57 0 -113 11t-80 28q-17 10 -18.5 26zM389 1228.5q0 5.5 4 12.5l193 305q9 14 26 18.5t68 4.5h78q58 0 59 -15q0 -6 -6 -14l-240 -307q-16 -19 -75 -19h-56q-17 0 -28 1.5t-17 4.5t-6 8.5 z" />
<glyph unicode="&#xfe;" horiz-adv-x="1173" d="M143 -436v1964q0 11 6 16.5t31 8.5t78 3h10q70 0 90.5 -6t20.5 -22v-541q112 115 285 115q196 0 312 -145t116 -398q0 -261 -125.5 -420t-335.5 -159q-73 0 -140 23.5t-112 62.5v-502q0 -16 -21.5 -21.5t-89.5 -5.5h-12q-52 0 -76.5 3t-30.5 8t-6 16zM379 270 q85 -88 211 -88t192 98t66 277q0 340 -250 340q-57 0 -104.5 -18.5t-73.5 -47.5q-23 -26 -32 -64.5t-9 -117.5v-379z" />
<glyph unicode="&#xff;" horiz-adv-x="1075" d="M-41.5 -418q-1.5 16 10.5 62l6 22q13 51 24 63.5t34 4.5q69 -21 121 -21q99 0 162.5 60t119.5 215l-383 1054q-4 14 0.5 21.5t30 12.5t76.5 5h24q71 0 92 -5t27 -21l148 -439q66 -200 108 -385q49 196 105 377l139 447q6 16 25 21t83 5h23q37 0 58.5 -1.5t33.5 -5t13 -10 t-1 -15.5l-362 -1049q-45 -128 -90.5 -214.5t-105.5 -149t-135.5 -91t-174.5 -28.5q-57 0 -113 11t-80 28q-17 10 -18.5 26zM211 1374q0 54 38.5 92.5t94.5 38.5q58 0 95.5 -38t37.5 -93q0 -53 -37.5 -90t-95.5 -37q-57 0 -95 37t-38 90zM647 1374q0 55 37.5 93t93.5 38 q58 0 96.5 -38t38.5 -93q0 -53 -38.5 -90t-96.5 -37q-56 0 -93.5 37t-37.5 90z" />
<glyph unicode="&#x152;" horiz-adv-x="2101" d="M84 713q0 236 79 411t238 273t381 98q67 0 195 -10t223 -10h752q19 0 23.5 -14.5t4.5 -78.5v-14q0 -60 -5 -77t-23 -17h-652v-428h553q19 0 24 -14.5t5 -77.5v-13q0 -61 -5.5 -78.5t-23.5 -17.5h-553v-444h660q19 0 24 -14.5t5 -77.5v-15q0 -60 -5 -77t-24 -17h-735 q-58 0 -232.5 -10t-247.5 -10q-325 0 -493 193.5t-168 539.5zM340 723q0 -260 104.5 -398.5t319.5 -138.5q80 0 285 13v1073q-1 0 -98.5 8t-153.5 8q-229 0 -343 -152.5t-114 -412.5z" />
<glyph unicode="&#x153;" horiz-adv-x="1888" d="M82 518q0 282 135 433t385 151q245 0 373 -162q137 162 362 162q134 0 232 -57.5t155 -161.5q74 -139 74 -332q0 -54 -6.5 -72t-24.5 -18h-680q12 -134 88.5 -205.5t213.5 -71.5q142 0 286 64q17 9 27 0t27 -51l14 -39q17 -50 16 -63t-18 -23q-171 -92 -385 -92 q-259 0 -395 165q-133 -165 -396 -165q-231 0 -357 141t-126 397zM326 532q0 -162 58.5 -255t184.5 -93q129 0 200 93t71 272q0 162 -59.5 255t-186.5 93q-129 0 -198.5 -93.5t-69.5 -271.5zM1087 633h476q-8 116 -65.5 192t-158.5 76t-166.5 -68t-85.5 -200z" />
<glyph unicode="&#x178;" horiz-adv-x="1273" d="M33 1444q-11 20 24 26q27 5 84 5h37q77 0 99.5 -5t31.5 -24l191 -371q111 -214 149 -299q111 237 144 301l184 367q11 21 29.5 26t91.5 5h51q88 0 92 -16q1 -5 -4 -15l-477 -873v-544q0 -18 -19.5 -22.5t-97.5 -4.5h-25q-75 0 -92.5 4t-17.5 23v544zM303 1767 q0 55 38.5 93t94.5 38q58 0 95.5 -38t37.5 -93q0 -53 -37.5 -90t-95.5 -37q-57 0 -95 37t-38 90zM739 1767q0 55 37.5 93t93.5 38q58 0 97 -38t39 -93q0 -53 -39 -90t-97 -37q-56 0 -93.5 37t-37.5 90z" />
<glyph unicode="&#x2c6;" horiz-adv-x="718" d="M36 1305q-4 11 7 26l188 199q17 19 39 25t72 6h35q49 0 71 -6t39 -25l189 -199q11 -15 6.5 -25.5t-27.5 -35.5l-16 -17q-25 -26 -38 -31.5t-26 5.5l-217 186l-215 -186q-14 -10 -26 -5t-37 31l-17 17q-23 24 -27 35z" />
<glyph unicode="&#x2dc;" horiz-adv-x="718" d="M15.5 1361q-3.5 10 7.5 28q41 54 98.5 88t120.5 34q45 0 90 -19.5t84 -38.5t69 -19q54 0 119 65q5 10 19 4t43 -35l12 -12q24 -24 28.5 -37t-6.5 -26q-99 -123 -219 -123q-45 0 -90 19.5t-84 39t-69 19.5q-53 0 -119 -66q-8 -10 -20 -4.5t-42 35.5l-12 12 q-26 26 -29.5 36z" />
<glyph unicode="&#x2000;" horiz-adv-x="981" />
<glyph unicode="&#x2001;" horiz-adv-x="1962" />
<glyph unicode="&#x2002;" horiz-adv-x="981" />
<glyph unicode="&#x2003;" horiz-adv-x="1962" />
<glyph unicode="&#x2004;" horiz-adv-x="654" />
<glyph unicode="&#x2005;" horiz-adv-x="490" />
<glyph unicode="&#x2006;" horiz-adv-x="327" />
<glyph unicode="&#x2007;" horiz-adv-x="327" />
<glyph unicode="&#x2008;" horiz-adv-x="245" />
<glyph unicode="&#x2009;" horiz-adv-x="392" />
<glyph unicode="&#x200a;" horiz-adv-x="109" />
<glyph unicode="&#x2010;" horiz-adv-x="796" d="M82 590v22q0 53 5 68.5t19 15.5h582q15 0 21 -16t6 -68v-22q0 -52 -6 -69t-21 -17h-582q-14 0 -19 16t-5 70z" />
<glyph unicode="&#x2011;" horiz-adv-x="796" d="M82 590v22q0 53 5 68.5t19 15.5h582q15 0 21 -16t6 -68v-22q0 -52 -6 -69t-21 -17h-582q-14 0 -19 16t-5 70z" />
<glyph unicode="&#x2012;" horiz-adv-x="796" d="M82 590v22q0 53 5 68.5t19 15.5h582q15 0 21 -16t6 -68v-22q0 -52 -6 -69t-21 -17h-582q-14 0 -19 16t-5 70z" />
<glyph unicode="&#x2013;" horiz-adv-x="1024" d="M27 578v10q0 53 5 68.5t19 15.5h920q14 0 19 -15.5t5 -68.5v-10q0 -54 -5 -70t-19 -16h-920q-14 0 -19 16t-5 70z" />
<glyph unicode="&#x2014;" horiz-adv-x="2048" d="M27 578v10q0 53 5 68.5t19 15.5h1944q14 0 19 -15.5t5 -68.5v-10q0 -54 -5 -70t-19 -16h-1944q-14 0 -19 16t-5 70z" />
<glyph unicode="&#x2018;" horiz-adv-x="534" d="M94 1016q0 123 65 245.5t181 223.5q22 22 51 -4l29 -27q15 -14 16.5 -23t-10.5 -24q-117 -139 -117 -242q0 -32 14.5 -58.5t31.5 -41.5t31.5 -41.5t14.5 -58.5q0 -54 -40.5 -94t-100.5 -40q-73 0 -119.5 51.5t-46.5 133.5z" />
<glyph unicode="&#x2019;" horiz-adv-x="534" d="M98.5 895.5q-1.5 9.5 10.5 24.5q116 138 116 241q0 32 -14.5 58.5t-31.5 42t-31.5 42t-14.5 58.5q0 54 40.5 93.5t100.5 39.5q74 0 120 -51t46 -133q0 -123 -65 -245.5t-180 -223.5q-23 -23 -52 4l-28 26q-15 14 -16.5 23.5z" />
<glyph unicode="&#x201a;" horiz-adv-x="534" d="M96 -405q-1 11 10 22q61 68 89 131.5t28 110.5q0 32 -14.5 58.5t-31.5 42t-31.5 42t-14.5 59.5q0 54 40.5 94t100.5 40q73 0 119.5 -52.5t46.5 -132.5q0 -123 -64.5 -245.5t-180.5 -225.5q-22 -20 -52 6l-28 25q-16 14 -17 25z" />
<glyph unicode="&#x201c;" horiz-adv-x="968" d="M94 1014q0 123 65 245.5t181 223.5q22 22 51 -4l29 -27q15 -14 16.5 -23t-10.5 -24q-117 -139 -117 -242q0 -32 14.5 -58.5t31.5 -41.5t31.5 -41.5t14.5 -58.5q0 -54 -40.5 -94t-100.5 -40q-73 0 -119.5 51.5t-46.5 133.5zM528 1014q0 123 65 245.5t181 223.5 q22 22 51 -4l29 -27q15 -14 16.5 -23t-10.5 -24q-117 -139 -117 -242q0 -32 14.5 -58.5t32 -41.5t32 -41.5t14.5 -58.5q0 -54 -41 -94t-101 -40q-73 0 -119.5 51.5t-46.5 133.5z" />
<glyph unicode="&#x201d;" horiz-adv-x="968" d="M98.5 895.5q-1.5 9.5 10.5 24.5q116 138 116 241q0 32 -14.5 58.5t-31.5 42t-31.5 42t-14.5 58.5q0 54 40.5 93.5t100.5 39.5q74 0 120 -51t46 -133q0 -123 -65 -245.5t-180 -223.5q-23 -23 -52 4l-28 26q-15 14 -16.5 23.5zM532.5 895.5q-1.5 9.5 10.5 24.5 q116 138 116 241q0 32 -14.5 58.5t-31.5 42t-31.5 42t-14.5 58.5q0 54 41 93.5t101 39.5q73 0 119 -51t46 -133q0 -123 -65 -245.5t-180 -223.5q-22 -22 -51 4l-29 26q-15 14 -16.5 23.5z" />
<glyph unicode="&#x201e;" horiz-adv-x="968" d="M96 -405q-1 11 10 22q61 68 89 131.5t28 110.5q0 32 -14.5 58.5t-31.5 42t-31.5 42t-14.5 59.5q0 54 40.5 94t100.5 40q73 0 119.5 -52.5t46.5 -132.5q0 -123 -64.5 -245.5t-180.5 -225.5q-22 -20 -52 6l-28 25q-16 14 -17 25zM530.5 -405q-0.5 11 10.5 22 q61 68 88.5 131.5t27.5 110.5q0 32 -14.5 58.5t-31.5 42t-31.5 42t-14.5 59.5q0 54 41 94t101 40q73 0 119 -52.5t46 -132.5q0 -123 -64.5 -245.5t-180.5 -225.5q-22 -20 -52 6l-28 25q-16 14 -16.5 25z" />
<glyph unicode="&#x2022;" horiz-adv-x="716" d="M90 743q0 112 78 191.5t188 79.5q112 0 191.5 -79t79.5 -192q0 -109 -79.5 -186.5t-191.5 -77.5q-110 0 -188 77.5t-78 186.5z" />
<glyph unicode="&#x2026;" horiz-adv-x="1472" d="M88 133q0 65 45 109.5t111 44.5q67 0 112 -44.5t45 -109.5t-45 -109t-112 -44q-66 0 -111 44t-45 109zM580 133q0 65 44.5 109.5t110.5 44.5q67 0 112.5 -44.5t45.5 -109.5t-45.5 -109t-112.5 -44q-66 0 -110.5 44t-44.5 109zM1069 133q0 65 45 109.5t111 44.5 q67 0 112 -44.5t45 -109.5t-45 -109t-112 -44q-66 0 -111 44t-45 109z" />
<glyph unicode="&#x202f;" horiz-adv-x="392" />
<glyph unicode="&#x2039;" horiz-adv-x="651" d="M109 614v13q0 31 18 57l266 387q11 18 29.5 16.5t54.5 -22.5l25 -14q41 -24 51.5 -39t-0.5 -29l-223 -362l223 -363q11 -14 0.5 -29t-51.5 -39l-25 -14q-36 -21 -54.5 -22.5t-29.5 16.5l-266 385q-18 26 -18 59z" />
<glyph unicode="&#x203a;" horiz-adv-x="651" d="M98 258l224 363l-224 362q-9 16 1 30t51 38l24 14q36 21 54.5 22.5t29.5 -16.5l266 -387q19 -27 19 -57v-13q0 -32 -19 -59l-266 -385q-11 -18 -29.5 -16.5t-54.5 22.5l-24 14q-41 24 -51 38t-1 30z" />
<glyph unicode="&#x205f;" horiz-adv-x="490" />
<glyph unicode="&#x20ac;" horiz-adv-x="1427" d="M61 580v2q0 37 3 54t7 20t15 3h147q-2 20 -2 62q0 17 5 90h-121q-15 0 -20 13t-5 65v4q0 52 5 64t20 12h143q60 250 236 388t428 138q239 0 407 -115q25 -15 24 -31t-30 -61l-25 -39q-26 -42 -36 -49.5t-27 2.5q-78 42 -145.5 62t-147.5 20q-161 0 -268.5 -80.5 t-151.5 -234.5h432q15 0 20 -12t5 -64v-4q0 -52 -5 -65t-20 -13h-460q-2 -27 -2 -80q0 -49 2 -72h432q11 0 15 -3.5t6.5 -20t2.5 -53.5v-2q0 -53 -5 -66.5t-19 -13.5h-406q83 -310 422 -310q134 0 307 68q20 10 31 2t29 -47l20 -43q22 -44 22 -60.5t-20 -25.5 q-91 -48 -205 -76t-229 -28q-258 0 -425 136t-218 384h-168q-15 0 -20 14t-5 66z" />
<glyph unicode="&#x2122;" horiz-adv-x="1763" d="M41 1384v37q0 36 3.5 45t14.5 9h598q10 0 13.5 -9.5t3.5 -44.5v-37q0 -35 -3.5 -45t-13.5 -10h-211v-667q0 -9 -14 -12t-51 -3h-47q-39 0 -51.5 3t-12.5 12v667h-211q-11 0 -14.5 9t-3.5 46zM776 662v794q0 12 11.5 15.5t56.5 3.5h84q41 0 54.5 -4t18.5 -15l121 -287 q52 -124 80 -204q36 114 72 200l119 291q5 11 17.5 15t55.5 4h84q46 0 60 -4t14 -15v-794q0 -9 -11 -12t-52 -3h-37q-39 0 -50.5 3t-11.5 12v337q0 225 2 261q-21 -60 -100 -259l-78 -194q-4 -10 -15 -13t-48 -3h-43q-38 0 -48.5 2.5t-15.5 13.5l-84 190q-42 101 -100 250 q6 -111 6 -270v-315q0 -9 -11.5 -12t-49.5 -3h-39q-41 0 -51.5 3t-10.5 12z" />
<glyph unicode="&#x25fc;" horiz-adv-x="1085" d="M0 0v1085h1085v-1085h-1085z" />
</font>
</defs>
</svg>
