<?xml version="1.0" standalone="no"?>
<!DOCTYPE svg PUBLIC "-//W3C//DTD SVG 1.1//EN" "http://www.w3.org/Graphics/SVG/1.1/DTD/svg11.dtd" >
<svg xmlns="http://www.w3.org/2000/svg">
<metadata></metadata>
<defs>
<font id="frutigerbold" horiz-adv-x="1138" >
<font-face units-per-em="2048" ascent="1638" descent="-410" />
<missing-glyph horiz-adv-x="569" />
<glyph horiz-adv-x="0" />
<glyph unicode="&#xd;" horiz-adv-x="569" />
<glyph unicode=" "  horiz-adv-x="569" />
<glyph unicode="&#x09;" horiz-adv-x="569" />
<glyph unicode="&#xa0;" horiz-adv-x="569" />
<glyph unicode="!" horiz-adv-x="796" d="M242 1430h315l-43 -1010h-233zM256 0v287h287v-287h-287z" />
<glyph unicode="&#x22;" horiz-adv-x="985" d="M180 918v512h250v-512h-250zM555 918v512h250v-512h-250z" />
<glyph unicode="#" d="M68 420v164h206l35 262h-180v164h205l57 420h182l-57 -420h209l57 420h181l-58 -420h166v-164h-190l-35 -262h166v-164h-189l-59 -420h-180l59 420h-209l-61 -420h-180l59 420h-184zM457 584h209l34 262h-208z" />
<glyph unicode="$" d="M119 1018q0 197 123 311q109 98 288 121v152h97v-148q182 0 334 -51l-27 -236q-141 61 -291 62q-10 0 -16 -2v-379q209 -82 276 -137q141 -111 141 -303q0 -190 -120 -302q-109 -100 -297 -122v-168h-97v161q-8 -2 -22 -2q-141 0 -367 56l27 258q162 -88 324 -88 q25 0 38 4v383q-205 80 -274 135q-137 109 -137 295zM418 1030q-1 -84 112 -141v319q-113 -51 -112 -178zM627 229q119 51 118 156q1 99 -118 158v-314z" />
<glyph unicode="%" horiz-adv-x="2048" d="M217 1077q0 178 90 277.5t254 99.5t252 -99.5t88 -277.5t-88 -277.5t-252 -99.5t-254 99.5t-90 277.5zM430 1077q0 -213 131 -213q127 0 127 213t-127 213q-131 0 -131 -213zM502 -45l884 1520h168l-884 -1520h-168zM1149 352q0 178 90 277.5t254 99.5t252 -99.5 t88 -277.5t-88 -277.5t-252 -99.5t-254 99.5t-90 277.5zM1362 352q0 -213 131 -213q127 0 127 213t-127 213q-131 0 -131 -213z" />
<glyph unicode="&#x26;" horiz-adv-x="1478" d="M123 391q0 135 65 225q72 98 236 168q-109 102 -141 150q-57 84 -58 194q0 152 142 244q125 82 292 82q168 0 281 -76q131 -86 131 -248q0 -135 -80 -229q-59 -69 -196 -149l262 -287q82 94 90 311h250q-12 -287 -183 -489l256 -287h-352l-96 127q-150 -152 -389 -152 q-221 0 -361 107q-150 115 -149 309zM397 399q0 -92 70 -151.5t172 -59.5q162 0 250 86l-318 355q-174 -90 -174 -230zM500 1102q0 -51 47 -111q14 -18 88 -92q68 35 121 86q66 63 65 121q0 72 -46 109.5t-111 37.5q-68 0 -113 -36q-51 -41 -51 -115z" />
<glyph unicode="'" horiz-adv-x="569" d="M160 918v512h250v-512h-250z" />
<glyph unicode="(" horiz-adv-x="681" d="M80 631q0 268 88 495q74 195 240 422h260q-150 -238 -215 -422q-82 -231 -82 -495q0 -449 297 -918h-260q-328 446 -328 918z" />
<glyph unicode=")" horiz-adv-x="681" d="M14 -287q297 475 297 918q0 262 -84 495q-63 182 -213 422h258q166 -231 242 -422q88 -229 88 -495q0 -465 -330 -918h-258z" />
<glyph unicode="*" d="M147 1036l68 213l272 -116l-32 297h233l-35 -295l273 114l65 -213l-284 -63l196 -219l-188 -136l-146 254l-155 -254l-187 136l201 219z" />
<glyph unicode="+" horiz-adv-x="1228" d="M94 412v213h414v411h213v-411h414v-213h-414v-412h-213v412h-414z" />
<glyph unicode="," horiz-adv-x="569" d="M47 -225l131 512h297l-186 -512h-242z" />
<glyph unicode="-" horiz-adv-x="681" d="M72 438v226h538v-226h-538z" />
<glyph unicode="." horiz-adv-x="569" d="M141 0v287h287v-287h-287z" />
<glyph unicode="/" horiz-adv-x="796" d="M43 -25l500 1479h213l-500 -1479h-213z" />
<glyph unicode="0" d="M72 711q0 315 102 506q127 238 393 237q500 0 500 -743q0 -307 -94 -492q-125 -244 -406 -244q-496 0 -495 736zM358 711q0 -223 25 -328q47 -195 184 -195q139 0 187 195q27 104 26 328q0 225 -26 333q-47 197 -187 197q-135 0 -182 -197q-27 -109 -27 -333z" />
<glyph unicode="1" d="M162 1094l418 336h254v-1430h-287v1104l-242 -197z" />
<glyph unicode="2" d="M84 0v240q111 102 219 204q172 168 268 297q131 176 131 295q0 92 -73 146q-63 47 -160 47q-154 0 -330 -115l-22 238q201 102 424 102q209 0 328.5 -106.5t119.5 -311.5q0 -199 -182 -432q-88 -115 -356 -379h583v-225h-950z" />
<glyph unicode="3" d="M92 23l17 243q166 -66 317 -65q109 0 195 47q106 57 106 155q0 223 -315 224h-140v225h131q317 0 318 188q0 188 -246 189q-166 0 -321 -76l-17 229q182 72 400 72q178 0 301 -70q170 -94 170 -297q0 -242 -267 -342v-4q133 -18 203 -111t70 -229q0 -229 -185 -340 q-143 -86 -362 -86q-211 1 -375 48z" />
<glyph unicode="4" d="M33 297v231l534 902h357v-920h182v-213h-182v-297h-275v297h-616zM291 510h358v620h-4z" />
<glyph unicode="5" d="M147 16l7 256q174 -72 292 -71q127 0 209 57q96 68 97 195q0 129 -103 192q-86 55 -225 55q-133 0 -256 -38l14 768h822v-213h-551l-7 -306q76 14 132 15q184 0 305 -95q156 -119 155 -370q0 -211 -139 -344q-152 -141 -418 -142q-162 0 -334 41z" />
<glyph unicode="6" d="M90 641q0 342 121 551q150 262 467 262q156 0 301 -51l-37 -232q-133 57 -250 58q-170 0 -260 -142q-74 -115 -80 -301l4 -4q98 143 277 144q199 0 311 -119q106 -117 107 -318q0 -240 -117 -372q-123 -141 -359 -142q-485 0 -485 666zM377 442q0 -111 47 -178 q51 -76 151 -76q94 0 144 80q45 70 45 176q0 115 -45 187q-54 82 -150 82q-98 0 -147 -82q-45 -72 -45 -189z" />
<glyph unicode="7" d="M102 1204v226h922v-238l-508 -1192h-311l530 1204h-633z" />
<glyph unicode="8" d="M72 387q0 227 262 354v4q-238 104 -238 332q0 184 129 285q121 92 326 92t334 -82q145 -92 145 -262q0 -102 -59 -195q-65 -102 -178 -147v-2q274 -129 274 -375q0 -207 -139 -315q-129 -100 -353 -101q-223 0 -356 97q-147 109 -147 315zM358 391q0 -88 64.5 -145.5 t152.5 -57.5t146.5 52.5t58.5 138.5q1 170 -239 248q-182 -88 -183 -236zM371 1069q0 -131 225 -215q61 23 110.5 83t49.5 124q0 80 -48.5 130t-127.5 50q-84 0 -144 -43q-66 -47 -65 -129z" />
<glyph unicode="9" d="M90 940q0 240 117 373q123 141 358 141q485 0 486 -666q0 -342 -121 -550q-150 -262 -467 -263q-156 1 -301 52l37 231q133 -57 250 -57q170 0 260 141q74 115 79 301l-4 4q-96 -143 -276 -143q-199 0 -308.5 117.5t-109.5 318.5zM377 985q0 -115 45 -186q53 -82 149 -82 q98 0 150 82q43 72 43 188q0 111 -47 178q-51 76 -152 76q-94 0 -143 -80q-45 -70 -45 -176z" />
<glyph unicode=":" horiz-adv-x="569" d="M141 0v287h287v-287h-287zM141 768v287h287v-287h-287z" />
<glyph unicode=";" horiz-adv-x="569" d="M47 -225l131 512h297l-186 -512h-242zM141 768v287h287v-287h-287z" />
<glyph unicode="&#x3c;" horiz-adv-x="1228" d="M94 430v176l1041 447v-209l-764 -326l764 -325v-209z" />
<glyph unicode="=" horiz-adv-x="1228" d="M94 188v213h1041v-213h-1041zM94 635v213h1041v-213h-1041z" />
<glyph unicode="&#x3e;" horiz-adv-x="1228" d="M94 -16v209l764 325l-764 326v209l1041 -447v-176z" />
<glyph unicode="?" horiz-adv-x="1024" d="M102 1386q227 68 406 68q197 0 321 -84q145 -98 146 -283q0 -119 -96 -241q-86 -98 -172 -199q-90 -117 -80 -229h-252q0 166 78 291q16 27 145 174q78 90 78 172q0 94 -74 143q-63 43 -162 43q-137 0 -315 -82zM358 0v287h287v-287h-287z" />
<glyph unicode="@" horiz-adv-x="1638" d="M76 715q0 309 226 524t566 215q276 0 471 -143q223 -166 224 -459q0 -276 -207 -442q-160 -127 -309 -127q-109 0 -111 106h-4q-94 -106 -207 -106q-131 0 -224 96t-93 242q0 203 123.5 348t297.5 145q150 0 238 -131l25 98h172l-113 -497q-14 -63 -14 -70q0 -31 30 -31 q88 0 154 86q78 100 78 277q0 227 -174 336q-137 84 -357 84q-250 0 -414.5 -164t-164.5 -387q0 -238 150.5 -394.5t379.5 -156.5q319 0 473 129h174q-215 -317 -647 -318q-293 0 -506 185q-238 207 -237 555zM621 651q0 -74 40.5 -121t112.5 -47q94 0 164 84q63 82 63 183 q0 74 -41.5 118.5t-109.5 44.5q-96 0 -162.5 -81.5t-66.5 -180.5z" />
<glyph unicode="A" horiz-adv-x="1478" d="M18 0l557 1430h324l561 -1430h-317l-123 328h-580l-125 -328h-297zM522 553h418l-207 590h-4z" />
<glyph unicode="B" horiz-adv-x="1251" d="M166 0v1430h500q184 0 299 -66q161 -91 161 -298q0 -128 -78 -214t-206 -109v-4q145 -14 236 -104t91 -221q0 -238 -184 -342q-127 -72 -319 -72h-500zM453 225h135q295 0 295 199q0 215 -295 215h-135v-414zM453 852h116q270 0 271 174q0 111 -88 152q-59 26 -180 26h-9 h-110v-352z" />
<glyph unicode="C" horiz-adv-x="1251" d="M96 690q0 365 209 564.5t576 199.5q172 0 323 -59l-20 -242q-133 76 -310 76q-217 0 -348 -146.5t-131 -371.5q0 -223 131 -366.5t355 -143.5q198 0 313 59l12 -240q-190 -45 -325 -45q-360 0 -566 177q-219 186 -219 538z" />
<glyph unicode="D" horiz-adv-x="1478" d="M166 0v1430h391q825 0 825 -715t-825 -715h-391zM453 225h159q190 0 326 129q145 137 145 361q0 223 -145 362q-135 127 -326 127h-159v-979z" />
<glyph unicode="E" d="M166 0v1430h844v-226h-557v-352h510v-225h-510v-402h561v-225h-848z" />
<glyph unicode="F" horiz-adv-x="1024" d="M166 0v1430h795v-226h-508v-352h483v-225h-483v-627h-287z" />
<glyph unicode="G" horiz-adv-x="1478" d="M96 690q0 365 209 564.5t576 199.5q220 0 419 -59l-18 -242q-164 76 -369 76q-244 0 -385 -150q-133 -141 -133 -368q0 -223 131 -366.5t355 -143.5q106 0 188 20v373h-303v225h577v-770q-272 -74 -462 -74q-360 0 -566 177q-219 186 -219 538z" />
<glyph unicode="H" horiz-adv-x="1478" d="M166 0v1430h287v-578h573v578h287v-1430h-287v627h-573v-627h-287z" />
<glyph unicode="I" horiz-adv-x="569" d="M141 0v1430h287v-1430h-287z" />
<glyph unicode="J" horiz-adv-x="796" d="M45 2v248q68 -25 137 -25q123 0 164 88q23 49 23 164v953h286v-1090q0 -137 -86 -240q-106 -125 -305 -125q-115 0 -219 27z" />
<glyph unicode="K" horiz-adv-x="1366" d="M166 0v1430h287v-615l516 615h352l-588 -674l613 -756h-375l-514 664h-4v-664h-287z" />
<glyph unicode="L" horiz-adv-x="1024" d="M166 0v1430h287v-1205h555v-225h-842z" />
<glyph unicode="M" horiz-adv-x="1933" d="M166 0v1430h459l340 -1084h4l340 1084h458v-1430h-274v1180h-4l-385 -1180h-275l-385 1180l-4 -4v-1176h-274z" />
<glyph unicode="N" horiz-adv-x="1478" d="M152 0v1430h352l545 -1070h4v1070h274v-1430h-350l-547 1069h-4v-1069h-274z" />
<glyph unicode="O" horiz-adv-x="1593" d="M96 719q0 336 183.5 535.5t517.5 199.5q330 0 518 -205q182 -199 182 -530q0 -334 -180 -535q-188 -209 -520 -209q-336 0 -523 207q-178 199 -178 537zM395 719q0 -217 90 -357q105 -161 309 -161h3q205 0 311 161q90 139 90 357q0 211 -94 350q-109 160 -307 160 q-199 0 -308 -160q-94 -139 -94 -350z" />
<glyph unicode="P" d="M141 0v1430h363q596 0 596 -433q0 -236 -160 -352q-141 -102 -391 -102h-121v-543h-287zM428 768h100q272 0 273 213q0 223 -273 223h-100v-436z" />
<glyph unicode="Q" horiz-adv-x="1593" d="M96 719q0 336 183.5 535.5t517.5 199.5q330 0 518 -205q182 -199 182 -530q0 -233 -93 -408.5t-267 -259.5l323 -321h-346l-250 250q-20 -4 -67 -5q-336 0 -523 207q-178 199 -178 537zM395 719q0 -217 90 -357q105 -161 309 -161h3q205 0 311 161q90 139 90 357 q0 211 -94 350q-109 160 -307 160q-199 0 -308 -160q-94 -139 -94 -350z" />
<glyph unicode="R" horiz-adv-x="1251" d="M141 0v1430h310q330 0 452 -46q221 -80 221 -342q0 -129 -79.5 -221t-215.5 -110v-4q94 -8 152 -148l229 -559h-319l-172 446q-33 84 -70 113q-43 35 -129 35h-92v-594h-287zM428 819h94q303 0 303 199q0 115 -98 158q-64 28 -196 28h-9h-94v-385z" />
<glyph unicode="S" d="M119 1018q0 223 155 338q133 98 344 98q189 0 343 -51l-27 -236q-141 61 -291 62q-90 0 -149 -41q-76 -51 -76 -158q0 -96 162 -166q260 -109 303 -137q162 -113 161 -319q0 -221 -159 -334q-141 -98 -377 -99q-141 0 -367 56l27 258q162 -88 324 -88q94 0 167 43 q86 53 86 141q0 109 -161 180q-281 125 -303 140q-162 111 -162 313z" />
<glyph unicode="T" d="M16 1204v226h1106v-226h-409v-1204h-287v1204h-410z" />
<glyph unicode="U" horiz-adv-x="1478" d="M156 516v914h286v-826q0 -403 297 -403t297 403v826h287v-914q0 -541 -584 -541q-583 0 -583 541z" />
<glyph unicode="V" horiz-adv-x="1366" d="M20 1430h308l366 -1123h4l363 1123h285l-482 -1430h-352z" />
<glyph unicode="W" horiz-adv-x="2048" d="M20 1430h302l266 -1143h4l244 1143h389l252 -1143h4l268 1143h279l-373 -1430h-369l-258 1143h-4l-254 -1143h-371z" />
<glyph unicode="X" horiz-adv-x="1366" d="M20 0l469 743l-426 687h332l299 -510l305 510h308l-430 -687l469 -743h-338l-330 557l-334 -557h-324z" />
<glyph unicode="Y" horiz-adv-x="1366" d="M23 1430h335l338 -601l344 601h303l-512 -865v-565h-286v565z" />
<glyph unicode="Z" d="M74 0v233l671 971h-645v226h951v-234l-678 -971h692v-225h-991z" />
<glyph unicode="[" horiz-adv-x="681" d="M147 -287v1835h459v-200h-196v-1434h196v-201h-459z" />
<glyph unicode="\" horiz-adv-x="796" d="M41 1454h213l500 -1479h-213z" />
<glyph unicode="]" horiz-adv-x="681" d="M76 -86h196v1434h-196v200h459v-1835h-459v201z" />
<glyph unicode="^" horiz-adv-x="1228" d="M135 641l383 789h193l383 -789h-213l-267 573l-266 -573h-213z" />
<glyph unicode="_" horiz-adv-x="1024" d="M0 -154h1024v-102h-1024v102z" />
<glyph unicode="`" horiz-adv-x="569" d="M59 1497h281l170 -299h-170z" />
<glyph unicode="a" d="M74 289q0 213 180 301q125 61 354 61h152q0 125 -56.5 176.5t-181.5 51.5q-173 0 -325 -115l-9 235q174 80 367 80q240 0 347.5 -105.5t107.5 -338.5v-135q0 -106 4 -264q2 -111 12 -236h-242q-4 20 -12 158h-4q-47 -84 -137 -133.5t-189 -49.5q-150 0 -254 82 q-115 88 -114 232zM336 305q0 -129 174 -129q164 0 225 152q25 63 25 159h-119q-305 0 -305 -182z" />
<glyph unicode="b" horiz-adv-x="1251" d="M141 0v1536h275v-616h4q120 159 313 159h2q227 0 342 -166q100 -143 101 -383q0 -240 -101 -385q-115 -170 -342 -170q-215 0 -323 154h-4v-129h-267zM418 530q0 -133 53 -227q63 -115 188 -115q123 0 185 117q47 92 47 225q0 131 -47 222q-58 114 -178 114h-2 q-121 0 -189 -112q-57 -95 -57 -224z" />
<glyph unicode="c" horiz-adv-x="909" d="M74 532q0 238 131 388q138 159 376 159h3q149 0 266 -35l-25 -217q-84 39 -186 39q-127 0 -203 -92t-76 -242q0 -154 70 -245q76 -98 215 -99q98 0 211 50l12 -228q-113 -35 -274 -35q-252 0 -389 158q-131 150 -131 399z" />
<glyph unicode="d" horiz-adv-x="1251" d="M74 530q0 240 100 383q115 166 342 166q195 0 315 -147h5v604h274v-1536h-266v119h-4q-115 -143 -324 -144q-227 0 -342 170q-100 145 -100 385zM360 530q0 -133 50 -225q59 -117 182 -117q125 0 188 115q53 94 54 227q0 129 -58 224q-67 112 -186 112h-2 q-121 0 -180 -114q-48 -91 -48 -222z" />
<glyph unicode="e" d="M74 522q0 242 123 393q131 164 366 164q276 0 398 -180q104 -154 104 -457h-729q8 -125 90 -195.5t211 -70.5q160 1 350 107v-224q-152 -84 -362 -84q-262 0 -406.5 143.5t-144.5 403.5zM336 631h467q-14 248 -223 248q-221 0 -244 -248z" />
<glyph unicode="f" horiz-adv-x="796" d="M39 854v201h203v147q0 162 88 260.5t248 98.5q102 0 200 -23l-22 -227q-63 37 -119 37q-121 0 -121 -162v-131h240v-201h-240v-854h-274v854h-203z" />
<glyph unicode="g" horiz-adv-x="1251" d="M74 532q0 215 104 369q123 178 342 178t324 -168h4v144h262v-953q0 -557 -557 -557q-195 0 -365 72l23 233q172 -92 307 -92q201 0 273 138q45 86 45 272h-5q-41 -72 -124 -117q-92 -51 -203 -51q-219 0 -332 160q-98 141 -98 372zM360 532q0 -121 58 -213 q65 -106 176 -106q123 0 186 96q55 86 56 230q0 143 -56 231q-59 96 -174 96q-129 0 -192 -106q-53 -88 -54 -228z" />
<glyph unicode="h" horiz-adv-x="1251" d="M141 0v1536h275v-625h4q115 168 332 168q180 0 272 -116q86 -109 86 -297v-666h-274v563q0 139 -23 201q-39 102 -156 102q-133 0 -194 -125q-47 -92 -47 -225v-516h-275z" />
<glyph unicode="i" horiz-adv-x="569" d="M147 0v1055h275v-1055h-275zM147 1247v262h275v-262h-275z" />
<glyph unicode="j" horiz-adv-x="569" d="M-31 -438l11 196q115 6 145 52q22 32 22 139v10v1096h275v-1133q0 -377 -318 -377q-80 1 -135 17zM147 1247v262h275v-262h-275z" />
<glyph unicode="k" d="M147 0v1536h275v-903h4l328 422h323l-393 -471l442 -584h-348l-352 512h-4v-512h-275z" />
<glyph unicode="l" horiz-adv-x="569" d="M147 0v1536h275v-1536h-275z" />
<glyph unicode="m" horiz-adv-x="1820" d="M137 0v1055h256v-148h4q115 172 314 172q227 0 311 -186q45 90 141 141q86 45 189 45q334 0 334 -413v-666h-275v629q0 109 -20 155q-33 82 -138 82q-205 0 -204 -354v-512h-275v629q0 109 -20 155q-33 82 -138 82q-205 0 -204 -354v-512h-275z" />
<glyph unicode="n" horiz-adv-x="1251" d="M141 0v1055h260v-144h5q119 168 346 168q180 0 272 -116q86 -109 86 -297v-666h-274v563q0 139 -23 201q-39 102 -156 102q-133 0 -194 -125q-47 -92 -47 -225v-516h-275z" />
<glyph unicode="o" horiz-adv-x="1251" d="M74 520q0 256 159 410q151 149 389 149h3q240 0 396.5 -151.5t156.5 -407.5q0 -236 -146 -385q-152 -160 -407 -160q-254 0 -406 160q-145 149 -145 385zM360 553q0 -365 265 -365q266 0 266 365q0 131 -66 217q-74 96 -200 96q-127 0 -199 -98q-66 -86 -66 -215z" />
<glyph unicode="p" horiz-adv-x="1251" d="M141 -430v1485h262v-150h5q104 174 327 174q227 0 342 -166q100 -143 101 -383q0 -240 -101 -385q-117 -170 -348 -170q-188 0 -309 146h-4v-551h-275zM418 530q0 -133 53 -227q63 -115 188 -115q123 0 185 117q47 92 47 225q0 131 -47 222q-59 114 -180 114t-189 -112 q-57 -94 -57 -224z" />
<glyph unicode="q" horiz-adv-x="1251" d="M74 530q0 240 100 383q117 166 348 166q217 0 322 -174h4v150h262v-1485h-274v551h-5q-121 -145 -309 -146q-231 0 -348 170q-100 145 -100 385zM360 530q0 -133 50 -225q59 -117 182 -117q125 0 188 115q53 94 54 227q0 129 -58 224q-67 112 -188 112t-180 -114 q-47 -90 -48 -222z" />
<glyph unicode="r" horiz-adv-x="796" d="M147 0v1055h244v-240h4q10 86 88 170q88 94 201 94q55 0 84 -8v-276q-37 22 -116 22h-7q-145 0 -194 -158q-29 -88 -29 -272v-387h-275z" />
<glyph unicode="s" horiz-adv-x="909" d="M74 752q0 162 127 249q113 78 286 78q117 0 299 -39l-18 -206q-131 45 -246 45q-162 0 -162 -117q0 -63 123 -105q184 -59 232 -92q123 -82 123 -246q0 -172 -138 -264q-119 -80 -305 -80q-141 0 -311 45l16 226q139 -70 271 -70q68 0 116 27q63 33 64 102q0 82 -123 123 q-205 70 -231 84q-123 76 -123 240z" />
<glyph unicode="t" horiz-adv-x="796" d="M29 854v201h202v211l275 88v-299h244v-201h-244v-492q0 -174 129 -174q80 0 125 29l8 -217q-86 -25 -203 -25q-160 0 -247 91t-87 251v537h-202z" />
<glyph unicode="u" horiz-adv-x="1251" d="M141 389v666h275v-563q0 -139 22 -201q39 -102 156 -103q133 0 194 125q47 92 48 226v516h274v-1055h-260v143h-4q-137 -168 -346 -168q-180 0 -273 119q-86 106 -86 295z" />
<glyph unicode="v" d="M25 1055h294l263 -768h4l254 768h274l-389 -1055h-309z" />
<glyph unicode="w" horiz-adv-x="1820" d="M23 1055h290l234 -781h4l213 781h319l230 -781h4l219 781h262l-323 -1055h-324l-229 805h-4l-226 -805h-313z" />
<glyph unicode="x" d="M18 0l363 553l-326 502h324l207 -344l202 344h291l-315 -502l356 -553h-327l-236 393l-238 -393h-301z" />
<glyph unicode="y" d="M23 1055h303l254 -770h4l254 770h278l-395 -1047q-94 -250 -146 -319q-104 -143 -292 -144q-96 0 -195 29l18 203q53 -18 142 -19q82 0 130 51.5t48 137.5z" />
<glyph unicode="z" horiz-adv-x="1024" d="M74 0v223l534 619h-512v213h836v-226l-524 -616h542v-213h-876z" />
<glyph unicode="{" horiz-adv-x="681" d="M37 543v176q68 0 113 41q55 49 55 149v363q0 133 96 209q84 68 207 67h154v-164h-93q-66 0 -88 -47q-14 -29 -14 -102v-354q0 -227 -229 -248v-4q229 -20 229 -262v-340q0 -74 14 -103q20 -47 88 -47h93v-164h-154q-125 0 -209 68q-94 76 -94 209v348q0 109 -55 162 q-45 43 -113 43z" />
<glyph unicode="|" horiz-adv-x="454" d="M121 -25v1561h213v-1561h-213z" />
<glyph unicode="}" horiz-adv-x="681" d="M20 -123h93q68 0 88 47q14 29 14 103v340q0 242 229 262v4q-229 20 -229 248v354q0 74 -14 102q-23 47 -88 47h-93v164h154q127 0 211 -67q92 -74 92 -209v-363q0 -100 55 -149q45 -41 113 -41v-176q-68 0 -113 -43q-55 -53 -55 -162v-348q0 -135 -92 -209 q-84 -68 -211 -68h-154v164z" />
<glyph unicode="~" horiz-adv-x="1228" d="M141 516q94 180 248 180q102 0 240 -69q145 -74 215 -74q74 0 170 147l73 -180q-106 -180 -235 -180q-100 0 -237.5 71.5t-223.5 71.5q-108 0 -176 -147z" />
<glyph unicode="&#xa1;" horiz-adv-x="796" d="M240 -375l43 1010h227l45 -1010h-315zM252 768v287h287v-287h-287z" />
<glyph unicode="&#xa2;" d="M176 532q0 238 131 388q139 160 379 159q57 0 82 -4l53 170h119l-57 -186q25 -2 69 -15l-24 -217q-53 25 -107 33l-198 -645q51 -27 125 -27q98 0 210 50l13 -228q-113 -35 -275 -35q-84 0 -143 17l-55 -176h-119l65 213q-268 133 -268 503zM463 532q-1 -145 65 -235 l174 569q-111 -14 -175 -105t-64 -229z" />
<glyph unicode="&#xa3;" d="M111 0v213h180v449h-156v163h156v172q0 203 141 330t350 127q150 0 267 -35l-15 -225q-127 35 -198 35q-127 0 -197 -82q-61 -72 -61 -184v-138h301v-163h-301v-449h456v-213h-923z" />
<glyph unicode="&#xa4;" d="M37 307l119 119q-94 133 -95 293q0 158 95 293l-119 118l121 121l118 -118q131 94 293 94q158 0 293 -94l119 118l121 -121l-119 -118q94 -131 94 -291q0 -158 -94 -295l119 -119l-121 -121l-119 119q-135 -94 -293 -94t-293 94l-118 -119zM287 719q0 -121 83 -208 t199 -87q117 0 200 87t83 208t-83 208t-200 87t-199.5 -87t-82.5 -208z" />
<glyph unicode="&#xa5;" d="M-20 1430h288l310 -631l315 631h268l-354 -674h201v-164h-287l-14 -27v-100h301v-164h-301v-301h-275v301h-301v164h301v100l-16 27h-285v164h205z" />
<glyph unicode="&#xa6;" horiz-adv-x="454" d="M121 -25v564h213v-564h-213zM121 973v563h213v-563h-213z" />
<glyph unicode="&#xa7;" d="M135 584q0 182 158 276q-143 98 -143 244q0 170 143 266q125 84 303 84q111 0 328 -41l-23 -223q-135 51 -293 51q-193 0 -196 -139q-2 -84 151 -146q266 -104 287 -116q156 -92 156 -252q0 -178 -152 -262q139 -82 139 -234q0 -172 -143 -276q-129 -94 -309 -95 q-137 0 -379 60l18 233q195 -80 344 -80q207 0 207 142q0 82 -153 145q-270 106 -289 119q-154 90 -154 244zM348 633q0 -82 148 -148q111 -47 223 -94q74 63 74 154q0 88 -123 143q-125 49 -248 96q-74 -53 -74 -151z" />
<glyph unicode="&#xa8;" horiz-adv-x="569" d="M-45 1247v238h238v-238h-238zM377 1247v238h237v-238h-237z" />
<glyph unicode="&#xa9;" horiz-adv-x="1638" d="M80 715q0 305 217 522t522 217t522.5 -217t217.5 -522t-217.5 -522.5t-522.5 -217.5t-522 217.5t-217 522.5zM293 715q0 -254 150.5 -415t375.5 -161q223 0 375 162t152 414t-152 413.5t-375 161.5q-225 0 -375.5 -161.5t-150.5 -413.5zM430 721q0 190 111.5 313 t302.5 123q141 0 238.5 -80t117.5 -227h-164q-27 143 -192 143q-100 0 -156.5 -73.5t-56.5 -196.5q0 -117 60.5 -195.5t156.5 -78.5q172 0 188 147h170q-23 -145 -122 -228t-236 -83q-186 0 -303 127q-115 121 -115 309z" />
<glyph unicode="&#xaa;" horiz-adv-x="739" d="M57 967q0 229 363 229h76q0 135 -150 135q-111 0 -215 -63v135q100 51 246 51q156 0 225.5 -63.5t69.5 -214.5q0 -234 10 -373h-172l-6 86h-4q-43 -102 -193 -103q-98 0 -166 41q-84 47 -84 140zM233 977q0 -68 107 -68q74 0 116 50.5t42 125.5h-62q-203 1 -203 -108z " />
<glyph unicode="&#xab;" d="M100 551l242 420h258l-225 -420l225 -420h-258zM557 551l242 420h258l-226 -420l226 -420h-258z" />
<glyph unicode="&#xac;" horiz-adv-x="1228" d="M94 635v213h1041v-627h-213v414h-828z" />
<glyph unicode="&#xad;" horiz-adv-x="681" d="M72 438v226h538v-226h-538z" />
<glyph unicode="&#xae;" horiz-adv-x="1638" d="M80 715q0 305 217 522t522 217t522.5 -217t217.5 -522t-217.5 -522.5t-522.5 -217.5t-522 217.5t-217 522.5zM293 715q0 -254 150.5 -415t375.5 -161q223 0 375 162t152 414t-152 413.5t-375 161.5q-225 0 -375.5 -161.5t-150.5 -413.5zM522 307v821h309q164 0 242 -53 q86 -59 86 -192q0 -201 -217 -219l217 -357h-180l-197 348h-84v-348h-176zM698 791h144q70 0 100 18q41 23 41 90q0 94 -160 94h-125v-202z" />
<glyph unicode="&#xaf;" horiz-adv-x="569" d="M-10 1266v164h590v-164h-590z" />
<glyph unicode="&#xb0;" horiz-adv-x="819" d="M80 1124q0 137 96.5 233.5t233.5 96.5t233 -96t96 -234q0 -139 -95 -234t-234 -95q-143 0 -236.5 93t-93.5 236zM229 1124q0 -80 50.5 -130t130.5 -50t130 50t50 130t-50 130.5t-130 50.5t-130.5 -50.5t-50.5 -130.5z" />
<glyph unicode="&#xb1;" horiz-adv-x="1228" d="M94 0v213h1041v-213h-1041zM94 553v213h414v270h213v-270h414v-213h-414v-272h-213v272h-414z" />
<glyph unicode="&#xb2;" horiz-adv-x="739" d="M61 578v167q82 29 222 177q156 166 155 249q0 106 -125 107q-117 0 -215 -70l-14 178q127 68 276 68q141 0 224 -61q92 -68 92 -203q0 -115 -125 -256q-113 -127 -221 -176v-4h350v-176h-619z" />
<glyph unicode="&#xb3;" horiz-adv-x="739" d="M53 600l10 170q139 -41 222 -41q63 0 113.5 27.5t50.5 77.5q0 100 -150 100q-74 0 -115 -6v172q18 2 52 0q45 -2 67 -2q51 0 94 22q51 29 52 76q0 94 -132 94q-131 0 -223 -53l-10 168q141 49 264 49t213 -45q113 -57 113 -166q0 -172 -170 -215v-4q86 -6 134 -61.5 t48 -135.5q0 -133 -125 -202q-104 -59 -250 -60q-125 0 -258 35z" />
<glyph unicode="&#xb4;" horiz-adv-x="569" d="M59 1198l170 299h281l-281 -299h-170z" />
<glyph unicode="&#xb6;" horiz-adv-x="1269" d="M4 1057q0 373 492 373h600v-1684h-213v1520h-217v-1520h-213v952q-211 0 -330 97.5t-119 261.5z" />
<glyph unicode="&#xb7;" horiz-adv-x="569" d="M127 582q0 70 44 113.5t114 43.5t113.5 -44t43.5 -113q0 -70 -43.5 -114t-113.5 -44t-114 44t-44 114z" />
<glyph unicode="&#xb8;" horiz-adv-x="569" d="M154 -412l41 111q98 -31 143 -31q109 0 108 72q0 74 -90 74q-35 0 -86 -19l-30 53l120 152h129l-94 -109l4 -4q74 12 84 13q66 0 115 -37t49 -105q0 -109 -82 -166q-70 -47 -174 -47q-143 0 -237 43z" />
<glyph unicode="&#xb9;" horiz-adv-x="739" d="M25 1237l284 205h193v-864h-213v655l-158 -121z" />
<glyph unicode="&#xba;" horiz-adv-x="813" d="M43 1122q0 150 111 244q104 88 256 88t256 -92t104 -240q0 -154 -103.5 -245t-258.5 -91q-156 0 -260.5 92.5t-104.5 243.5zM244 1122q0 -213 166 -213q160 0 159 213q0 86 -34 142q-41 67 -121 67q-170 0 -170 -209z" />
<glyph unicode="&#xbb;" d="M82 131l225 420l-225 420h258l242 -420l-242 -420h-258zM539 131l225 420l-225 420h258l241 -420l-241 -420h-258z" />
<glyph unicode="&#xbc;" horiz-adv-x="1708" d="M41 1237l285 205h192v-864h-213v655l-158 -121zM336 -45l854 1520h168l-854 -1520h-168zM932 162v174l368 528h256v-538h99v-164h-99v-162h-213v162h-411zM1106 326h237v350h-4z" />
<glyph unicode="&#xbd;" horiz-adv-x="1708" d="M20 1235l285 207h193v-864h-213v655l-158 -123zM274 -45l854 1520h168l-854 -1520h-168zM1022 0v168q82 29 221 176q156 166 156 250q0 106 -125 106q-117 0 -215 -69l-15 178q127 68 277 68q141 0 223 -62q92 -68 92 -203q0 -115 -125 -256q-113 -127 -221 -176v-4h350 v-176h-618z" />
<glyph unicode="&#xbe;" horiz-adv-x="1708" d="M29 600l10 170q139 -41 233 -41q63 0 113.5 27.5t50.5 77.5q0 100 -162 100q-74 0 -114 -6v172q18 2 51 0q45 -2 68 -2q59 0 104 22q53 29 53 76q0 94 -143 94q-131 0 -223 -53l-11 168q141 49 265 49q123 0 213 -45q113 -57 112 -166q0 -172 -170 -215v-4 q86 -6 134.5 -61.5t48.5 -135.5q0 -133 -125 -202q-104 -59 -250 -60q-125 0 -258 35zM360 -45l854 1520h168l-854 -1520h-168zM956 162v174l369 528h256v-538h98v-164h-98v-162h-213v162h-412zM1135 326h233v350h-4z" />
<glyph unicode="&#xbf;" horiz-adv-x="1024" d="M49 -33q0 119 96 242q86 98 172 199q90 117 80 229h252q0 -215 -149 -383q-98 -111 -105 -117q-47 -68 -47 -137q0 -96 78 -145q61 -41 158 -41q161 0 315 82l23 -228q-158 -68 -406 -67q-199 0 -323 84q-143 96 -144 282zM377 768v287h287v-287h-287z" />
<glyph unicode="&#xc0;" horiz-adv-x="1478" d="M18 0l557 1430h324l561 -1430h-317l-123 328h-580l-125 -328h-297zM456 1821h281l170 -299h-170zM522 553h418l-207 590h-4z" />
<glyph unicode="&#xc1;" horiz-adv-x="1478" d="M18 0l557 1430h324l561 -1430h-317l-123 328h-580l-125 -328h-297zM522 553h418l-207 590h-4zM571 1522l170 299h281l-281 -299h-170z" />
<glyph unicode="&#xc2;" horiz-adv-x="1478" d="M18 0l557 1430h324l561 -1430h-317l-123 328h-580l-125 -328h-297zM416 1522l225 299h207l215 -299h-182l-139 176l-144 -176h-182zM522 553h418l-207 590h-4z" />
<glyph unicode="&#xc3;" horiz-adv-x="1478" d="M18 0l557 1430h324l561 -1430h-317l-123 328h-580l-125 -328h-297zM377 1559q0 96 60.5 172t148.5 76q59 0 166 -41q117 -45 149 -45q90 0 91 100h110q0 -106 -53 -177t-145 -71q-82 0 -178.5 38t-137.5 38q-49 0 -74.5 -27.5t-25.5 -62.5h-111zM522 553h418l-207 590h-4 z" />
<glyph unicode="&#xc4;" horiz-adv-x="1478" d="M18 0l557 1430h324l561 -1430h-317l-123 328h-580l-125 -328h-297zM410 1571v238h238v-238h-238zM522 553h418l-207 590h-4zM832 1571v238h237v-238h-237z" />
<glyph unicode="&#xc5;" horiz-adv-x="1478" d="M18 0l557 1430h324l561 -1430h-317l-123 328h-580l-125 -328h-297zM522 553h418l-207 590h-4zM523 1696q0 90 65.5 154.5t153.5 64.5q90 0 153.5 -64.5t63.5 -154.5t-63.5 -153.5t-153.5 -63.5t-154.5 63.5t-64.5 153.5zM633 1696q0 -45 32 -76t77 -31t75.5 31t30.5 76 t-30.5 76.5t-75.5 31.5t-77 -30.5t-32 -77.5z" />
<glyph unicode="&#xc6;" horiz-adv-x="1933" d="M18 0l783 1430h1022v-226h-555l28 -352h482v-225h-457l33 -402h477v-225h-756l-24 328h-549l-176 -328h-308zM625 553h405l-47 664h-4z" />
<glyph unicode="&#xc7;" horiz-adv-x="1251" d="M96 690q0 365 209 564.5t576 199.5q172 0 323 -59l-20 -242q-133 76 -310 76q-217 0 -348 -146.5t-131 -371.5q0 -223 131 -366.5t355 -143.5q198 0 313 59l12 -240q-190 -45 -325 -45q-360 0 -566 177q-219 186 -219 538zM537 -412l41 111q98 -31 143 -31q109 0 108 72 q0 74 -90 74q-35 0 -86 -19l-30 53l120 152h129l-94 -109l4 -4q74 12 84 13q66 0 115 -37t49 -105q0 -109 -82 -166q-70 -47 -174 -47q-143 0 -237 43z" />
<glyph unicode="&#xc8;" d="M166 0v1430h844v-226h-557v-352h510v-225h-510v-402h561v-225h-848zM286 1821h281l170 -299h-170z" />
<glyph unicode="&#xc9;" d="M166 0v1430h844v-226h-557v-352h510v-225h-510v-402h561v-225h-848zM401 1522l170 299h281l-281 -299h-170z" />
<glyph unicode="&#xca;" d="M166 0v1430h844v-226h-557v-352h510v-225h-510v-402h561v-225h-848zM246 1522l225 299h207l215 -299h-182l-139 176l-144 -176h-182z" />
<glyph unicode="&#xcb;" d="M166 0v1430h844v-226h-557v-352h510v-225h-510v-402h561v-225h-848zM240 1571v238h238v-238h-238zM662 1571v238h237v-238h-237z" />
<glyph unicode="&#xcc;" horiz-adv-x="569" d="M2 1821h281l170 -299h-170zM141 0v1430h287v-1430h-287z" />
<glyph unicode="&#xcd;" horiz-adv-x="569" d="M116 1522l170 299h281l-281 -299h-170zM141 0v1430h287v-1430h-287z" />
<glyph unicode="&#xce;" horiz-adv-x="569" d="M-39 1522l225 299h207l215 -299h-182l-139 176l-144 -176h-182zM141 0v1430h287v-1430h-287z" />
<glyph unicode="&#xcf;" horiz-adv-x="569" d="M-45 1571v238h238v-238h-238zM141 0v1430h287v-1430h-287zM377 1571v238h237v-238h-237z" />
<glyph unicode="&#xd0;" horiz-adv-x="1478" d="M35 688v176h131v566h391q825 0 825 -715t-825 -715h-391v688h-131zM453 225h159q190 0 326 129q145 137 145 361q0 223 -145 362q-135 127 -326 127h-159v-340h299v-176h-299v-463z" />
<glyph unicode="&#xd1;" horiz-adv-x="1478" d="M152 0v1430h352l545 -1070h4v1070h274v-1430h-350l-547 1069h-4v-1069h-274zM377 1559q0 96 60.5 172t148.5 76q59 0 166 -41q117 -45 149 -45q90 0 91 100h110q0 -106 -53 -177t-145 -71q-82 0 -178.5 38t-137.5 38q-49 0 -74.5 -27.5t-25.5 -62.5h-111z" />
<glyph unicode="&#xd2;" horiz-adv-x="1593" d="M96 719q0 336 183.5 535.5t517.5 199.5q330 0 518 -205q182 -199 182 -530q0 -334 -180 -535q-188 -209 -520 -209q-336 0 -523 207q-178 199 -178 537zM395 719q0 -217 90 -357q106 -162 312 -161q205 0 311 161q90 139 90 357q0 211 -94 350q-109 160 -307 160 q-199 0 -308 -160q-94 -139 -94 -350zM514 1821h281l170 -299h-170z" />
<glyph unicode="&#xd3;" horiz-adv-x="1593" d="M96 719q0 336 183.5 535.5t517.5 199.5q330 0 518 -205q182 -199 182 -530q0 -334 -180 -535q-188 -209 -520 -209q-336 0 -523 207q-178 199 -178 537zM395 719q0 -217 90 -357q106 -162 312 -161q205 0 311 161q90 139 90 357q0 211 -94 350q-109 160 -307 160 q-199 0 -308 -160q-94 -139 -94 -350zM628 1522l170 299h281l-281 -299h-170z" />
<glyph unicode="&#xd4;" horiz-adv-x="1593" d="M96 719q0 336 183.5 535.5t517.5 199.5q330 0 518 -205q182 -199 182 -530q0 -334 -180 -535q-188 -209 -520 -209q-336 0 -523 207q-178 199 -178 537zM395 719q0 -217 90 -357q106 -162 312 -161q205 0 311 161q90 139 90 357q0 211 -94 350q-109 160 -307 160 q-199 0 -308 -160q-94 -139 -94 -350zM473 1522l225 299h207l215 -299h-182l-139 176l-144 -176h-182z" />
<glyph unicode="&#xd5;" horiz-adv-x="1593" d="M96 719q0 336 183.5 535.5t517.5 199.5q330 0 518 -205q182 -199 182 -530q0 -334 -180 -535q-188 -209 -520 -209q-336 0 -523 207q-178 199 -178 537zM395 719q0 -217 90 -357q106 -162 312 -161q205 0 311 161q90 139 90 357q0 211 -94 350q-109 160 -307 160 q-199 0 -308 -160q-94 -139 -94 -350zM434 1559q0 96 60.5 172t148.5 76q59 0 166 -41q117 -45 149 -45q90 0 91 100h110q0 -106 -53 -177t-145 -71q-82 0 -178.5 38t-137.5 38q-49 0 -74.5 -27.5t-25.5 -62.5h-111z" />
<glyph unicode="&#xd6;" horiz-adv-x="1593" d="M96 719q0 336 183.5 535.5t517.5 199.5q330 0 518 -205q182 -199 182 -530q0 -334 -180 -535q-188 -209 -520 -209q-336 0 -523 207q-178 199 -178 537zM395 719q0 -217 90 -357q106 -162 312 -161q205 0 311 161q90 139 90 357q0 211 -94 350q-109 160 -307 160 q-199 0 -308 -160q-94 -139 -94 -350zM467 1571v238h238v-238h-238zM889 1571v238h237v-238h-237z" />
<glyph unicode="&#xd7;" horiz-adv-x="1228" d="M135 186l332 332l-332 332l148 147l331 -331l332 331l148 -147l-334 -332l334 -332l-148 -147l-332 334l-331 -334z" />
<glyph unicode="&#xd8;" horiz-adv-x="1593" d="M96 719q0 336 183.5 535.5t517.5 199.5q236 0 405 -108l111 143l92 -76l-111 -143q203 -199 203 -551q0 -334 -180 -535q-188 -209 -520 -209q-250 0 -418 117l-117 -151l-92 73l121 156q-195 190 -195 549zM395 719q0 -191 72 -322l575 742q-100 90 -245 90 q-199 0 -308 -160q-94 -139 -94 -350zM541 299q98 -98 256 -98q205 0 311 161q90 139 90 357q0 192 -80 323z" />
<glyph unicode="&#xd9;" horiz-adv-x="1478" d="M156 516v914h286v-826q0 -403 297 -403t297 403v826h287v-914q0 -541 -584 -541q-583 0 -583 541zM456 1821h281l170 -299h-170z" />
<glyph unicode="&#xda;" horiz-adv-x="1478" d="M156 516v914h286v-826q0 -403 297 -403t297 403v826h287v-914q0 -541 -584 -541q-583 0 -583 541zM571 1522l170 299h281l-281 -299h-170z" />
<glyph unicode="&#xdb;" horiz-adv-x="1478" d="M156 516v914h286v-826q0 -403 297 -403t297 403v826h287v-914q0 -541 -584 -541q-583 0 -583 541zM416 1522l225 299h207l215 -299h-182l-139 176l-144 -176h-182z" />
<glyph unicode="&#xdc;" horiz-adv-x="1478" d="M156 516v914h286v-826q0 -403 297 -403t297 403v826h287v-914q0 -541 -584 -541q-583 0 -583 541zM410 1571v238h238v-238h-238zM832 1571v238h237v-238h-237z" />
<glyph unicode="&#xdd;" horiz-adv-x="1366" d="M23 1430h335l338 -601l344 601h303l-512 -865v-565h-286v565zM516 1522l170 299h281l-281 -299h-170z" />
<glyph unicode="&#xde;" d="M141 0v1430h287v-238h76q596 0 596 -434q0 -236 -160 -352q-141 -100 -391 -101h-121v-305h-287zM428 530h100q272 0 273 213q0 223 -273 224h-100v-437z" />
<glyph unicode="&#xdf;" horiz-adv-x="1251" d="M147 0v1034q0 240 127 379q131 147 377 148q186 0 318 -95q147 -106 147 -282q0 -291 -272 -363v-4q154 -20 250 -125.5t96 -251.5q0 -207 -134 -329.5t-345 -122.5q-49 0 -179 22l9 213q63 -23 143 -22q219 0 219 268q0 231 -321 231v213q248 0 247 224q0 92 -46 151.5 t-136 59.5q-111 0 -172 -93q-53 -82 -53 -198v-1057h-275z" />
<glyph unicode="&#xe0;" d="M74 289q0 213 180 301q125 61 354 61h152q0 125 -56.5 176.5t-181.5 51.5q-173 0 -325 -115l-9 235q174 80 367 80q240 0 347.5 -105.5t107.5 -338.5v-135q0 -106 4 -264q2 -111 12 -236h-242q-4 20 -12 158h-4q-47 -84 -137 -133.5t-189 -49.5q-150 0 -254 82 q-115 88 -114 232zM252 1497h281l170 -299h-170zM336 305q0 -129 174 -129q164 0 225 152q25 63 25 159h-119q-305 0 -305 -182z" />
<glyph unicode="&#xe1;" d="M74 289q0 213 180 301q125 61 354 61h152q0 125 -56.5 176.5t-181.5 51.5q-173 0 -325 -115l-9 235q174 80 367 80q240 0 347.5 -105.5t107.5 -338.5v-135q0 -106 4 -264q2 -111 12 -236h-242q-4 20 -12 158h-4q-47 -84 -137 -133.5t-189 -49.5q-150 0 -254 82 q-115 88 -114 232zM336 305q0 -129 174 -129q164 0 225 152q25 63 25 159h-119q-305 0 -305 -182zM417 1198l170 299h281l-281 -299h-170z" />
<glyph unicode="&#xe2;" d="M74 289q0 213 180 301q125 61 354 61h152q0 125 -56.5 176.5t-181.5 51.5q-173 0 -325 -115l-9 235q174 80 367 80q240 0 347.5 -105.5t107.5 -338.5v-135q0 -106 4 -264q2 -111 12 -236h-242q-4 20 -12 158h-4q-47 -84 -137 -133.5t-189 -49.5q-150 0 -254 82 q-115 88 -114 232zM246 1198l225 299h207l215 -299h-182l-139 176l-144 -176h-182zM336 305q0 -129 174 -129q164 0 225 152q25 63 25 159h-119q-305 0 -305 -182z" />
<glyph unicode="&#xe3;" d="M74 289q0 213 180 301q125 61 354 61h152q0 125 -56.5 176.5t-181.5 51.5q-173 0 -325 -115l-9 235q174 80 367 80q240 0 347.5 -105.5t107.5 -338.5v-135q0 -106 4 -264q2 -111 12 -236h-242q-4 20 -12 158h-4q-47 -84 -137 -133.5t-189 -49.5q-150 0 -254 82 q-115 88 -114 232zM207 1235q0 96 60.5 172t148.5 76q59 0 166 -41q117 -45 149 -45q90 0 91 100h110q0 -106 -53 -177t-145 -71q-82 0 -178.5 38t-137.5 38q-49 0 -74.5 -27.5t-25.5 -62.5h-111zM336 305q0 -129 174 -129q164 0 225 152q25 63 25 159h-119 q-305 0 -305 -182z" />
<glyph unicode="&#xe4;" d="M74 289q0 213 180 301q125 61 354 61h152q0 125 -56.5 176.5t-181.5 51.5q-173 0 -325 -115l-9 235q174 80 367 80q240 0 347.5 -105.5t107.5 -338.5v-135q0 -106 4 -264q2 -111 12 -236h-242q-4 20 -12 158h-4q-47 -84 -137 -133.5t-189 -49.5q-150 0 -254 82 q-115 88 -114 232zM240 1247v238h238v-238h-238zM336 305q0 -129 174 -129q164 0 225 152q25 63 25 159h-119q-305 0 -305 -182zM662 1247v238h237v-238h-237z" />
<glyph unicode="&#xe5;" d="M74 289q0 213 180 301q125 61 354 61h152q0 125 -56.5 176.5t-181.5 51.5q-173 0 -325 -115l-9 235q174 80 367 80q240 0 347.5 -105.5t107.5 -338.5v-135q0 -106 4 -264q2 -111 12 -236h-242q-4 20 -12 158h-4q-47 -84 -137 -133.5t-189 -49.5q-150 0 -254 82 q-115 88 -114 232zM336 305q0 -129 174 -129q164 0 225 152q25 63 25 159h-119q-305 0 -305 -182zM353 1403q0 90 65.5 154.5t153.5 64.5q90 0 153.5 -64.5t63.5 -154.5t-63.5 -153.5t-153.5 -63.5t-154.5 63.5t-64.5 153.5zM463 1403q0 -45 32 -76t77 -31t75.5 31t30.5 76 t-30.5 76.5t-75.5 31.5t-77 -30.5t-32 -77.5z" />
<glyph unicode="&#xe6;" horiz-adv-x="1820" d="M74 289q0 199 174 291q135 72 354 71h158q0 117 -55.5 173.5t-188.5 56.5q-172 0 -326 -117l-8 235q174 80 375 80q123 0 195 -22q90 -31 163 -111q127 133 361 133q471 0 471 -637h-725q0 -125 86 -195.5t217 -70.5q160 1 350 107v-224q-152 -84 -362 -84 q-309 0 -443 191q-57 -94 -170 -146q-104 -47 -223 -45q-170 2 -276 72q-127 82 -127 242zM336 289q0 -47 42 -80t114 -33q143 0 208 78q59 74 60 233h-119q-305 1 -305 -198zM1022 631h463q0 106 -51 172q-57 76 -164 76q-117 0 -182.5 -71t-65.5 -177z" />
<glyph unicode="&#xe7;" horiz-adv-x="909" d="M74 532q0 238 131 388q139 160 379 159q149 0 266 -35l-25 -217q-84 39 -186 39q-127 0 -203 -92t-76 -242q0 -154 70 -245q76 -98 215 -99q98 0 211 50l12 -228q-113 -35 -274 -35q-252 0 -389 158q-131 150 -131 399zM324 -412l41 111q98 -31 143 -31q109 0 108 72 q0 74 -90 74q-35 0 -86 -19l-30 53l120 152h129l-94 -109l4 -4q74 12 84 13q66 0 115 -37t49 -105q0 -109 -82 -166q-70 -47 -174 -47q-143 0 -237 43z" />
<glyph unicode="&#xe8;" d="M74 522q0 242 123 393q131 164 366 164q276 0 398 -180q104 -154 104 -457h-729q8 -125 90 -195.5t211 -70.5q160 1 350 107v-224q-152 -84 -362 -84q-262 0 -406.5 143.5t-144.5 403.5zM252 1497h281l170 -299h-170zM336 631h467q-14 248 -223 248q-221 0 -244 -248z " />
<glyph unicode="&#xe9;" d="M74 522q0 242 123 393q131 164 366 164q276 0 398 -180q104 -154 104 -457h-729q8 -125 90 -195.5t211 -70.5q160 1 350 107v-224q-152 -84 -362 -84q-262 0 -406.5 143.5t-144.5 403.5zM336 631h467q-14 248 -223 248q-221 0 -244 -248zM417 1198l170 299h281l-281 -299 h-170z" />
<glyph unicode="&#xea;" d="M74 522q0 242 123 393q131 164 366 164q276 0 398 -180q104 -154 104 -457h-729q8 -125 90 -195.5t211 -70.5q160 1 350 107v-224q-152 -84 -362 -84q-262 0 -406.5 143.5t-144.5 403.5zM246 1198l225 299h207l215 -299h-182l-139 176l-144 -176h-182zM336 631h467 q-14 248 -223 248q-221 0 -244 -248z" />
<glyph unicode="&#xeb;" d="M74 522q0 242 123 393q131 164 366 164q276 0 398 -180q104 -154 104 -457h-729q8 -125 90 -195.5t211 -70.5q160 1 350 107v-224q-152 -84 -362 -84q-262 0 -406.5 143.5t-144.5 403.5zM240 1247v238h238v-238h-238zM336 631h467q-14 248 -223 248q-221 0 -244 -248z M662 1247v238h237v-238h-237z" />
<glyph unicode="&#xec;" horiz-adv-x="569" d="M-33 1497h281l170 -299h-170zM147 0v1055h275v-1055h-275z" />
<glyph unicode="&#xed;" horiz-adv-x="569" d="M133 1198l170 299h281l-281 -299h-170zM147 0v1055h275v-1055h-275z" />
<glyph unicode="&#xee;" horiz-adv-x="569" d="M-39 1198l225 299h207l215 -299h-182l-139 176l-144 -176h-182zM147 0v1055h275v-1055h-275z" />
<glyph unicode="&#xef;" horiz-adv-x="569" d="M-45 1247v238h238v-238h-238zM147 0v1055h275v-1055h-275zM377 1247v238h237v-238h-237z" />
<glyph unicode="&#xf0;" horiz-adv-x="1251" d="M74 520q-2 221 123 373q135 162 354 162q150 0 252 -66h4q-66 139 -217 254l-189 -123l-104 97l170 110q-100 63 -203 98l125 140q135 -49 260 -121l189 121l104 -97l-170 -108q399 -307 399 -782q0 -291 -142 -447t-404 -156q-254 0 -406 160q-143 150 -145 385z M360 514q0 -131 60 -219q72 -106 207 -107q131 0 198 101q59 88 60 225q0 125 -60 217q-71 111 -196 111q-127 0 -203 -109q-66 -92 -66 -219z" />
<glyph unicode="&#xf1;" horiz-adv-x="1251" d="M141 0v1055h260v-144h5q119 168 346 168q180 0 272 -116q86 -109 86 -297v-666h-274v563q0 139 -23 201q-39 102 -156 102q-133 0 -194 -125q-47 -92 -47 -225v-516h-275zM264 1235q0 96 60.5 172t148.5 76q59 0 166 -41q117 -45 149 -45q90 0 91 100h110 q0 -106 -53 -177t-145 -71q-82 0 -178.5 38t-137.5 38q-49 0 -74.5 -27.5t-25.5 -62.5h-111z" />
<glyph unicode="&#xf2;" horiz-adv-x="1251" d="M74 520q0 256 159 410q152 150 392 149q240 0 396.5 -151.5t156.5 -407.5q0 -236 -146 -385q-152 -160 -407 -160q-254 0 -406 160q-145 149 -145 385zM309 1497h281l170 -299h-170zM360 553q0 -365 265 -365q266 0 266 365q0 131 -66 217q-74 96 -200 96 q-127 0 -199 -98q-66 -86 -66 -215z" />
<glyph unicode="&#xf3;" horiz-adv-x="1251" d="M74 520q0 256 159 410q152 150 392 149q240 0 396.5 -151.5t156.5 -407.5q0 -236 -146 -385q-152 -160 -407 -160q-254 0 -406 160q-145 149 -145 385zM360 553q0 -365 265 -365q266 0 266 365q0 131 -66 217q-74 96 -200 96q-127 0 -199 -98q-66 -86 -66 -215zM475 1198 l170 299h281l-281 -299h-170z" />
<glyph unicode="&#xf4;" horiz-adv-x="1251" d="M74 520q0 256 159 410q152 150 392 149q240 0 396.5 -151.5t156.5 -407.5q0 -236 -146 -385q-152 -160 -407 -160q-254 0 -406 160q-145 149 -145 385zM303 1198l225 299h207l215 -299h-182l-139 176l-144 -176h-182zM360 553q0 -365 265 -365q266 0 266 365 q0 131 -66 217q-74 96 -200 96q-127 0 -199 -98q-66 -86 -66 -215z" />
<glyph unicode="&#xf5;" horiz-adv-x="1251" d="M74 520q0 256 159 410q152 150 392 149q240 0 396.5 -151.5t156.5 -407.5q0 -236 -146 -385q-152 -160 -407 -160q-254 0 -406 160q-145 149 -145 385zM264 1235q0 96 60.5 172t148.5 76q59 0 166 -41q117 -45 149 -45q90 0 91 100h110q0 -106 -53 -177t-145 -71 q-82 0 -178.5 38t-137.5 38q-49 0 -74.5 -27.5t-25.5 -62.5h-111zM360 553q0 -365 265 -365q266 0 266 365q0 131 -66 217q-74 96 -200 96q-127 0 -199 -98q-66 -86 -66 -215z" />
<glyph unicode="&#xf6;" horiz-adv-x="1251" d="M74 520q0 256 159 410q152 150 392 149q240 0 396.5 -151.5t156.5 -407.5q0 -236 -146 -385q-152 -160 -407 -160q-254 0 -406 160q-145 149 -145 385zM297 1247v238h238v-238h-238zM360 553q0 -365 265 -365q266 0 266 365q0 131 -66 217q-74 96 -200 96 q-127 0 -199 -98q-66 -86 -66 -215zM719 1247v238h237v-238h-237z" />
<glyph unicode="&#xf7;" horiz-adv-x="1228" d="M94 412v213h1041v-213h-1041zM457 111q0 70 44 113.5t113 43.5q70 0 114 -44t44 -113q0 -70 -44 -114t-114 -44t-113.5 44t-43.5 114zM457 926q0 70 43.5 113.5t113.5 43.5t114 -44t44 -113q0 -70 -44 -114t-114 -44t-113.5 44t-43.5 114z" />
<glyph unicode="&#xf8;" horiz-adv-x="1251" d="M74 520q0 256 159 410q152 150 392 149q178 0 315 -86l111 133l82 -67l-111 -133q156 -152 156 -406q0 -236 -146 -385q-152 -160 -407 -160q-182 0 -322 88l-113 -135l-84 68l115 137q-147 147 -147 387zM360 553q0 -123 37 -209l389 467q-66 55 -161 55 q-127 0 -199 -98q-66 -86 -66 -215zM459 250q66 -61 166 -62q266 0 266 365q0 96 -37 172z" />
<glyph unicode="&#xf9;" horiz-adv-x="1251" d="M141 389v666h275v-563q0 -139 22 -201q39 -102 156 -103q133 0 194 125q47 92 48 226v516h274v-1055h-260v143h-4q-137 -168 -346 -168q-180 0 -273 119q-86 106 -86 295zM309 1497h281l170 -299h-170z" />
<glyph unicode="&#xfa;" horiz-adv-x="1251" d="M141 389v666h275v-563q0 -139 22 -201q39 -102 156 -103q133 0 194 125q47 92 48 226v516h274v-1055h-260v143h-4q-137 -168 -346 -168q-180 0 -273 119q-86 106 -86 295zM475 1198l170 299h281l-281 -299h-170z" />
<glyph unicode="&#xfb;" horiz-adv-x="1251" d="M141 389v666h275v-563q0 -139 22 -201q39 -102 156 -103q133 0 194 125q47 92 48 226v516h274v-1055h-260v143h-4q-137 -168 -346 -168q-180 0 -273 119q-86 106 -86 295zM303 1198l225 299h207l215 -299h-182l-139 176l-144 -176h-182z" />
<glyph unicode="&#xfc;" horiz-adv-x="1251" d="M141 389v666h275v-563q0 -139 22 -201q39 -102 156 -103q133 0 194 125q47 92 48 226v516h274v-1055h-260v143h-4q-137 -168 -346 -168q-180 0 -273 119q-86 106 -86 295zM297 1247v238h238v-238h-238zM719 1247v238h237v-238h-237z" />
<glyph unicode="&#xfd;" d="M23 1055h303l254 -770h4l254 770h278l-395 -1047q-94 -250 -146 -319q-104 -143 -292 -144q-96 0 -195 29l18 203q53 -18 142 -19q82 0 130 51.5t48 137.5zM417 1198l170 299h281l-281 -299h-170z" />
<glyph unicode="&#xfe;" horiz-adv-x="1251" d="M141 -430v1966h275v-618h4q96 162 315 161q227 0 342 -166q100 -143 101 -383q0 -240 -101 -385q-115 -170 -342 -170q-203 0 -315 144h-4v-549h-275zM418 530q0 -133 53 -227q63 -115 188 -115q123 0 185 117q47 92 47 225q0 131 -47 222q-59 114 -180 114t-189 -112 q-57 -94 -57 -224z" />
<glyph unicode="&#xff;" d="M23 1055h303l254 -770h4l254 770h278l-395 -1047q-94 -250 -146 -319q-104 -143 -292 -144q-96 0 -195 29l18 203q53 -18 142 -19q82 0 130 51.5t48 137.5zM240 1247v238h238v-238h-238zM662 1247v238h237v-238h-237z" />
<glyph unicode="&#x152;" horiz-adv-x="1933" d="M96 707q0 360 211 553q201 182 559 182q72 0 212.5 -6t209.5 -6h535v-226h-533v-352h488v-225h-488v-402h541v-225h-543q-76 0 -228.5 -6t-230.5 -6q-733 0 -733 719zM395 707q0 -219 119 -353q125 -139 346 -141q60 0 144 12v979q-86 12 -152 13q-215 0 -336 -138.5 t-121 -371.5z" />
<glyph unicode="&#x153;" horiz-adv-x="1933" d="M74 520q0 256 159 410q152 150 392 149q262 0 393 -180q123 180 368 180q474 0 474 -637h-689q2 -131 86 -200q78 -66 207 -66q170 0 314 105l8 -224q-139 -82 -330 -82q-315 0 -428 175q-125 -174 -403 -175q-254 0 -406 160q-145 150 -145 385zM360 526q0 -147 58 -239 q68 -111 207 -111q141 0 213 107q59 92 59 239q0 150 -59 244q-72 113 -213 113q-129 0 -203 -117q-62 -99 -62 -236zM1171 631h426q-8 248 -208 248q-100 0 -159 -74t-59 -174z" />
<glyph unicode="&#x178;" horiz-adv-x="1366" d="M23 1430h335l338 -601l344 601h303l-512 -865v-565h-286v565zM354 1571v238h238v-238h-238zM776 1571v238h237v-238h-237z" />
<glyph unicode="&#x2c6;" horiz-adv-x="569" d="M-39 1198l225 299h207l215 -299h-182l-139 176l-144 -176h-182z" />
<glyph unicode="&#x2dc;" horiz-adv-x="569" d="M-78 1235q0 96 60.5 172t148.5 76q59 0 166 -41q117 -45 149 -45q90 0 91 100h110q0 -106 -53 -177t-145 -71q-82 0 -178.5 38t-137.5 38q-49 0 -74.5 -27.5t-25.5 -62.5h-111z" />
<glyph unicode="&#x2000;" horiz-adv-x="957" />
<glyph unicode="&#x2001;" horiz-adv-x="1915" />
<glyph unicode="&#x2002;" horiz-adv-x="957" />
<glyph unicode="&#x2003;" horiz-adv-x="1915" />
<glyph unicode="&#x2004;" horiz-adv-x="638" />
<glyph unicode="&#x2005;" horiz-adv-x="478" />
<glyph unicode="&#x2006;" horiz-adv-x="319" />
<glyph unicode="&#x2007;" horiz-adv-x="319" />
<glyph unicode="&#x2008;" horiz-adv-x="239" />
<glyph unicode="&#x2009;" horiz-adv-x="383" />
<glyph unicode="&#x200a;" horiz-adv-x="106" />
<glyph unicode="&#x2010;" horiz-adv-x="681" d="M72 438v226h538v-226h-538z" />
<glyph unicode="&#x2011;" horiz-adv-x="681" d="M72 438v226h538v-226h-538z" />
<glyph unicode="&#x2012;" horiz-adv-x="681" d="M72 438v226h538v-226h-538z" />
<glyph unicode="&#x2013;" horiz-adv-x="1024" d="M0 457v188h1024v-188h-1024z" />
<glyph unicode="&#x2014;" horiz-adv-x="2048" d="M0 457v188h2048v-188h-2048z" />
<glyph unicode="&#x2018;" horiz-adv-x="569" d="M70 918l186 512h244l-129 -512h-301z" />
<glyph unicode="&#x2019;" horiz-adv-x="569" d="M70 918l131 512h299l-189 -512h-241z" />
<glyph unicode="&#x201a;" horiz-adv-x="569" d="M70 -225l131 512h299l-189 -512h-241z" />
<glyph unicode="&#x201c;" horiz-adv-x="985" d="M70 918l186 512h244l-129 -512h-301zM485 918l187 512h243l-129 -512h-301z" />
<glyph unicode="&#x201d;" horiz-adv-x="985" d="M70 918l131 512h299l-189 -512h-241zM485 918l131 512h299l-188 -512h-242z" />
<glyph unicode="&#x201e;" horiz-adv-x="985" d="M70 -225l131 512h299l-189 -512h-241zM485 -225l131 512h299l-188 -512h-242z" />
<glyph unicode="&#x2022;" horiz-adv-x="1024" d="M156 715q0 147 104.5 251.5t251.5 104.5t252.5 -104.5t105.5 -251.5t-105.5 -253t-252.5 -106t-251.5 106t-104.5 253z" />
<glyph unicode="&#x2026;" horiz-adv-x="2048" d="M199 0v287h286v-287h-286zM881 0v287h286v-287h-286zM1563 0v287h286v-287h-286z" />
<glyph unicode="&#x202f;" horiz-adv-x="383" />
<glyph unicode="&#x2039;" horiz-adv-x="681" d="M100 551l242 420h258l-225 -420l225 -420h-258z" />
<glyph unicode="&#x203a;" horiz-adv-x="681" d="M82 131l225 420l-225 420h258l242 -420l-242 -420h-258z" />
<glyph unicode="&#x205f;" horiz-adv-x="478" />
<glyph unicode="&#x2122;" horiz-adv-x="2048" d="M98 1266v164h693v-164h-240v-688h-213v688h-240zM952 578v852h297l203 -533l201 533h297v-852h-201v602h-4l-217 -602h-154l-217 602h-4v-602h-201z" />
<glyph unicode="&#x25fc;" horiz-adv-x="1054" d="M0 0v1055h1055v-1055h-1055z" />
</font>
</defs>
</svg>
