<?xml version="1.0" standalone="no"?>
<!DOCTYPE svg PUBLIC "-//W3C//DTD SVG 1.1//EN" "http://www.w3.org/Graphics/SVG/1.1/DTD/svg11.dtd" >
<svg xmlns="http://www.w3.org/2000/svg">
<metadata></metadata>
<defs>
<font id="frutigerblack" horiz-adv-x="1251" >
<font-face units-per-em="2048" ascent="1638" descent="-410" />
<missing-glyph horiz-adv-x="626" />
<glyph horiz-adv-x="0" />
<glyph unicode="&#xd;" horiz-adv-x="626" />
<glyph unicode=" "  horiz-adv-x="626" />
<glyph unicode="&#x09;" horiz-adv-x="626" />
<glyph unicode="&#xa0;" horiz-adv-x="626" />
<glyph unicode="!" horiz-adv-x="909" d="M264 1430h381l-53 -945h-275zM283 0v332h344v-332h-344z" />
<glyph unicode="&#x22;" d="M291 874v556h270v-556h-270zM690 874v556h271v-556h-271z" />
<glyph unicode="#" horiz-adv-x="1253" d="M119 383v221h203l30 225h-172v222h203l53 379h217l-53 -379h178l51 379h215l-51 -379h142v-222h-172l-31 -225h141v-221h-172l-53 -383h-215l53 383h-178l-53 -383h-217l53 383h-172zM539 604h178l31 225h-179z" />
<glyph unicode="$" horiz-adv-x="1253" d="M78 1024q0 207 145 319q129 100 348 111v174h123v-174q246 0 379 -63l-24 -277q-168 82 -355 82v-309q236 -51 340 -133q143 -111 144 -336q0 -211 -160 -332q-141 -106 -350 -111v-176h-123v176q-276 0 -414 54l27 290q182 -73 387 -73v346q-193 29 -320 131 q-147 119 -147 301zM410 1057q-1 -128 161 -146v285q-70 -4 -115.5 -43t-45.5 -96zM668 246q178 16 178 176q0 120 -178 151v-327z" />
<glyph unicode="%" horiz-adv-x="2048" d="M98 1030q0 424 359 424q358 0 358 -424t-358 -424q-359 0 -359 424zM356 1030q0 -113 13 -160q23 -80 88 -79q66 0 88 79q12 47 12 160q0 111 -12 158q-23 82 -88 82q-66 0 -88 -82q-13 -47 -13 -158zM518 -45l782 1520h224l-781 -1520h-225zM1233 399q0 424 358 424 t359 -424q0 -424 -359 -424q-358 0 -358 424zM1491 399q0 -113 12 -159q23 -80 88 -80q66 0 88 80q12 47 13 159q0 111 -13 158q-23 82 -88 82q-66 0 -88 -82q-12 -47 -12 -158z" />
<glyph unicode="&#x26;" horiz-adv-x="1593" d="M90 410q0 258 281 389q-172 135 -172 313q0 174 153 266q127 76 322 76q213 0 342 -76q154 -92 153 -276q0 -121 -96 -215q-59 -57 -211 -146q127 -111 246 -227q86 94 94 258h332q-12 -287 -219 -489l254 -283h-408q-27 39 -86 109q-154 -133 -444 -134q-223 0 -373 107 q-168 119 -168 328zM438 418q0 -88 72 -144q66 -53 158 -53q113 0 217 78q-125 137 -318 315q-129 -69 -129 -196zM526 1094q0 -84 138 -193q174 102 174 193q0 61 -45 94t-115 33q-66 0 -109 -37t-43 -90z" />
<glyph unicode="'" horiz-adv-x="681" d="M207 874v556h270v-556h-270z" />
<glyph unicode="(" horiz-adv-x="796" d="M141 631q0 446 326 917h301q-295 -461 -295 -917q0 -442 281 -918h-291q-322 432 -322 918z" />
<glyph unicode=")" horiz-adv-x="796" d="M29 -287q295 463 295 918q0 459 -295 917h301q326 -424 325 -917q1 -451 -325 -918h-301z" />
<glyph unicode="*" d="M197 1028l77 238l273 -136l-43 300h250l-41 -295l266 131l76 -240l-295 -51l209 -211l-207 -150l-137 265l-148 -263l-201 146l211 211z" />
<glyph unicode="+" horiz-adv-x="1228" d="M96 389v258h389v389h258v-389h390v-258h-390v-389h-258v389h-389z" />
<glyph unicode="," horiz-adv-x="626" d="M4 -223l137 555h344l-200 -555h-281z" />
<glyph unicode="-" horiz-adv-x="681" d="M63 416v270h555v-270h-555z" />
<glyph unicode="." horiz-adv-x="626" d="M141 0v332h344v-332h-344z" />
<glyph unicode="/" horiz-adv-x="569" d="M-43 -25l397 1479h258l-397 -1479h-258z" />
<glyph unicode="0" horiz-adv-x="1253" d="M72 715q0 334 100 508q133 231 455 231t454 -231q100 -174 101 -508q0 -334 -101 -508q-132 -232 -454 -232t-455 232q-100 174 -100 508zM440 715q0 -221 29 -326q43 -156 158 -156t157 156q29 104 29 326q0 221 -29 325q-43 156 -157 156q-115 0 -158 -156 q-29 -104 -29 -325z" />
<glyph unicode="1" horiz-adv-x="1253" d="M133 1114l485 316h336v-1430h-381v1049l-270 -193z" />
<glyph unicode="2" horiz-adv-x="1253" d="M86 0v272q328 283 422 381q205 211 205 338q0 180 -203 180q-90 0 -198.5 -29.5t-176.5 -68.5l-14 297q233 84 424 84q250 0 395 -102q154 -111 154 -318q0 -301 -437 -676l-102 -88h565v-270h-1034z" />
<glyph unicode="3" horiz-adv-x="1253" d="M86 25l18 301q117 -68 355 -68q111 0 186 37q102 47 103 145q0 164 -261 164q-70 0 -159 -4v254q43 -4 164 -4q82 0 149 35q84 45 84 123q0 164 -246 163q-205 0 -332 -57l-18 281q201 59 416 59q238 0 381 -78q180 -100 180 -313q0 -242 -262 -313v-5 q133 -27 208.5 -110.5t75.5 -214.5q0 -240 -206 -354q-164 -90 -418 -91q-281 0 -418 50z" />
<glyph unicode="4" horiz-adv-x="1253" d="M16 272v303l574 855h422v-900h202v-258h-202v-272h-357v272h-639zM287 530h393v605h-4z" />
<glyph unicode="5" horiz-adv-x="1253" d="M139 27l6 309q158 -78 349 -78q289 0 288 229q0 111 -102 164q-82 45 -215 45q-178 1 -311 -34l10 768h932v-259h-604v-237q106 8 112 8q238 0 383 -102q164 -117 164 -340q0 -276 -195 -412q-162 -113 -434 -113q-174 0 -383 52z" />
<glyph unicode="6" horiz-adv-x="1253" d="M84 653q0 360 137 566q160 236 494 235q204 1 370 -65l-22 -281q-113 76 -301 76q-330 0 -334 -420h4q102 145 309 145q193 0 314 -129q115 -125 114 -321q0 -201 -151.5 -342.5t-384.5 -141.5q-287 0 -428 205q-121 176 -121 473zM444 440q0 -92 49.5 -155.5 t137.5 -63.5q86 0 134 58.5t48 144.5q0 227 -182 227q-88 0 -137.5 -61.5t-49.5 -149.5z" />
<glyph unicode="7" horiz-adv-x="1253" d="M102 1159v271h1028v-310l-512 -1120h-409l532 1159h-639z" />
<glyph unicode="8" horiz-adv-x="1253" d="M68 383q0 270 282 352v2q-104 35 -172 117q-74 86 -74 188q0 213 162 320q139 92 375 92q223 0 352 -88q139 -96 140 -279q0 -240 -236 -327v-4q289 -92 289 -353q0 -217 -168 -329q-150 -98 -393 -99q-248 0 -394 95q-164 104 -163 313zM436 412q0 -76 54.5 -127.5 t130.5 -51.5q84 0 140 50.5t56 134.5q0 143 -215 207q-166 -78 -166 -213zM449 1040q0 -72 55 -120q35 -29 123 -68q162 92 161 205q0 72 -55 114q-47 37 -117 37t-118.5 -48t-48.5 -120z" />
<glyph unicode="9" horiz-adv-x="1253" d="M84 971q0 201 151.5 342t385.5 141q287 0 428 -205q121 -176 120 -473q0 -360 -137 -565q-160 -236 -493 -236q-205 0 -371 66l22 281q115 -76 302 -76q330 0 333 420h-4q-102 -145 -309 -146q-193 0 -310.5 127t-117.5 324zM440 1006q0 -227 183 -228q88 0 137 61.5 t49 149.5q0 92 -49 155.5t-137 63.5q-86 0 -134.5 -58t-48.5 -144z" />
<glyph unicode=":" horiz-adv-x="626" d="M141 0v332h344v-332h-344zM141 735v332h344v-332h-344z" />
<glyph unicode=";" horiz-adv-x="626" d="M4 -223l137 555h344l-200 -555h-281zM141 735v332h344v-332h-344z" />
<glyph unicode="&#x3c;" horiz-adv-x="1228" d="M96 410v217l1037 426v-250l-699 -285l699 -285v-249z" />
<glyph unicode="=" horiz-adv-x="1228" d="M96 154v258h1037v-258h-1037zM96 625v258h1037v-258h-1037z" />
<glyph unicode="&#x3e;" horiz-adv-x="1228" d="M96 -16v249l699 285l-699 285v250l1037 -426v-217z" />
<glyph unicode="?" horiz-adv-x="1138" d="M133 1395q193 59 430 59q197 0 332 -76q162 -92 162 -268q0 -117 -82 -225q-78 -88 -156 -178q-86 -109 -96 -222h-299q0 111 68 220q63 82 129 165q68 92 67 166q0 72 -76 113q-63 35 -149 35q-172 0 -322 -76zM401 0v332h344v-332h-344z" />
<glyph unicode="@" horiz-adv-x="1638" d="M76 715q0 317 220 528t560 211q295 0 496 -162q211 -170 211 -436q0 -293 -217 -455q-158 -117 -306 -116q-102 0 -104 100h-4q-90 -100 -207 -100q-129 0 -222 112.5t-93 282.5q0 166 109.5 289t279.5 123q162 0 245 -117l19 96h192l-69 -428q-20 -125 -21 -113 q0 -39 27 -38q66 0 115 71q57 82 59 230q4 465 -526 464q-238 0 -384.5 -153.5t-146.5 -392.5q0 -256 151.5 -397.5t403.5 -141.5q235 0 391 109h209q-221 -305 -596 -306q-338 0 -565 209t-227 531zM631 678q0 -86 45 -141.5t127 -55.5q88 0 139 62.5t51 161.5 q0 84 -47 137t-123 53q-86 0 -139 -65.5t-53 -151.5z" />
<glyph unicode="A" horiz-adv-x="1593" d="M16 0l543 1430h467l551 -1430h-418l-106 305h-537l-113 -305h-387zM604 575h359l-170 560h-5z" />
<glyph unicode="B" horiz-adv-x="1366" d="M123 0v1430h657q209 0 332 -89q133 -96 133 -274q0 -250 -252 -334v-4q289 -59 289 -315q0 -414 -557 -414h-602zM504 270h112q285 0 285 166q0 104 -90 144q-61 26 -181 26h-9h-117v-336zM504 864h106q254 0 254 152q0 88 -78 121q-51 22 -162 22h-10h-110v-295z" />
<glyph unicode="C" horiz-adv-x="1366" d="M80 709q0 360 233 559q219 186 586 186q176 0 424 -74l-31 -309q-182 100 -372 100q-201 0 -324 -130t-123 -332q0 -207 135 -330q129 -121 342 -121q169 0 357 74l18 -299q-233 -57 -424 -58q-330 0 -553 164q-268 197 -268 570z" />
<glyph unicode="D" horiz-adv-x="1593" d="M133 0v1430h520q408 0 611 -148q236 -170 235 -561q0 -721 -846 -721h-520zM514 283h148q444 0 444 432q0 211 -117 321.5t-327 110.5h-148v-864z" />
<glyph unicode="E" d="M123 0v1430h1007v-271h-626v-295h592v-270h-592v-324h649v-270h-1030z" />
<glyph unicode="F" horiz-adv-x="1138" d="M123 0v1430h956v-271h-575v-313h551v-271h-551v-575h-381z" />
<glyph unicode="G" horiz-adv-x="1593" d="M80 709q0 385 256 575q229 170 647 170q266 0 432 -63l-31 -312q-158 92 -348 92q-252 0 -397 -106q-166 -119 -166 -356q0 -207 135 -330q129 -121 342 -121q84 0 135 25v282h-223v271h592v-795q-258 -66 -553 -66q-330 0 -553 164q-268 197 -268 570z" />
<glyph unicode="H" horiz-adv-x="1478" d="M133 0v1430h381v-547h451v547h381v-1430h-381v612h-451v-612h-381z" />
<glyph unicode="I" horiz-adv-x="684" d="M152 0v1430h380v-1430h-380z" />
<glyph unicode="J" horiz-adv-x="909" d="M29 14v316q74 -35 172 -35q195 0 194 313v822h381v-936q0 -518 -512 -519q-79 0 -235 39z" />
<glyph unicode="K" horiz-adv-x="1478" d="M133 0v1430h381v-584h4l430 584h459l-528 -666l569 -764h-485l-445 649h-4v-649h-381z" />
<glyph unicode="L" horiz-adv-x="1138" d="M133 0v1430h381v-1147h590v-283h-971z" />
<glyph unicode="M" horiz-adv-x="2048" d="M123 0v1430h600l303 -951h4l318 951h577v-1430h-373l7 1098h-5l-364 -1098h-350l-348 1098h-5l9 -1098h-373z" />
<glyph unicode="N" horiz-adv-x="1593" d="M139 0v1430h486l483 -971h4l-6 971h348v-1430h-473l-500 977h-4l12 -977h-350z" />
<glyph unicode="O" horiz-adv-x="1593" d="M80 715q0 348 184.5 543.5t532.5 195.5t532 -195.5t184 -543.5q0 -346 -182 -541q-188 -199 -534 -199t-531.5 197t-185.5 543zM473 715q0 -195 76 -318q86 -139 248 -139t247 139q76 123 76 318q0 201 -76 321q-84 135 -247 135q-164 0 -248 -135q-76 -120 -76 -321z " />
<glyph unicode="P" d="M113 0v1430h454q328 0 484.5 -114t156.5 -355q0 -217 -150.5 -339t-416.5 -122h-147v-500h-381zM494 770h98q235 0 235 195q0 194 -233 194h-2h-98v-389z" />
<glyph unicode="Q" horiz-adv-x="1593" d="M80 715q0 348 184.5 543.5t532.5 195.5t532 -195.5t184 -543.5q0 -502 -364 -668l338 -317h-430l-240 245h-20q-346 0 -531.5 197t-185.5 543zM473 715q0 -195 76 -318q86 -139 248 -139t247 139q76 123 76 318q0 201 -76 321q-84 135 -247 135q-164 0 -248 -135 q-76 -120 -76 -321z" />
<glyph unicode="R" horiz-adv-x="1366" d="M123 0v1430h680q203 0 325 -89q135 -96 136 -272q0 -297 -275 -360v-4q82 -23 123 -105q10 -18 80 -211l139 -389h-397l-82 258q-59 186 -111.5 246.5t-156.5 60.5h-80v-565h-381zM504 836h100q129 0 187 22q92 37 92 143q0 158 -279 158h-100v-323z" />
<glyph unicode="S" d="M90 1016q0 236 205 348q162 90 418 90q213 0 368 -53l-24 -295q-141 65 -313 65h-5q-256 0 -256 -133q0 -88 176 -141q260 -80 324 -119q176 -109 176 -332q0 -471 -629 -471q-236 1 -426 62l33 315q174 -94 393 -94q236 0 236 139q0 104 -176 164q-279 94 -324 123 q-176 109 -176 332z" />
<glyph unicode="T" horiz-adv-x="1138" d="M27 1147v283h1085v-283h-352v-1147h-381v1147h-352z" />
<glyph unicode="U" horiz-adv-x="1478" d="M113 543v887h381v-824q0 -348 245 -348q246 0 246 348v824h381v-887q0 -285 -174 -430q-162 -137 -453 -138q-291 0 -452 138q-174 145 -174 430z" />
<glyph unicode="V" horiz-adv-x="1478" d="M20 1430h406l317 -1123h5l319 1123h391l-487 -1430h-471z" />
<glyph unicode="W" horiz-adv-x="2048" d="M16 1430h390l184 -1098h4l192 1098h484l200 -1098h5l186 1098h371l-320 -1430h-489l-203 1098h-4l-189 -1098h-493z" />
<glyph unicode="X" horiz-adv-x="1478" d="M20 0l463 752l-413 678h444l240 -472l245 472h418l-418 -678l459 -752h-454l-277 526l-274 -526h-433z" />
<glyph unicode="Y" horiz-adv-x="1478" d="M23 1430h438l280 -574l277 574h438l-524 -891v-539h-381v539z" />
<glyph unicode="Z" d="M53 0v303l680 844h-661v283h1095v-304l-700 -843h704v-283h-1118z" />
<glyph unicode="[" horiz-adv-x="796" d="M180 -287v1835h541v-233h-234v-1368h234v-234h-541z" />
<glyph unicode="\" horiz-adv-x="569" d="M-43 1454h258l397 -1479h-258z" />
<glyph unicode="]" horiz-adv-x="796" d="M76 -53h233v1368h-233v233h540v-1835h-540v234z" />
<glyph unicode="^" horiz-adv-x="1228" d="M143 682l357 748h229l356 -748h-249l-222 465l-221 -465h-250z" />
<glyph unicode="_" horiz-adv-x="1024" d="M0 -154h1024v-102h-1024v102z" />
<glyph unicode="`" horiz-adv-x="681" d="M-18 1493h383l139 -295h-258z" />
<glyph unicode="a" d="M63 311q0 365 551 365q90 0 172 -14q-2 184 -243 184q-197 0 -340 -80l-6 250q186 76 426 76q225 0 356 -99q152 -115 151 -344v-397q1 -148 21 -252h-338q0 20 -4 84q-4 53 -4 84h-4q-121 -193 -338 -193q-170 0 -279 82q-121 90 -121 254zM408 338q0 -53 43 -85 t108 -32q100 0 166 80q61 74 61 172q-141 6 -155 6q-223 0 -223 -141z" />
<glyph unicode="b" horiz-adv-x="1368" d="M106 0v1536h371v-606h4q129 162 367 162q209 0 340 -172q117 -156 117 -367q0 -248 -125 -408q-133 -170 -363 -170q-125 0 -227.5 62.5t-138.5 152.5h-5v-190h-340zM475 530q0 -115 66.5 -193.5t158.5 -78.5q102 0 163 79t61 208q0 111 -59.5 187.5t-164.5 76.5 q-100 0 -162.5 -79t-62.5 -200z" />
<glyph unicode="c" horiz-adv-x="1024" d="M63 532q0 260 179 412q170 147 442 148q172 -1 293 -60l-27 -270q-98 59 -223 59q-123 0 -203 -79.5t-80 -215.5q0 -123 93 -204q86 -76 211 -76q133 0 229 51l8 -274q-141 -47 -301 -48q-272 0 -442 148q-178 152 -179 409z" />
<glyph unicode="d" horiz-adv-x="1368" d="M63 553q0 213 119 369q129 170 338 170q242 0 367 -162h4v606h371v-1536h-340v190h-4q-37 -90 -139.5 -152.5t-227.5 -62.5q-229 0 -363 170q-125 160 -125 408zM444 545q0 -129 60.5 -208t163.5 -79q94 0 159.5 79t65.5 193q0 123 -62.5 201t-162.5 78 q-104 0 -164 -76.5t-60 -187.5z" />
<glyph unicode="e" d="M63 535q0 260 162 411q156 145 410 146q279 0 418 -181q121 -156 121 -417v-68h-738q29 -205 314 -205q174 0 325 82v-260q-170 -68 -391 -68q-270 0 -442 148q-178 154 -179 412zM432 635h410q0 223 -205 223q-191 0 -205 -223z" />
<glyph unicode="f" horiz-adv-x="909" d="M27 809v258h223v66q0 231 112 333q104 94 332 95q72 0 189 -21l-23 -254q-49 16 -117 17q-131 0 -131 -170v-66h262v-258h-262v-809h-368v809h-217z" />
<glyph unicode="g" horiz-adv-x="1368" d="M63 537q0 250 117 397q125 158 365 158q233 0 362 -218h4v193h334v-942q0 -319 -160 -455q-150 -125 -483 -125q-219 0 -407 68l18 291q180 -88 360 -88q328 0 328 309v57h-4q-129 -182 -358 -182q-217 0 -346.5 148.5t-129.5 388.5zM444 543q0 -119 64 -193 q56 -67 142 -67h3q100 0 168 76.5t68 197.5q0 100 -55 170q-66 82 -181 82q-98 0 -153.5 -75.5t-55.5 -190.5z" />
<glyph unicode="h" horiz-adv-x="1366" d="M115 0v1536h368v-627h4q131 182 357 183q205 0 313 -129q94 -115 94 -297v-666h-368v516q0 268 -170 268q-229 0 -230 -333v-451h-368z" />
<glyph unicode="i" horiz-adv-x="684" d="M158 0v1067h368v-1067h-368zM158 1241v270h368v-270h-368z" />
<glyph unicode="j" horiz-adv-x="684" d="M-51 -436l8 233q27 -6 78 -6q78 0 104 66q18 45 19 143v1067h368v-1077q0 -215 -77 -322q-90 -123 -293 -123q-123 1 -207 19zM158 1241v270h368v-270h-368z" />
<glyph unicode="k" d="M115 0v1536h368v-918h4l308 449h403l-371 -489l402 -578h-447l-295 528h-4v-528h-368z" />
<glyph unicode="l" horiz-adv-x="684" d="M158 0v1536h368v-1536h-368z" />
<glyph unicode="m" horiz-adv-x="2048" d="M115 0v1067h336v-197h4q106 221 389 222q250 0 334 -205q123 205 378 205q217 0 304 -123q73 -103 73 -334v-6v-629h-368v573q0 211 -148 211q-209 0 -209 -333v-451h-368v573q0 211 -148 211q-209 0 -209 -333v-451h-368z" />
<glyph unicode="n" horiz-adv-x="1366" d="M115 0v1067h336v-197h4q106 221 389 222q205 0 313 -129q94 -115 94 -297v-666h-368v516q0 268 -170 268q-229 0 -230 -333v-451h-368z" />
<glyph unicode="o" horiz-adv-x="1368" d="M63 532q0 260 179 412q170 147 442 148q272 0 442 -148q178 -152 179 -412q0 -258 -179 -409q-170 -148 -442 -148t-442 148q-178 152 -179 409zM444 532q0 -129 56 -208q63 -91 184 -91t184 91q55 80 56 208q0 131 -56 211q-63 90 -184 91q-121 0 -184 -91 q-55 -80 -56 -211z" />
<glyph unicode="p" horiz-adv-x="1368" d="M106 -430v1497h340v-193h5q106 217 397 218q209 0 340 -172q117 -156 117 -367q0 -248 -125 -408q-133 -170 -363 -170q-242 0 -338 175h-4v-580h-369zM475 530q0 -115 66.5 -193.5t158.5 -78.5q102 0 163 79t61 208q0 111 -59.5 187.5t-164.5 76.5q-100 0 -162.5 -79 t-62.5 -200z" />
<glyph unicode="q" horiz-adv-x="1368" d="M63 553q0 213 119 369q129 170 338 170q291 0 398 -218h4v193h340v-1497h-369v580h-4q-96 -174 -338 -175q-229 0 -363 170q-125 160 -125 408zM444 545q0 -129 60.5 -208t163.5 -79q94 0 159.5 79t65.5 193q0 123 -62.5 201t-162.5 78q-104 0 -164 -76.5t-60 -187.5z " />
<glyph unicode="r" horiz-adv-x="909" d="M115 0v1067h336v-197h4q104 221 315 222q51 -1 125 -13l-18 -307q-41 12 -125 12q-129 0 -199 -88t-70 -245v-451h-368z" />
<glyph unicode="s" horiz-adv-x="1024" d="M66 745q0 170 147 267q127 80 307 80q219 0 375 -62l-29 -256q-119 72 -286 72q-170 0 -170 -74q0 -61 141 -98q207 -51 266 -84q141 -82 141 -258q0 -356 -497 -357q-227 1 -387 52l20 268q172 -74 346 -74q150 0 150 86q0 70 -135 109q-207 59 -254 86 q-135 78 -135 243z" />
<glyph unicode="t" horiz-adv-x="909" d="M20 809v258h218v240l362 112v-352h258v-258h-258v-393q0 -102 31 -146q33 -49 117 -49q27 0 112 15l12 -240q-174 -20 -231 -21q-236 0 -328 105q-82 90 -82 295v434h-211z" />
<glyph unicode="u" horiz-adv-x="1366" d="M115 401v666h368v-516q0 -268 170 -268q229 0 230 333v451h368v-1067h-336v197h-4q-106 -221 -389 -222q-205 0 -313 131q-94 113 -94 295z" />
<glyph unicode="v" d="M20 1067h396l221 -760h4l223 760h367l-395 -1067h-420z" />
<glyph unicode="w" horiz-adv-x="1933" d="M18 1067h385l172 -768h5l184 768h442l180 -768h5l168 768h356l-326 -1067h-428l-180 772h-4l-203 -772h-428z" />
<glyph unicode="x" d="M18 0l363 543l-334 524h436l158 -319l166 319h403l-333 -520l356 -547h-445l-178 332l-176 -332h-416z" />
<glyph unicode="y" d="M16 1067h398l229 -696h4l219 696h369l-391 -993q-111 -283 -174 -365q-125 -164 -348 -164q-115 0 -230 25l25 280q65 -22 139 -22h6q145 0 187 147z" />
<glyph unicode="z" horiz-adv-x="1024" d="M53 0v295l488 502h-478v270h900v-295l-488 -502h496v-270h-918z" />
<glyph unicode="{" horiz-adv-x="796" d="M61 539v184q176 0 177 135v410q0 137 92 213q80 68 200 67h205v-184h-96q-119 0 -119 -131v-375q0 -209 -237 -225v-4q102 -6 151 -39q86 -57 86 -201v-360q0 -131 119 -131h96v-185h-205q-121 0 -200 68q-92 76 -92 213v395q0 150 -177 150z" />
<glyph unicode="|" horiz-adv-x="454" d="M98 -25v1561h258v-1561h-258z" />
<glyph unicode="}" horiz-adv-x="796" d="M61 -102h97q119 0 118 131v374q0 209 238 226v4q-102 6 -152 41q-86 55 -86 198v361q0 131 -118 131h-97v184h205q121 0 203 -67q90 -76 90 -213v-396q0 -150 176 -149v-184q-176 0 -176 -136v-409q0 -137 -90 -213q-82 -68 -203 -68h-205v185z" />
<glyph unicode="~" horiz-adv-x="1228" d="M141 537q92 176 256 176q88 0 232.5 -65.5t204.5 -65.5q84 0 180 141l73 -223q-92 -176 -256 -176q-88 0 -232 65.5t-204 65.5q-84 0 -180 -142z" />
<glyph unicode="&#xa1;" horiz-adv-x="909" d="M264 -362l53 944h275l53 -944h-381zM283 735v332h344v-332h-344z" />
<glyph unicode="&#xa2;" horiz-adv-x="1253" d="M150 532q0 260 178 412q170 147 442 148q55 0 107 -7l73 240h121l-80 -264q27 -8 72 -29l-27 -270q-66 39 -121 51l-165 -555q43 -12 84 -12q133 0 229 51l8 -274q-141 -47 -301 -48q-53 0 -102 7l-82 -269h-123l88 293q-184 51 -292.5 188.5t-108.5 337.5zM530 526 q0 -141 113 -219l154 514q-117 -4 -192 -84t-75 -211z" />
<glyph unicode="&#xa3;" horiz-adv-x="1253" d="M109 0v270h188v389h-172v185h176v108q0 502 578 502q129 0 276 -37l-16 -270q-72 25 -170 24q-162 0 -226.5 -64.5t-64.5 -195.5v-67h311v-185h-311v-389h461v-270h-1030z" />
<glyph unicode="&#xa4;" horiz-adv-x="1253" d="M94 309l119 117q-94 94 -94 289t94 289l-119 116l129 127l117 -110q109 86 287 86q180 0 286 -86l117 110l129 -127l-119 -116q94 -94 95 -289q0 -195 -95 -289l119 -117l-129 -127l-117 111q-106 -86 -286 -86q-178 0 -287 86l-117 -111zM389 715q0 -109 68 -179.5 t170 -70.5t169.5 70.5t67.5 179.5t-67.5 179.5t-169.5 70.5t-170 -71t-68 -179z" />
<glyph unicode="&#xa5;" horiz-adv-x="1253" d="M0 1430h381l246 -578l241 578h385l-338 -680h199v-172h-283l-20 -39v-88h303v-172h-303v-279h-369v279h-303v172h303v88l-18 39h-285v172h199z" />
<glyph unicode="&#xa6;" horiz-adv-x="454" d="M98 -25v582h258v-582h-258zM98 954v582h258v-582h-258z" />
<glyph unicode="&#xa7;" d="M123 588q0 164 184 278q-70 31 -116 97.5t-46 140.5q0 350 533 350q141 0 332 -51l-17 -254q-150 59 -317 59q-162 0 -162 -94q0 -61 160 -123q231 -88 295 -129q160 -104 159 -270q0 -160 -167 -279q63 -33 103 -103.5t40 -143.5q0 -174 -182 -271q-150 -78 -353 -78 q-180 1 -397 60l18 268q178 -82 365 -82q180 0 180 107q0 68 -160 133q-248 102 -292 131q-160 100 -160 254zM430 639q0 -51 35 -84q47 -45 133 -80q80 -33 162 -63q61 72 61 155q0 55 -67.5 96t-255.5 119q-68 -80 -68 -143z" />
<glyph unicode="&#xa8;" horiz-adv-x="681" d="M-39 1198v295h295v-295h-295zM428 1198v295h295v-295h-295z" />
<glyph unicode="&#xa9;" horiz-adv-x="1638" d="M80 715q0 305 217 522t522 217t522.5 -217t217.5 -522t-217.5 -522.5t-522.5 -217.5t-522 217.5t-217 522.5zM313 715q0 -225 147.5 -378t358.5 -153t358.5 152.5t147.5 378.5q0 225 -147.5 377.5t-358.5 152.5t-358.5 -152.5t-147.5 -377.5zM432 715q0 186 107.5 305 t289.5 119q160 0 250 -82t95 -228h-197q-35 113 -148 113q-76 0 -119.5 -61.5t-43.5 -165.5t44 -167t119 -63q113 0 148 113h197q-4 -145 -94.5 -227t-250.5 -82q-182 0 -289.5 119.5t-107.5 306.5z" />
<glyph unicode="&#xaa;" horiz-adv-x="813" d="M43 983q0 129 127 184q82 37 197 37q23 0 145 -8q0 115 -158 115q-129 0 -225 -51v149q123 45 277 45q162 0 241 -41q111 -55 111 -199v-294q0 -43 12 -125h-242l-12 96h-4q-68 -113 -211 -113q-111 0 -180 49q-78 53 -78 156zM289 999q0 -78 88 -77q57 0 96 45t39 106 h-88q-135 0 -135 -74z" />
<glyph unicode="&#xab;" d="M96 551l244 418h303l-225 -418l225 -418h-303zM584 551l243 418h303l-225 -418l225 -418h-303z" />
<glyph unicode="&#xac;" horiz-adv-x="1228" d="M96 625v258h1037v-662h-259v404h-778z" />
<glyph unicode="&#xad;" horiz-adv-x="681" d="M63 416v270h555v-270h-555z" />
<glyph unicode="&#xae;" horiz-adv-x="1638" d="M80 715q0 305 217 522t522 217t522.5 -217t217.5 -522t-217.5 -522.5t-522.5 -217.5t-522 217.5t-217 522.5zM313 715q0 -225 147.5 -378t358.5 -153t358.5 152.5t147.5 378.5q0 225 -147.5 377.5t-358.5 152.5t-358.5 -152.5t-147.5 -377.5zM526 315v805h328 q158 0 229 -49q80 -55 80 -186q0 -211 -225 -221l192 -349h-196l-176 336h-35v-336h-197zM723 807h119q125 0 125 88q0 70 -142 70h-102v-158z" />
<glyph unicode="&#xaf;" horiz-adv-x="681" d="M-43 1276v172h768v-172h-768z" />
<glyph unicode="&#xb0;" horiz-adv-x="819" d="M109 1153q0 125 88 213t213 88t213 -88t88 -213t-88 -213t-213 -88t-213 88t-88 213zM264 1153q0 -59 43 -102t103 -43q59 0 102 43t43 102t-43 102t-102 43t-102.5 -43t-43.5 -102z" />
<glyph unicode="&#xb1;" horiz-adv-x="1228" d="M96 0v258h1037v-258h-1037zM96 549v258h389v229h258v-229h390v-258h-390v-230h-258v230h-389z" />
<glyph unicode="&#xb2;" horiz-adv-x="815" d="M61 578v184q397 270 398 405q0 90 -125 90q-129 0 -238 -49l-10 197q158 49 342 49q135 0 227 -63q98 -70 99 -189q0 -104 -90 -215q-49 -61 -197 -192l-37 -33h307v-184h-676z" />
<glyph unicode="&#xb3;" horiz-adv-x="815" d="M57 590l13 213q90 -45 225 -45q180 0 180 84q0 78 -162 78q-47 0 -104 -5v183q29 -6 113 -6q139 0 139 90q0 76 -154 75q-111 1 -207 -40l-12 200q129 37 287 37q369 0 368 -237q0 -145 -174 -189v-4q188 -31 189 -195q0 -145 -133 -213q-106 -55 -277 -55 q-203 0 -291 29z" />
<glyph unicode="&#xb4;" horiz-adv-x="681" d="M203 1198l139 295h383l-264 -295h-258z" />
<glyph unicode="&#xb6;" horiz-adv-x="1269" d="M37 1071q0 358 457 359h690v-1688h-246v1503h-199v-1503h-245v971q-457 0 -457 358z" />
<glyph unicode="&#xb7;" horiz-adv-x="626" d="M123 557q0 78 56.5 134.5t133.5 56.5q78 0 134.5 -56.5t56.5 -134.5t-56.5 -134t-134.5 -56t-134 56t-56 134z" />
<glyph unicode="&#xb8;" horiz-adv-x="681" d="M113 -408l34 95q96 -43 179 -43q104 0 104 63q0 72 -78 72q-27 0 -57 -12l-80 49l86 184h135l-55 -133q47 10 98 10q66 0 109 -41q51 -47 51 -137q0 -154 -270 -154q-137 0 -256 47z" />
<glyph unicode="&#xb9;" horiz-adv-x="815" d="M61 1247l312 191h231v-860h-270v589l-162 -98z" />
<glyph unicode="&#xba;" horiz-adv-x="888" d="M35 1116q0 156 117 250q113 88 292 88q180 0 293 -88q117 -94 117 -250t-114.5 -247t-295.5 -91q-180 0 -294.5 91t-114.5 247zM293 1116q0 -70 37 -115q39 -51 114 -51q76 0 117 51q35 45 35 115q0 68 -35 115q-43 51 -117 51t-112.5 -49t-38.5 -117z" />
<glyph unicode="&#xbb;" d="M121 133l225 418l-225 418h303l244 -418l-244 -418h-303zM608 133l226 418l-226 418h303l244 -418l-244 -418h-303z" />
<glyph unicode="&#xbc;" horiz-adv-x="1875" d="M61 1251l312 191h231v-860h-270v589l-162 -98zM428 -45l793 1520h223l-793 -1520h-223zM1032 145v207l367 508h309v-530h123v-185h-123v-145h-246v145h-430zM1210 330h252v352h-4z" />
<glyph unicode="&#xbd;" horiz-adv-x="1875" d="M45 1247l311 191h232v-860h-271v589l-161 -98zM412 -45l792 1520h223l-792 -1520h-223zM1139 0v184q397 270 397 406q0 90 -125 90q-129 0 -237 -49l-11 196q158 49 342 50q135 0 228 -64q98 -70 98 -188q0 -104 -90 -215q-49 -61 -197 -193l-37 -33h308v-184h-676z" />
<glyph unicode="&#xbe;" horiz-adv-x="1875" d="M57 590l13 213q90 -45 225 -45q180 0 180 84q0 78 -162 78q-47 0 -104 -5v183q29 -6 113 -6q139 0 139 90q0 76 -154 75q-111 1 -207 -40l-12 200q129 37 287 37q369 0 368 -237q0 -145 -174 -189v-4q188 -31 189 -195q0 -145 -133 -213q-106 -55 -277 -55 q-203 0 -291 29zM428 -45l793 1520h223l-793 -1520h-223zM1032 145v207l367 508h309v-530h123v-185h-123v-145h-246v145h-430zM1210 330h252v352h-4z" />
<glyph unicode="&#xbf;" horiz-adv-x="1138" d="M82 -43q0 117 82 225q78 88 155 178q86 109 97 222h299q0 -111 -68 -220q-63 -82 -129 -165q-68 -92 -67 -166q0 -72 75 -113q63 -35 150 -35q171 0 321 76l9 -287q-193 -59 -431 -59q-197 0 -331 76q-162 92 -162 268zM393 735v332h344v-332h-344z" />
<glyph unicode="&#xc0;" horiz-adv-x="1593" d="M16 0l543 1430h467l551 -1430h-418l-106 305h-537l-113 -305h-387zM439 1800h383l139 -295h-258zM604 575h359l-170 560h-5z" />
<glyph unicode="&#xc1;" horiz-adv-x="1593" d="M16 0l543 1430h467l551 -1430h-418l-106 305h-537l-113 -305h-387zM604 575h359l-170 560h-5zM631 1505l139 295h383l-264 -295h-258z" />
<glyph unicode="&#xc2;" horiz-adv-x="1593" d="M16 0l543 1430h467l551 -1430h-418l-106 305h-537l-113 -305h-387zM404 1505l231 295h332l223 -295h-256l-133 160l-141 -160h-256zM604 575h359l-170 560h-5z" />
<glyph unicode="&#xc3;" horiz-adv-x="1593" d="M16 0l543 1430h467l551 -1430h-418l-106 305h-537l-113 -305h-387zM398 1505q14 121 75 199q70 90 185 90q59 0 159.5 -37t133.5 -37q88 0 102 80h147q-35 -289 -264 -289q-57 0 -159.5 37t-131.5 37q-82 0 -100 -80h-147zM604 575h359l-170 560h-5z" />
<glyph unicode="&#xc4;" horiz-adv-x="1593" d="M16 0l543 1430h467l551 -1430h-418l-106 305h-537l-113 -305h-387zM418 1505v295h295v-295h-295zM604 575h359l-170 560h-5zM885 1505v295h295v-295h-295z" />
<glyph unicode="&#xc5;" horiz-adv-x="1593" d="M16 0l543 1430h467l551 -1430h-418l-106 305h-537l-113 -305h-387zM570 1725q0 94 67.5 161.5t161.5 67.5t161.5 -67.5t67.5 -161.5t-67.5 -162t-161.5 -68t-161.5 68t-67.5 162zM604 575h359l-170 560h-5zM701 1725q0 -41 28.5 -70t69.5 -29t69.5 29t28.5 70t-28.5 69.5 t-69.5 28.5t-69.5 -28.5t-28.5 -69.5z" />
<glyph unicode="&#xc6;" horiz-adv-x="2048" d="M-8 0l747 1430h1205v-271h-586v-295h549v-270h-549v-324h610v-270h-991v305h-436l-150 -305h-399zM674 575h303v584h-19z" />
<glyph unicode="&#xc7;" horiz-adv-x="1366" d="M80 709q0 360 233 559q219 186 586 186q176 0 424 -74l-31 -309q-182 100 -372 100q-201 0 -324 -130t-123 -332q0 -207 135 -330q129 -121 342 -121q169 0 357 74l18 -299q-233 -57 -424 -58q-330 0 -553 164q-268 197 -268 570zM566 -408l34 95q96 -43 179 -43 q104 0 104 63q0 72 -78 72q-27 0 -57 -12l-80 49l86 184h135l-55 -133q47 10 98 10q66 0 109 -41q51 -47 51 -137q0 -154 -270 -154q-137 0 -256 47z" />
<glyph unicode="&#xc8;" d="M123 0v1430h1007v-271h-626v-295h592v-270h-592v-324h649v-270h-1030zM267 1800h383l139 -295h-258z" />
<glyph unicode="&#xc9;" d="M123 0v1430h1007v-271h-626v-295h592v-270h-592v-324h649v-270h-1030zM459 1505l139 295h383l-264 -295h-258z" />
<glyph unicode="&#xca;" d="M123 0v1430h1007v-271h-626v-295h592v-270h-592v-324h649v-270h-1030zM232 1505l231 295h332l223 -295h-256l-133 160l-141 -160h-256z" />
<glyph unicode="&#xcb;" d="M123 0v1430h1007v-271h-626v-295h592v-270h-592v-324h649v-270h-1030zM246 1505v295h295v-295h-295zM713 1505v295h295v-295h-295z" />
<glyph unicode="&#xcc;" horiz-adv-x="684" d="M-16 1800h383l139 -295h-258zM152 0v1430h380v-1430h-380z" />
<glyph unicode="&#xcd;" horiz-adv-x="684" d="M152 0v1430h380v-1430h-380zM176 1505l139 295h383l-264 -295h-258z" />
<glyph unicode="&#xce;" horiz-adv-x="684" d="M-51 1505l231 295h332l223 -295h-256l-133 160l-141 -160h-256zM152 0v1430h380v-1430h-380z" />
<glyph unicode="&#xcf;" horiz-adv-x="684" d="M-37 1505v295h295v-295h-295zM152 0v1430h380v-1430h-380zM430 1505v295h295v-295h-295z" />
<glyph unicode="&#xd0;" horiz-adv-x="1593" d="M-4 639v209h137v582h520q408 0 611 -148q236 -170 235 -561q0 -721 -846 -721h-520v639h-137zM514 283h148q444 0 444 432q0 211 -117 321.5t-327 110.5h-148v-299h342v-209h-342v-356z" />
<glyph unicode="&#xd1;" horiz-adv-x="1593" d="M139 0v1430h486l483 -971h4l-6 971h348v-1430h-473l-500 977h-4l12 -977h-350zM398 1505q14 121 75 199q70 90 185 90q59 0 159.5 -37t133.5 -37q88 0 102 80h147q-35 -289 -264 -289q-57 0 -159.5 37t-131.5 37q-82 0 -100 -80h-147z" />
<glyph unicode="&#xd2;" horiz-adv-x="1593" d="M80 715q0 348 184.5 543.5t532.5 195.5t532 -195.5t184 -543.5q0 -346 -182 -541q-188 -199 -534 -199t-531.5 197t-185.5 543zM439 1800h383l139 -295h-258zM473 715q0 -195 76 -318q86 -139 248 -139t247 139q76 123 76 318q0 201 -76 321q-84 135 -247 135 q-164 0 -248 -135q-76 -120 -76 -321z" />
<glyph unicode="&#xd3;" horiz-adv-x="1593" d="M80 715q0 348 184.5 543.5t532.5 195.5t532 -195.5t184 -543.5q0 -346 -182 -541q-188 -199 -534 -199t-531.5 197t-185.5 543zM473 715q0 -195 76 -318q86 -139 248 -139t247 139q76 123 76 318q0 201 -76 321q-84 135 -247 135q-164 0 -248 -135q-76 -120 -76 -321z M631 1505l139 295h383l-264 -295h-258z" />
<glyph unicode="&#xd4;" horiz-adv-x="1593" d="M80 715q0 348 184.5 543.5t532.5 195.5t532 -195.5t184 -543.5q0 -346 -182 -541q-188 -199 -534 -199t-531.5 197t-185.5 543zM404 1505l231 295h332l223 -295h-256l-133 160l-141 -160h-256zM473 715q0 -195 76 -318q86 -139 248 -139t247 139q76 123 76 318 q0 201 -76 321q-84 135 -247 135q-164 0 -248 -135q-76 -120 -76 -321z" />
<glyph unicode="&#xd5;" horiz-adv-x="1593" d="M80 715q0 348 184.5 543.5t532.5 195.5t532 -195.5t184 -543.5q0 -346 -182 -541q-188 -199 -534 -199t-531.5 197t-185.5 543zM398 1505q14 121 75 199q70 90 185 90q59 0 159.5 -37t133.5 -37q88 0 102 80h147q-35 -289 -264 -289q-57 0 -159.5 37t-131.5 37 q-82 0 -100 -80h-147zM473 715q0 -195 76 -318q86 -139 248 -139t247 139q76 123 76 318q0 201 -76 321q-84 135 -247 135q-164 0 -248 -135q-76 -120 -76 -321z" />
<glyph unicode="&#xd6;" horiz-adv-x="1593" d="M80 715q0 348 184.5 543.5t532.5 195.5t532 -195.5t184 -543.5q0 -346 -182 -541q-188 -199 -534 -199t-531.5 197t-185.5 543zM418 1505v295h295v-295h-295zM473 715q0 -195 76 -318q86 -139 248 -139t247 139q76 123 76 318q0 201 -76 321q-84 135 -247 135 q-164 0 -248 -135q-76 -120 -76 -321zM885 1505v295h295v-295h-295z" />
<glyph unicode="&#xd7;" horiz-adv-x="1228" d="M127 207l311 311l-311 311l176 177l311 -312l312 312l176 -177l-314 -311l314 -311l-176 -176l-312 313l-311 -313z" />
<glyph unicode="&#xd8;" horiz-adv-x="1593" d="M31 35l186 198q-137 184 -137 482q0 348 184.5 543.5t532.5 195.5q268 0 442 -121l172 187l131 -123l-172 -187q143 -190 143 -495q0 -346 -182 -541q-188 -199 -534 -199q-281 0 -455 131l-180 -194zM473 715q0 -107 23 -183l512 551q-82 88 -211 88q-164 0 -248 -135 q-76 -121 -76 -321zM578 358q80 -100 219 -100q162 0 247 139q76 123 76 318q1 112 -24 200z" />
<glyph unicode="&#xd9;" horiz-adv-x="1478" d="M113 543v887h381v-824q0 -348 245 -348q246 0 246 348v824h381v-887q0 -285 -174 -430q-162 -137 -453 -138q-291 0 -452 138q-174 145 -174 430zM381 1800h383l139 -295h-258z" />
<glyph unicode="&#xda;" horiz-adv-x="1478" d="M113 543v887h381v-824q0 -348 245 -348q246 0 246 348v824h381v-887q0 -285 -174 -430q-162 -137 -453 -138q-291 0 -452 138q-174 145 -174 430zM574 1505l139 295h383l-264 -295h-258z" />
<glyph unicode="&#xdb;" horiz-adv-x="1478" d="M113 543v887h381v-824q0 -348 245 -348q246 0 246 348v824h381v-887q0 -285 -174 -430q-162 -137 -453 -138q-291 0 -452 138q-174 145 -174 430zM346 1505l231 295h332l223 -295h-256l-133 160l-141 -160h-256z" />
<glyph unicode="&#xdc;" horiz-adv-x="1478" d="M113 543v887h381v-824q0 -348 245 -348q246 0 246 348v824h381v-887q0 -285 -174 -430q-162 -137 -453 -138q-291 0 -452 138q-174 145 -174 430zM360 1505v295h295v-295h-295zM827 1505v295h295v-295h-295z" />
<glyph unicode="&#xdd;" horiz-adv-x="1478" d="M23 1430h438l280 -574l277 574h438l-524 -891v-539h-381v539zM602 1505l139 295h383l-264 -295h-258z" />
<glyph unicode="&#xde;" d="M113 0v1430h381v-179h73q334 0 484 -104q158 -111 157 -365q0 -461 -567 -460h-147v-322h-381zM494 592h98q236 0 235 196q0 193 -235 193h-98v-389z" />
<glyph unicode="&#xdf;" horiz-adv-x="1366" d="M115 0v1012q0 549 581 549q227 0 367 -91q168 -109 168 -331q0 -256 -256 -346v-5q311 -49 311 -356q0 -242 -168 -354q-133 -90 -356 -90q-88 0 -182 12l10 268q68 -10 133 -10q195 0 195 211q0 94 -52.5 147.5t-134.5 53.5q-68 0 -100 -4v262h51q78 0 129 54t51 140 q0 193 -176 193q-203 0 -203 -277v-1038h-368z" />
<glyph unicode="&#xe0;" d="M63 311q0 365 551 365q90 0 172 -14q-2 184 -243 184q-197 0 -340 -80l-6 250q186 76 426 76q225 0 356 -99q152 -115 151 -344v-397q1 -148 21 -252h-338q0 20 -4 84q-4 53 -4 84h-4q-121 -193 -338 -193q-170 0 -279 82q-121 90 -121 254zM267 1493h383l139 -295h-258z M408 338q0 -53 43 -85t108 -32q100 0 166 80q61 74 61 172q-141 6 -155 6q-223 0 -223 -141z" />
<glyph unicode="&#xe1;" d="M63 311q0 365 551 365q90 0 172 -14q-2 184 -243 184q-197 0 -340 -80l-6 250q186 76 426 76q225 0 356 -99q152 -115 151 -344v-397q1 -148 21 -252h-338q0 20 -4 84q-4 53 -4 84h-4q-121 -193 -338 -193q-170 0 -279 82q-121 90 -121 254zM408 338q0 -53 43 -85 t108 -32q100 0 166 80q61 74 61 172q-141 6 -155 6q-223 0 -223 -141zM488 1198l139 295h383l-264 -295h-258z" />
<glyph unicode="&#xe2;" d="M63 311q0 365 551 365q90 0 172 -14q-2 184 -243 184q-197 0 -340 -80l-6 250q186 76 426 76q225 0 356 -99q152 -115 151 -344v-397q1 -148 21 -252h-338q0 20 -4 84q-4 53 -4 84h-4q-121 -193 -338 -193q-170 0 -279 82q-121 90 -121 254zM232 1198l231 295h332 l223 -295h-256l-133 160l-141 -160h-256zM408 338q0 -53 43 -85t108 -32q100 0 166 80q61 74 61 172q-141 6 -155 6q-223 0 -223 -141z" />
<glyph unicode="&#xe3;" d="M63 311q0 365 551 365q90 0 172 -14q-2 184 -243 184q-197 0 -340 -80l-6 250q186 76 426 76q225 0 356 -99q152 -115 151 -344v-397q1 -148 21 -252h-338q0 20 -4 84q-4 53 -4 84h-4q-121 -193 -338 -193q-170 0 -279 82q-121 90 -121 254zM226 1198q14 121 75 199 q70 90 185 90q59 0 159.5 -37t133.5 -37q88 0 102 80h147q-35 -289 -264 -289q-57 0 -159.5 37t-131.5 37q-82 0 -100 -80h-147zM408 338q0 -53 43 -85t108 -32q100 0 166 80q61 74 61 172q-141 6 -155 6q-223 0 -223 -141z" />
<glyph unicode="&#xe4;" d="M63 311q0 365 551 365q90 0 172 -14q-2 184 -243 184q-197 0 -340 -80l-6 250q186 76 426 76q225 0 356 -99q152 -115 151 -344v-397q1 -148 21 -252h-338q0 20 -4 84q-4 53 -4 84h-4q-121 -193 -338 -193q-170 0 -279 82q-121 90 -121 254zM246 1198v295h295v-295h-295z M408 338q0 -53 43 -85t108 -32q100 0 166 80q61 74 61 172q-141 6 -155 6q-223 0 -223 -141zM713 1198v295h295v-295h-295z" />
<glyph unicode="&#xe5;" d="M63 311q0 365 551 365q90 0 172 -14q-2 184 -243 184q-197 0 -340 -80l-6 250q186 76 426 76q225 0 356 -99q152 -115 151 -344v-397q1 -148 21 -252h-338q0 20 -4 84q-4 53 -4 84h-4q-121 -193 -338 -193q-170 0 -279 82q-121 90 -121 254zM398 1389q0 94 67.5 161.5 t161.5 67.5t161.5 -67.5t67.5 -161.5t-67.5 -162t-161.5 -68t-161.5 68t-67.5 162zM408 338q0 -53 43 -85t108 -32q100 0 166 80q61 74 61 172q-141 6 -155 6q-223 0 -223 -141zM529 1389q0 -41 28.5 -70t69.5 -29t69.5 29t28.5 70t-28.5 69.5t-69.5 28.5t-69.5 -28.5 t-28.5 -69.5z" />
<glyph unicode="&#xe6;" horiz-adv-x="1933" d="M45 313q0 362 551 363q55 0 172 -10q-2 180 -244 180q-197 0 -340 -80l-6 252q197 78 426 74q250 -4 359 -131q164 131 376 131q279 0 418 -181q121 -156 121 -417v-68h-737q29 -205 313 -205q174 0 326 82v-260q-170 -68 -391 -68q-166 0 -269 41q-141 57 -217 199 q-133 -240 -459 -240q-170 0 -278 82q-121 90 -121 256zM389 340q0 -55 43 -87t109 -32q100 0 166 82q61 76 61 176h-141q-238 0 -238 -139zM1137 635h409q0 223 -205 223q-190 0 -204 -223z" />
<glyph unicode="&#xe7;" horiz-adv-x="1024" d="M63 532q0 260 179 412q170 147 442 148q172 -1 293 -60l-27 -270q-98 59 -223 59q-123 0 -203 -79.5t-80 -215.5q0 -123 93 -204q86 -76 211 -76q133 0 229 51l8 -274q-141 -47 -301 -48q-272 0 -442 148q-178 152 -179 409zM340 -408l34 95q96 -43 179 -43q104 0 104 63 q0 72 -78 72q-27 0 -57 -12l-80 49l86 184h135l-55 -133q47 10 98 10q66 0 109 -41q51 -47 51 -137q0 -154 -270 -154q-137 0 -256 47z" />
<glyph unicode="&#xe8;" d="M63 535q0 260 162 411q156 145 410 146q279 0 418 -181q121 -156 121 -417v-68h-738q29 -205 314 -205q174 0 325 82v-260q-170 -68 -391 -68q-270 0 -442 148q-178 154 -179 412zM267 1493h383l139 -295h-258zM432 635h410q0 223 -205 223q-191 0 -205 -223z" />
<glyph unicode="&#xe9;" d="M63 535q0 260 162 411q156 145 410 146q279 0 418 -181q121 -156 121 -417v-68h-738q29 -205 314 -205q174 0 325 82v-260q-170 -68 -391 -68q-270 0 -442 148q-178 154 -179 412zM432 635h410q0 223 -205 223q-191 0 -205 -223zM488 1198l139 295h383l-264 -295h-258z " />
<glyph unicode="&#xea;" d="M63 535q0 260 162 411q156 145 410 146q279 0 418 -181q121 -156 121 -417v-68h-738q29 -205 314 -205q174 0 325 82v-260q-170 -68 -391 -68q-270 0 -442 148q-178 154 -179 412zM232 1198l231 295h332l223 -295h-256l-133 160l-141 -160h-256zM432 635h410 q0 223 -205 223q-191 0 -205 -223z" />
<glyph unicode="&#xeb;" d="M63 535q0 260 162 411q156 145 410 146q279 0 418 -181q121 -156 121 -417v-68h-738q29 -205 314 -205q174 0 325 82v-260q-170 -68 -391 -68q-270 0 -442 148q-178 154 -179 412zM246 1198v295h295v-295h-295zM432 635h410q0 223 -205 223q-191 0 -205 -223zM713 1198 v295h295v-295h-295z" />
<glyph unicode="&#xec;" horiz-adv-x="684" d="M-16 1493h383l139 -295h-258zM158 0v1067h368v-1067h-368z" />
<glyph unicode="&#xed;" horiz-adv-x="684" d="M158 0v1067h368v-1067h-368zM205 1198l139 295h383l-264 -295h-258z" />
<glyph unicode="&#xee;" horiz-adv-x="684" d="M-51 1198l231 295h332l223 -295h-256l-133 160l-141 -160h-256zM158 0v1067h368v-1067h-368z" />
<glyph unicode="&#xef;" horiz-adv-x="684" d="M-37 1198v295h295v-295h-295zM158 0v1067h368v-1067h-368zM430 1198v295h295v-295h-295z" />
<glyph unicode="&#xf0;" horiz-adv-x="1368" d="M63 510q0 219 142.5 373.5t357.5 154.5q256 0 328 -166l4 5q-61 193 -311 342l-295 -136l-123 134l219 100q-43 18 -182 69l213 224q172 -59 317 -135l299 135l127 -131l-246 -111q391 -276 392 -750q0 -299 -167 -471t-470 -172q-291 0 -445 131q-160 137 -160 404z M444 510q0 -115 54 -188q61 -88 178 -89q125 0 190 89q57 76 58 190q0 113 -58 184q-66 84 -190 84q-117 0 -178 -84q-54 -71 -54 -186z" />
<glyph unicode="&#xf1;" horiz-adv-x="1366" d="M115 0v1067h336v-197h4q106 221 389 222q205 0 313 -129q94 -115 94 -297v-666h-368v516q0 268 -170 268q-229 0 -230 -333v-451h-368zM283 1198q14 121 75 199q70 90 185 90q59 0 159.5 -37t133.5 -37q88 0 102 80h147q-35 -289 -264 -289q-57 0 -159.5 37t-131.5 37 q-82 0 -100 -80h-147z" />
<glyph unicode="&#xf2;" horiz-adv-x="1368" d="M63 532q0 260 179 412q170 147 442 148q272 0 442 -148q178 -152 179 -412q0 -258 -179 -409q-170 -148 -442 -148t-442 148q-178 152 -179 409zM326 1493h383l139 -295h-258zM444 532q0 -129 56 -208q63 -91 184 -91t184 91q55 80 56 208q0 131 -56 211q-63 90 -184 91 q-121 0 -184 -91q-55 -80 -56 -211z" />
<glyph unicode="&#xf3;" horiz-adv-x="1368" d="M63 532q0 260 179 412q170 147 442 148q272 0 442 -148q178 -152 179 -412q0 -258 -179 -409q-170 -148 -442 -148t-442 148q-178 152 -179 409zM444 532q0 -129 56 -208q63 -91 184 -91t184 91q55 80 56 208q0 131 -56 211q-63 90 -184 91q-121 0 -184 -91 q-55 -80 -56 -211zM547 1198l139 295h383l-264 -295h-258z" />
<glyph unicode="&#xf4;" horiz-adv-x="1368" d="M63 532q0 260 179 412q170 147 442 148q272 0 442 -148q178 -152 179 -412q0 -258 -179 -409q-170 -148 -442 -148t-442 148q-178 152 -179 409zM291 1198l231 295h332l223 -295h-256l-133 160l-141 -160h-256zM444 532q0 -129 56 -208q63 -91 184 -91t184 91 q55 80 56 208q0 131 -56 211q-63 90 -184 91q-121 0 -184 -91q-55 -80 -56 -211z" />
<glyph unicode="&#xf5;" horiz-adv-x="1368" d="M63 532q0 260 179 412q170 147 442 148q272 0 442 -148q178 -152 179 -412q0 -258 -179 -409q-170 -148 -442 -148t-442 148q-178 152 -179 409zM285 1198q14 121 75 199q70 90 185 90q59 0 159.5 -37t133.5 -37q88 0 102 80h147q-35 -289 -264 -289q-57 0 -159.5 37 t-131.5 37q-82 0 -100 -80h-147zM444 532q0 -129 56 -208q63 -91 184 -91t184 91q55 80 56 208q0 131 -56 211q-63 90 -184 91q-121 0 -184 -91q-55 -80 -56 -211z" />
<glyph unicode="&#xf6;" horiz-adv-x="1368" d="M63 532q0 260 179 412q170 147 442 148q272 0 442 -148q178 -152 179 -412q0 -258 -179 -409q-170 -148 -442 -148t-442 148q-178 152 -179 409zM305 1198v295h295v-295h-295zM444 532q0 -129 56 -208q63 -91 184 -91t184 91q55 80 56 208q0 131 -56 211q-63 90 -184 91 q-121 0 -184 -91q-55 -80 -56 -211zM772 1198v295h295v-295h-295z" />
<glyph unicode="&#xf7;" horiz-adv-x="1228" d="M96 389v258h1037v-258h-1037zM422 92q0 78 56.5 134.5t133.5 56.5q78 0 134.5 -56.5t56.5 -134.5t-56.5 -134t-134.5 -56t-134 56t-56 134zM422 944q0 78 56.5 134.5t133.5 56.5q78 0 134.5 -56.5t56.5 -134.5t-56.5 -134t-134.5 -56t-134 56t-56 134z" />
<glyph unicode="&#xf8;" horiz-adv-x="1368" d="M63 532q0 260 179 412q170 147 442 148q199 0 342 -80l154 159l125 -118l-140 -146q139 -150 140 -375q0 -258 -179 -409q-170 -147 -442 -148q-193 0 -340 80l-154 -159l-124 118l139 144q-141 147 -142 374zM444 532q1 -59 13 -112l360 375q-55 39 -133 39 q-121 0 -184 -91q-55 -80 -56 -211zM553 272q51 -39 131 -39q121 0 184 91q55 80 56 208q-1 60 -13 111z" />
<glyph unicode="&#xf9;" horiz-adv-x="1366" d="M115 401v666h368v-516q0 -268 170 -268q229 0 230 333v451h368v-1067h-336v197h-4q-106 -221 -389 -222q-205 0 -313 131q-94 113 -94 295zM324 1493h383l139 -295h-258z" />
<glyph unicode="&#xfa;" horiz-adv-x="1366" d="M115 401v666h368v-516q0 -268 170 -268q229 0 230 333v451h368v-1067h-336v197h-4q-106 -221 -389 -222q-205 0 -313 131q-94 113 -94 295zM545 1198l139 295h383l-264 -295h-258z" />
<glyph unicode="&#xfb;" horiz-adv-x="1366" d="M115 401v666h368v-516q0 -268 170 -268q229 0 230 333v451h368v-1067h-336v197h-4q-106 -221 -389 -222q-205 0 -313 131q-94 113 -94 295zM289 1198l231 295h332l223 -295h-256l-133 160l-141 -160h-256z" />
<glyph unicode="&#xfc;" horiz-adv-x="1366" d="M115 401v666h368v-516q0 -268 170 -268q229 0 230 333v451h368v-1067h-336v197h-4q-106 -221 -389 -222q-205 0 -313 131q-94 113 -94 295zM303 1198v295h295v-295h-295zM770 1198v295h295v-295h-295z" />
<glyph unicode="&#xfd;" d="M16 1067h398l229 -696h4l219 696h369l-391 -993q-111 -283 -174 -365q-125 -164 -348 -164q-115 0 -230 25l25 280q68 -23 145 -22q145 0 187 147zM488 1198l139 295h383l-264 -295h-258z" />
<glyph unicode="&#xfe;" horiz-adv-x="1368" d="M106 -430v1966h371v-606h4q129 162 367 162q209 0 340 -172q117 -156 117 -367q0 -248 -125 -408q-133 -170 -363 -170q-242 0 -338 175h-4v-580h-369zM475 530q0 -115 66.5 -193.5t158.5 -78.5q102 0 163 79t61 208q0 111 -59.5 187.5t-164.5 76.5q-100 0 -162.5 -79 t-62.5 -200z" />
<glyph unicode="&#xff;" d="M16 1067h398l229 -696h4l219 696h369l-391 -993q-111 -283 -174 -365q-125 -164 -348 -164q-115 0 -230 25l25 280q68 -23 145 -22q145 0 187 147zM246 1198v295h295v-295h-295zM713 1198v295h295v-295h-295z" />
<glyph unicode="&#x152;" horiz-adv-x="2048" d="M37 715q0 340 184.5 533.5t532.5 193.5q96 0 285.5 -6t281.5 -6h668v-271h-594v-295h555v-270h-549v-324h610v-270h-852q-68 0 -202 -6t-203 -6q-344 0 -533 198q-184 193 -184 529zM430 715q0 -184 86 -305q98 -139 275 -140q45 0 119.5 4.5t97.5 4.5v872q-37 0 -123 4 t-131 4q-324 0 -324 -444z" />
<glyph unicode="&#x153;" horiz-adv-x="2048" d="M55 532q0 268 174 420q158 139 406 140q289 0 422 -162q143 162 397 162q279 0 418 -181q121 -156 121 -417v-68h-738q29 -205 314 -205q174 0 325 82v-260q-170 -68 -391 -68q-309 0 -442 172q-127 -172 -438 -172q-250 0 -404 142q-164 149 -164 415zM436 532 q0 -127 53 -213q61 -98 170 -98t170 98q53 86 54 213q0 129 -54 216q-61 98 -170 98t-170 -98q-53 -87 -53 -216zM1251 635h410q0 223 -205 223q-191 0 -205 -223z" />
<glyph unicode="&#x178;" horiz-adv-x="1478" d="M23 1430h438l280 -574l277 574h438l-524 -891v-539h-381v539zM360 1505v295h295v-295h-295zM827 1505v295h295v-295h-295z" />
<glyph unicode="&#x2c6;" horiz-adv-x="681" d="M-53 1198l231 295h332l223 -295h-256l-133 160l-141 -160h-256z" />
<glyph unicode="&#x2dc;" horiz-adv-x="681" d="M-59 1198q14 121 75 199q70 90 185 90q59 0 159.5 -37t133.5 -37q88 0 102 80h147q-35 -289 -264 -289q-57 0 -159.5 37t-131.5 37q-82 0 -100 -80h-147z" />
<glyph unicode="&#x2000;" horiz-adv-x="977" />
<glyph unicode="&#x2001;" horiz-adv-x="1954" />
<glyph unicode="&#x2002;" horiz-adv-x="977" />
<glyph unicode="&#x2003;" horiz-adv-x="1954" />
<glyph unicode="&#x2004;" horiz-adv-x="651" />
<glyph unicode="&#x2005;" horiz-adv-x="488" />
<glyph unicode="&#x2006;" horiz-adv-x="325" />
<glyph unicode="&#x2007;" horiz-adv-x="325" />
<glyph unicode="&#x2008;" horiz-adv-x="244" />
<glyph unicode="&#x2009;" horiz-adv-x="390" />
<glyph unicode="&#x200a;" horiz-adv-x="108" />
<glyph unicode="&#x2010;" horiz-adv-x="681" d="M63 416v270h555v-270h-555z" />
<glyph unicode="&#x2011;" horiz-adv-x="681" d="M63 416v270h555v-270h-555z" />
<glyph unicode="&#x2012;" horiz-adv-x="681" d="M63 416v270h555v-270h-555z" />
<glyph unicode="&#x2013;" horiz-adv-x="1024" d="M0 422v258h1024v-258h-1024z" />
<glyph unicode="&#x2014;" horiz-adv-x="2048" d="M0 422v258h2048v-258h-2048z" />
<glyph unicode="&#x2018;" horiz-adv-x="681" d="M100 874l201 556h281l-138 -556h-344z" />
<glyph unicode="&#x2019;" horiz-adv-x="681" d="M100 874l138 556h344l-201 -556h-281z" />
<glyph unicode="&#x201a;" horiz-adv-x="681" d="M100 -223l138 555h344l-201 -555h-281z" />
<glyph unicode="&#x201c;" d="M150 874l200 556h281l-137 -556h-344zM621 874l200 556h281l-137 -556h-344z" />
<glyph unicode="&#x201d;" d="M150 874l137 556h344l-201 -556h-280zM621 874l137 556h344l-201 -556h-280z" />
<glyph unicode="&#x201e;" d="M150 -223l137 555h346l-201 -555h-282zM618 -223l138 555h346l-201 -555h-283z" />
<glyph unicode="&#x2022;" horiz-adv-x="1024" d="M156 715q0 147 104.5 251.5t251.5 104.5t252.5 -104.5t105.5 -251.5t-105.5 -253t-252.5 -106t-251.5 106t-104.5 253z" />
<glyph unicode="&#x2026;" horiz-adv-x="2048" d="M170 0v332h344v-332h-344zM852 0v332h344v-332h-344zM1534 0v332h344v-332h-344z" />
<glyph unicode="&#x202f;" horiz-adv-x="390" />
<glyph unicode="&#x2039;" horiz-adv-x="681" d="M57 551l244 418h303l-225 -418l225 -418h-303z" />
<glyph unicode="&#x203a;" horiz-adv-x="681" d="M78 133l225 418l-225 418h303l244 -418l-244 -418h-303z" />
<glyph unicode="&#x205f;" horiz-adv-x="488" />
<glyph unicode="&#x2122;" horiz-adv-x="2048" d="M76 1245v185h704v-185h-241v-667h-222v667h-241zM977 578v852h315l183 -496l182 496h315v-852h-221v557h-4l-182 -557h-181l-182 557h-4v-557h-221z" />
<glyph unicode="&#x25fc;" horiz-adv-x="1064" d="M0 0v1065h1065v-1065h-1065z" />
</font>
</defs>
</svg>
